<?xml version="1.0" standalone="no"?>
<!DOCTYPE svg PUBLIC "-//W3C//DTD SVG 1.1//EN" "http://www.w3.org/Graphics/SVG/1.1/DTD/svg11.dtd" >
<svg xmlns="http://www.w3.org/2000/svg">
<metadata></metadata>
<defs>
<font id="SSSymboliconsLine" >
<font-face font-family="SS Symbolicons" units-per-em="896" ascent="952" descent="-280" />
<missing-glyph d="M0 896h896v-896h-896v896zM705 784h-514l257 -257zM112 705v-514l257 257zM191 112h514l-257 257zM784 191v514l-257 -257z" />
<glyph  horiz-adv-x="896" d="M0 896h896v-896h-896v896zM705 784h-514l257 -257zM112 705v-514l257 257zM191 112h514l-257 257zM784 191v514l-257 -257z" />
<glyph unicode="+" horiz-adv-x="896" d="M448 896q185 0 316.5 -131.5t131.5 -316.5t-131.5 -316.5t-316.5 -131.5t-316.5 131.5t-131.5 316.5t131.5 316.5t316.5 131.5zM448 56q162 0 277 114.5t115 277.5q0 162 -115 277t-277 115q-163 0 -277.5 -115t-114.5 -277q0 -163 114.5 -277.5t277.5 -114.5zM504 644
v-140h140v-112h-140v-140h-112v140h-140v112h140v140h112z" />
<glyph unicode="-" horiz-adv-x="896" d="M448 896q185 0 316.5 -131.5t131.5 -316.5t-131.5 -316.5t-316.5 -131.5t-316.5 131.5t-131.5 316.5t131.5 316.5t316.5 131.5zM448 56q162 0 277 114.5t115 277.5q0 162 -115 277t-277 115q-163 0 -277.5 -115t-114.5 -277q0 -163 114.5 -277.5t277.5 -114.5zM252 392
v112h392v-112h-392z" />
<glyph unicode="&#x201c;" horiz-adv-x="896" d="M840 476q23 0 39.5 -16.5t16.5 -39.5v-364q0 -23 -16.5 -39.5t-39.5 -16.5h-784q-23 0 -39.5 16.5t-16.5 39.5v420q0 197 96.5 308.5t267.5 111.5q23 0 39.5 -16.5t16.5 -39.5v-188q0 -23 -16.5 -39.5t-39.5 -16.5q-41 0 -62.5 -34.5t-21.5 -82.5v-3h140
q0 197 96.5 308.5t267.5 111.5q23 0 39.5 -16.5t16.5 -39.5v-188q0 -23 -16.5 -39.5t-39.5 -16.5q-41 0 -62.5 -34.5t-21.5 -82.5v-3h140zM420 56v364h-196v59q0 76 38.5 124.5t101.5 48.5v188q-147 0 -227.5 -95t-80.5 -269v-420h364zM840 56v364h-196v59q0 76 38.5 124.5
t101.5 48.5v188q-147 0 -227.5 -95t-80.5 -269v-420h364z" />
<glyph unicode="&#x2139;" horiz-adv-x="896" d="M448 896q185 0 316.5 -131.5t131.5 -316.5t-131.5 -316.5t-316.5 -131.5t-316.5 131.5t-131.5 316.5t131.5 316.5t316.5 131.5zM448 56q162 0 277 114.5t115 277.5q0 162 -115 277t-277 115q-163 0 -277.5 -115t-114.5 -277q0 -163 114.5 -277.5t277.5 -114.5zM504 532
v-252h56v-84h-196v84h56v168h-56v84h140zM504 644q0 23 -16.5 39.5t-39.5 16.5t-39.5 -16.5t-16.5 -39.5t16.5 -39.5t39.5 -16.5t39.5 16.5t16.5 39.5z" />
<glyph unicode="&#x2197;" horiz-adv-x="896" d="M616 56v303l56 56v-359q0 -23 -16.5 -39.5t-39.5 -16.5h-560q-23 0 -39.5 16.5t-16.5 39.5v564q0 22 16.5 37t39.5 15h363l-56 -56h-307v-560h560zM840 896q23 0 39.5 -16.5t16.5 -39.5v-392q0 -37 -35 -52q-9 -4 -21 -4q-22 0 -40 16l-107 108l-254 -256
q-17 -17 -40 -17q-25 2 -40 17l-98 100q-17 16 -17 39t17 40l255 254l-108 107q-26 26 -12 61q15 35 52 35h392zM840 448v392h-392l147 -147l-294 -294l98 -100l294 296zM278 532h-138v-392h392v136l28 28v-192h-448v448h194z" />
<glyph unicode="&#x21a9;" horiz-adv-x="896" d="M518 756q156 0 267 -111t111 -267t-111 -267t-267 -111h-14q-23 0 -39.5 16.5t-16.5 39.5v140q0 23 16.5 39.5t39.5 16.5h14q52 0 89 37t37 89t-37 89t-89 37h-154v-84q0 -36 -32 -51q-13 -5 -24 -5q-22 0 -36 13l-252 210q-20 17 -20 43t20 43l252 210q14 13 36 13
q11 0 24 -5q32 -17 32 -51v-84h154zM518 56q134 0 228 94t94 228t-94 228t-228 94h-210v140l-252 -210l252 -210v140h210q75 0 128.5 -53.5t53.5 -128.5t-53.5 -128.5t-128.5 -53.5h-14v-140h14z" />
<glyph unicode="&#x21aa;" horiz-adv-x="896" d="M0 378q0 156 111 267t267 111h154v84q0 34 32 51q13 5 24 5q22 0 36 -13l252 -210q20 -17 20 -43t-20 -43l-252 -210q-14 -13 -36 -13q-11 0 -24 5q-32 15 -32 51v84h-154q-52 0 -89 -37t-37 -89t37 -89t89 -37h14q23 0 39.5 -16.5t16.5 -39.5v-140q0 -23 -16.5 -39.5
t-39.5 -16.5h-14q-156 0 -267 111t-111 267zM56 378q0 -134 94 -228t228 -94h14v140h-14q-75 0 -128.5 53.5t-53.5 128.5t53.5 128.5t128.5 53.5h210v-140l252 210l-252 210v-140h-210q-134 0 -228 -94t-94 -228z" />
<glyph unicode="&#x21bb;" horiz-adv-x="896" d="M861 892q35 -15 35 -52v-309q0 -23 -16.5 -39t-39.5 -16h-313q-37 0 -52 34q-14 35 13 62l70 68q-51 28 -110 28q-91 0 -155.5 -64.5t-64.5 -155.5t64.5 -155.5t155.5 -64.5q65 0 119.5 35.5t81.5 95.5q14 33 51 33q13 0 22 -5l107 -45q21 -10 30 -31q8 -23 -1 -43
q-54 -122 -165.5 -195t-244.5 -73q-185 0 -316.5 131.5t-131.5 316.5t131.5 316.5t316.5 131.5q153 0 275 -94l77 77q17 17 40 17q12 0 21 -4zM840 532v308l-115 -115q-115 115 -277 115t-277 -115t-115 -277q0 -163 115 -277.5t277 -114.5q118 0 215.5 64.5t143.5 169.5
l-107 46q-33 -73 -101 -118.5t-151 -45.5q-114 0 -195 81t-81 195t81 195t195 81q116 0 195 -79l-116 -113h313z" />
<glyph unicode="&#x21c6;" horiz-adv-x="896" d="M873 283q23 -16 23 -45q0 -28 -23 -46l-252 -182q-17 -10 -33 -10q-14 0 -26 6q-30 17 -30 50v56h-420q-23 0 -39.5 16.5t-16.5 39.5v140q0 23 16.5 39.5t39.5 16.5h420v56q0 33 30 50q12 6 26 6q17 0 33 -11zM588 56l252 182l-252 182v-112h-476v-140h476v-112zM308 420
q-16 0 -33 10l-252 183q-23 16 -23 45q0 28 23 46l252 181q16 11 33 11q13 0 25 -6q31 -16 31 -50v-56h420q23 0 39.5 -16.5t16.5 -39.5v-140q0 -23 -16.5 -39.5t-39.5 -16.5h-420v-56q0 -34 -31 -50q-12 -6 -25 -6zM308 840l-252 -182l252 -182v112h476v140h-476v112z" />
<glyph unicode="&#x22c6;" horiz-adv-x="896" d="M893 558q11 -33 -13 -57l-176 -180l42 -256q5 -34 -23 -55q-14 -10 -33 -10q-14 0 -27 7l-215 119l-215 -119q-13 -7 -27 -7q-19 0 -33 10q-28 21 -23 55l42 256l-176 180q-24 24 -13 57q12 33 44 38l242 37l108 231q17 32 51 32t51 -32l108 -231l241 -37q33 -5 45 -38z
M644 340l196 200l-271 42l-121 258l-121 -258l-271 -42l196 -200l-46 -284l242 134l242 -134z" />
<glyph unicode="&#x2302;" horiz-adv-x="896" d="M196 364v84h84v-84h-84zM308 476v84h84v-84h-84zM308 364v84h84v-84h-84zM196 476v84h84v-84h-84zM880 585q6 -6 10 -16t5 -17l1 -7v-489q0 -23 -16.5 -39.5t-39.5 -16.5h-784q-23 0 -39.5 16.5t-16.5 39.5v459q0 22 13 36l269 324q18 21 42 21h236q22 0 40 -16l2 -3
q16 19 42 19h112q23 0 39.5 -16.5t16.5 -39.5v-187zM588 56v489l-287 287l-245 -300v-476h532zM840 56v476h-224v-476h224zM560 840h-237l280 -280h237l-84 84v196h-112v-84z" />
<glyph unicode="&#x2315;" horiz-adv-x="896" d="M821 456l-396 -395q-74 -61 -168 -61q-105 0 -182 75q-75 76 -75 182.5t75 182.5q75 75 183 75q107 0 182 -75q23 -25 35 -44l25 25q-27 17 -44 35q-76 75 -76 182t76 183q77 75 182 75q106 0 183 -75q75 -76 75 -183t-75 -182zM393 108l388 387q59 59 59 143t-59 143
t-143 59q-83 0 -142 -59t-59 -143t59 -143q42 -42 103 -55l-143 -143q-13 61 -56 103q-58 59 -142 59q-85 0 -143 -59q-59 -58 -59 -142t59 -143t142 -59q80 0 136 52zM258 351q37 0 66 -27q27 -28 27 -66.5t-27 -65.5q-28 -28 -66 -28q-40 0 -66 28q-28 27 -28 65.5
t28 66.5q27 27 66 27zM304 211q19 19 19 46t-19 47q-19 19 -46 19q-28 0 -47 -19q-19 -20 -19 -47t19 -46q21 -19 47 -19q25 0 46 19zM638 732q40 0 66 -28q28 -27 28 -65.5t-28 -66.5q-27 -27 -66 -27q-37 0 -66 27q-27 28 -27 66.5t27 65.5q28 28 66 28zM684 592
q20 19 20 46t-20 46q-18 20 -46 20q-26 0 -46 -20q-20 -19 -20 -46t20 -46q19 -19 46 -19q28 0 46 19z" />
<glyph unicode="&#x2316;" horiz-adv-x="896" d="M448 896q185 0 316.5 -131.5t131.5 -316.5t-131.5 -316.5t-316.5 -131.5t-316.5 131.5t-131.5 316.5t131.5 316.5t316.5 131.5zM448 56q162 0 277 114.5t115 277.5q0 162 -115 277t-277 115q-163 0 -277.5 -115t-114.5 -277q0 -163 114.5 -277.5t277.5 -114.5zM448 784
q140 0 238 -98t98 -238t-98 -238t-238 -98t-238 98t-98 238t98 238t238 98zM476 141q111 11 189.5 89.5t89.5 189.5h-167v56h167q-11 111 -89.5 189.5t-189.5 89.5v-167h-56v167q-111 -11 -189.5 -89.5t-89.5 -189.5h167v-56h-167q11 -111 89.5 -189.5t189.5 -89.5v167h56
v-167z" />
<glyph unicode="&#x232b;" horiz-adv-x="896" d="M840 896q23 0 39.5 -16.5t16.5 -39.5v-784q0 -23 -16.5 -39.5t-39.5 -16.5h-493q-30 0 -45 23l-291 392q-11 14 -11 33t11 33l291 392q15 23 45 23h493zM840 56v784h-493l-291 -392l291 -392h493zM419 358l91 90l-91 91l55 55l90 -90l91 90l55 -55l-91 -90l91 -91
l-55 -55l-90 90l-90 -90z" />
<glyph unicode="&#x2399;" horiz-adv-x="896" d="M616 392h-336v-28h336v28zM616 308h-336v-28h336v28zM840 756q23 0 39.5 -16.5t16.5 -39.5v-336q0 -23 -16.5 -39.5t-39.5 -16.5h-84v-95q0 -25 -16 -41l-155 -156q-18 -16 -40 -16h-349q-23 0 -39.5 16.5t-16.5 39.5v252h-84q-23 0 -39.5 16.5t-16.5 39.5v336
q0 23 16.5 39.5t39.5 16.5h89l25 98q5 18 20 30t34 12h448q19 0 34 -12t20 -30l25 -98h89zM224 840l-28 -112h504l-28 112h-448zM560 56l140 140h-140v-140zM700 224v224h-504v-392h336v168h168zM840 364v336h-784v-336h112v112h560v-112h112zM224 602q0 17 -12.5 29.5
t-29.5 12.5t-29.5 -12.5t-12.5 -29.5t12.5 -29.5t29.5 -12.5t29.5 12.5t12.5 29.5zM336 602q0 17 -12.5 29.5t-29.5 12.5t-29.5 -12.5t-12.5 -29.5t12.5 -29.5t29.5 -12.5t29.5 12.5t12.5 29.5z" />
<glyph unicode="&#x23cf;" horiz-adv-x="896" d="M448 896q185 0 316.5 -131.5t131.5 -316.5t-131.5 -316.5t-316.5 -131.5t-316.5 131.5t-131.5 316.5t131.5 316.5t316.5 131.5zM448 56q163 0 277.5 114.5t114.5 277.5q0 162 -114.5 277t-277.5 115t-277.5 -115t-114.5 -277q0 -163 114.5 -277.5t277.5 -114.5zM224 308
v84h448v-84h-448zM448 672l210 -252h-420z" />
<glyph unicode="&#x23e9;" horiz-adv-x="896" d="M448 0q-185 0 -316.5 131.5t-131.5 316.5t131.5 316.5t316.5 131.5t316.5 -131.5t131.5 -316.5t-131.5 -316.5t-316.5 -131.5zM448 840q-163 0 -277.5 -115t-114.5 -277q0 -163 114.5 -277.5t277.5 -114.5q162 0 277 114.5t115 277.5q0 162 -115 277t-277 115zM476 238
v182l-224 -182v420l224 -182v182l252 -210z" />
<glyph unicode="&#x23ea;" horiz-adv-x="896" d="M448 896q185 0 316.5 -131.5t131.5 -316.5t-131.5 -316.5t-316.5 -131.5t-316.5 131.5t-131.5 316.5t131.5 316.5t316.5 131.5zM448 56q162 0 277 114.5t115 277.5q0 162 -115 277t-277 115q-163 0 -277.5 -115t-114.5 -277q0 -163 114.5 -277.5t277.5 -114.5zM420 658
v-182l224 182v-420l-224 182v-182l-252 210z" />
<glyph unicode="&#x23ed;" horiz-adv-x="896" d="M448 896q185 0 316.5 -131.5t131.5 -316.5t-131.5 -316.5t-316.5 -131.5t-316.5 131.5t-131.5 316.5t131.5 316.5t316.5 131.5zM448 56q162 0 277 114.5t115 277.5q0 162 -115 277t-277 115q-163 0 -277.5 -115t-114.5 -277q0 -163 114.5 -277.5t277.5 -114.5zM560 224
v448h84v-448h-84zM252 238v420l252 -210z" />
<glyph unicode="&#x23ee;" horiz-adv-x="896" d="M448 0q-185 0 -316.5 131.5t-131.5 316.5t131.5 316.5t316.5 131.5t316.5 -131.5t131.5 -316.5t-131.5 -316.5t-316.5 -131.5zM448 840q-163 0 -277.5 -115t-114.5 -277q0 -163 114.5 -277.5t277.5 -114.5q162 0 277 114.5t115 277.5q0 162 -115 277t-277 115zM336 672
v-448h-84v448h84zM644 658v-420l-252 210z" />
<glyph unicode="&#x23f0;" horiz-adv-x="896" d="M518 434q0 46 -42 64v132q0 11 -8.5 19.5t-19.5 8.5q-12 0 -20 -8.5t-8 -19.5v-132q-25 -11 -36 -36h-104q-12 0 -20 -8.5t-8 -19.5q0 -12 8 -20t20 -8h104q18 -42 64 -42q29 0 49.5 20.5t20.5 49.5zM839 542q15 -57 15 -108q0 -85 -33.5 -161.5t-93.5 -133.5v1l74 -74
q11 -11 11 -27.5t-11 -27.5q-13 -11 -28 -11q-14 0 -27 11l-81 81q-99 -64 -217 -64q-117 0 -218 64l-80 -81q-11 -11 -27.5 -11t-27.5 11q-11 13 -11 28q0 14 11 27l74 74v-1q-60 57 -93.5 133.5t-33.5 161.5q0 57 15 108q-57 62 -57 144q0 87 61.5 148.5t148.5 61.5
q89 0 152 -65q42 9 86 9t86 -9q62 65 152 65q87 0 148.5 -61.5t61.5 -148.5q0 -82 -57 -144zM56 686q0 -44 24 -82q33 71 89.5 125t128.5 82q-40 29 -88 29q-64 0 -109 -45t-45 -109zM448 84q145 0 247.5 102.5t102.5 247.5t-102.5 247.5t-247.5 102.5t-247.5 -102.5
t-102.5 -247.5t102.5 -247.5t247.5 -102.5zM597 811q72 -28 129 -82t90 -125q24 38 24 82q0 64 -45 109t-109 45q-47 0 -89 -29zM448 735q124 0 212.5 -88.5t88.5 -212.5t-88.5 -212.5t-212.5 -88.5t-212.5 88.5t-88.5 212.5t88.5 212.5t212.5 88.5zM448 161q113 0 193 80
t80 193t-80 193t-193 80t-193 -80t-80 -193t80 -193t193 -80z" />
<glyph unicode="&#x23f1;" horiz-adv-x="896" d="M462 392q0 46 -42 64v132q0 11 -8.5 19.5t-19.5 8.5q-12 0 -20 -8.5t-8 -19.5v-132q-25 -11 -36 -36h-104q-12 0 -20 -8.5t-8 -19.5q0 -12 8 -20t20 -8h104q18 -42 64 -42q29 0 49.5 20.5t20.5 49.5zM880 701q16 -16 16 -39q0 -22 -16 -40l-60 -59q-17 -17 -39 -17
q-18 0 -35 12q38 -79 38 -166q0 -162 -115 -277t-277 -115t-277 115t-115 277t115 277t277 115q87 0 166 -38q-13 16 -11.5 37.5t16.5 36.5l59 60q18 16 40 16q21 0 39 -16zM781 602l59 60l-178 178l-60 -59l70 -70v0l-63 -63q-94 80 -217 80q-140 0 -238 -98t-98 -238
t98 -238t238 -98t238 98t98 238q0 123 -80 217l63 63zM392 679q118 0 202.5 -84.5t84.5 -202.5q0 -119 -84 -203t-203 -84t-203 84t-84 203t84 203t203 84zM392 133q107 0 183 76t76 183t-76 183t-183 76t-183 -76t-76 -183t76 -183t183 -76z" />
<glyph unicode="&#x23f2;" horiz-adv-x="896" d="M448 896q185 0 316.5 -131.5t131.5 -316.5t-131.5 -316.5t-316.5 -131.5t-316.5 131.5t-131.5 316.5t131.5 316.5t316.5 131.5zM448 56q162 0 277 114.5t115 277.5q0 162 -115 277t-277 115q-163 0 -277.5 -115t-114.5 -277q0 -163 114.5 -277.5t277.5 -114.5zM518 448
q0 46 -42 64v188q0 11 -8.5 19.5t-19.5 8.5q-12 0 -20 -8.5t-8 -19.5v-188q-25 -11 -36 -36h-160q-12 0 -20 -8.5t-8 -19.5q0 -12 8 -20t20 -8h160q18 -42 64 -42q29 0 49.5 20.5t20.5 49.5zM448 784q140 0 238 -98t98 -238t-98 -238t-238 -98t-238 98t-98 238t98 238
t238 98zM448 140q128 0 218 90t90 218t-90 218t-218 90t-218 -90t-90 -218t90 -218t218 -90z" />
<glyph unicode="&#x23f3;" horiz-adv-x="896" d="M644 672l-168 -152v-128l196 -168v-28h-448v28l196 168v128l-168 152h392zM677 513q-53 -47 -64 -65q14 -22 64 -65q43 -39 75 -95t32 -104v-16h56q23 0 39.5 -16.5t16.5 -39.5v-56q0 -23 -16.5 -39.5t-39.5 -16.5h-784q-23 0 -39.5 16.5t-16.5 39.5v56q0 23 16.5 39.5
t39.5 16.5h56v16q0 49 31 104.5t77 94.5q48 41 61 65q-13 25 -62 65q-45 38 -76 94t-31 105v16h-56q-23 0 -39.5 16.5t-16.5 39.5v56q0 23 16.5 39.5t39.5 16.5h784q23 0 39.5 -16.5t16.5 -39.5v-56q0 -23 -16.5 -39.5t-39.5 -16.5h-56v-16q0 -49 -29.5 -102t-77.5 -97z
M56 784h784v56h-784v-56zM840 112h-784v-56h784v56zM728 712v44h-560v-44q0 -37 24.5 -82t60.5 -72t61 -59.5t25 -50.5t-25 -50.5t-60 -59.5q-36 -27 -61 -72t-25 -82v-44h560v44q0 37 -24.5 82t-60.5 72t-62 59.5t-26 50.5t26 50.5t62 59.5t60.5 72t24.5 82z" />
<glyph unicode="&#x2421;" horiz-adv-x="896" d="M622 546l-98 -98l98 -98l-76 -76l-98 98l-99 -98l-75 76l98 98l-98 98l75 76l99 -98l98 98zM448 896q185 0 316.5 -131.5t131.5 -316.5t-131.5 -316.5t-316.5 -131.5t-316.5 131.5t-131.5 316.5t131.5 316.5t316.5 131.5zM448 56q162 0 277 114.5t115 277.5
q0 162 -115 277t-277 115q-163 0 -277.5 -115t-114.5 -277q0 -163 114.5 -277.5t277.5 -114.5z" />
<glyph unicode="&#x25a0;" horiz-adv-x="896" d="M448 896q185 0 316.5 -131.5t131.5 -316.5t-131.5 -316.5t-316.5 -131.5t-316.5 131.5t-131.5 316.5t131.5 316.5t316.5 131.5zM448 56q162 0 277 114.5t115 277.5q0 162 -115 277t-277 115q-163 0 -277.5 -115t-114.5 -277q0 -163 114.5 -277.5t277.5 -114.5zM280 280
v336h336v-336h-336z" />
<glyph unicode="&#x25b6;" horiz-adv-x="896" d="M448 896q185 0 316.5 -131.5t131.5 -316.5t-131.5 -316.5t-316.5 -131.5t-316.5 131.5t-131.5 316.5t131.5 316.5t316.5 131.5zM448 56q162 0 277 114.5t115 277.5q0 162 -115 277t-277 115q-163 0 -277.5 -115t-114.5 -277q0 -163 114.5 -277.5t277.5 -114.5zM364 252
v392l266 -196z" />
<glyph unicode="&#x25bb;" horiz-adv-x="896" d="M448 0q-185 0 -316.5 131.5t-131.5 316.5t131.5 316.5t316.5 131.5t316.5 -131.5t131.5 -316.5t-131.5 -316.5t-316.5 -131.5zM448 840q-163 0 -277.5 -115t-114.5 -277q0 -163 114.5 -277.5t277.5 -114.5q162 0 277 114.5t115 277.5q0 162 -115 277t-277 115zM420 238
v154h-168v112h168v154l252 -210z" />
<glyph unicode="&#x25c5;" horiz-adv-x="896" d="M448 896q185 0 316.5 -131.5t131.5 -316.5t-131.5 -316.5t-316.5 -131.5t-316.5 131.5t-131.5 316.5t131.5 316.5t316.5 131.5zM448 56q162 0 277 114.5t115 277.5q0 162 -115 277t-277 115q-163 0 -277.5 -115t-114.5 -277q0 -163 114.5 -277.5t277.5 -114.5zM476 658
v-154h168v-112h-168v-154l-252 210z" />
<glyph unicode="&#x25ce;" horiz-adv-x="896" d="M448 896q185 0 316.5 -131.5t131.5 -316.5q0 -186 -131.5 -317t-316.5 -131q-186 0 -317 131t-131 317q0 185 131 316.5t317 131.5zM448 56q162 0 277 115t115 277t-115 277t-277 115t-277 -115t-115 -277t115 -277t277 -115zM448 756q128 0 218 -90t90 -218t-90 -218
t-218 -90t-218 90t-90 218t90 218t218 90zM448 196q104 0 178 74t74 178t-74 178t-178 74t-178 -74t-74 -178t74 -178t178 -74zM448 630q75 0 128.5 -53.5t53.5 -128.5t-53.5 -128.5t-128.5 -53.5t-128.5 53.5t-53.5 128.5t53.5 128.5t128.5 53.5zM448 322q52 0 89 37t37 89
t-37 89t-89 37t-89 -37t-37 -89t37 -89t89 -37zM504 448q0 23 -16.5 39.5t-39.5 16.5t-39.5 -16.5t-16.5 -39.5t16.5 -39.5t39.5 -16.5t39.5 16.5t16.5 39.5z" />
<glyph unicode="&#x25cf;" horiz-adv-x="896" d="M448 896q185 0 316.5 -131.5t131.5 -316.5t-131.5 -316.5t-316.5 -131.5t-316.5 131.5t-131.5 316.5t131.5 316.5t316.5 131.5zM448 56q162 0 277 114.5t115 277.5q0 162 -115 277t-277 115q-163 0 -277.5 -115t-114.5 -277q0 -163 114.5 -277.5t277.5 -114.5zM637 448
q0 78 -55.5 133.5t-133.5 55.5t-133.5 -55.5t-55.5 -133.5t55.5 -133.5t133.5 -55.5t133.5 55.5t55.5 133.5z" />
<glyph unicode="&#x2600;" horiz-adv-x="896" d="M857 409q24 -16 34 -43.5t1 -55.5q-8 -26 -31 -43t-51 -17h-3l-79 2l24 -66q10 -27 2.5 -54.5t-30.5 -44.5q-22 -18 -53 -18q-28 0 -51 17l-67 49l-22 -74q-9 -28 -31.5 -44.5t-51.5 -16.5t-51.5 16.5t-31.5 44.5l-23 74l-66 -49q-22 -16 -51 -16q-30 0 -53 17t-31 45
t2 55l28 75l-79 -7h-3h-4q-33 0 -53.5 16.5t-27.5 39.5q-9 27 1 54.5t34 43.5l60 39l-60 39q-24 16 -34 43t-1 55q8 27 31 44t51 17h3l79 -2l-25 66q-10 27 -2 54.5t31 45.5q23 17 52 17t52 -17l66 -49l23 74q9 27 32 44t51 17t51 -17t31 -44l23 -74l67 50q24 16 52 16
q29 0 52 -17t30.5 -44t-2.5 -55l-21 -56l78 -3q30 0 52.5 -20t30.5 -47q9 -27 -1 -54.5t-34 -43.5l-61 -39zM839 327q7 22 -13 35l-86 56q-21 15 -21 30t21 30l86 56q20 13 13 35q-3 11 -11.5 19t-18.5 8l-104 4h-2h-9q-23 0 -28 8q-8 11 -1 32l35 91q8 20 -10 35
q-8 5 -18 5t-19 -6l-82 -60q-15 -12 -31 -12q-25 0 -34 31l-29 95q-7 21 -29 21t-29 -21l-30 -95q-9 -31 -34 -31q-15 0 -30 12l-83 60q-8 6 -18 6q-9 0 -18 -6q-19 -14 -10 -35l35 -93q8 -23 -1 -35q-10 -15 -37 -15l-106 3h-1q-22 0 -29 -21q-7 -22 13 -35l86 -56
q21 -15 21 -30t-21 -30l-86 -56q-20 -13 -13 -35q5 -16 28 -16h2l104 8h2q22 0 37 -19q9 -14 1 -38l-35 -95q-9 -21 10 -35q9 -6 19 -6q11 0 17 5l83 60q15 12 30 12q25 0 34 -31l30 -95q7 -21 29 -21t29 21l29 95q9 31 34 31q16 0 31 -12l82 -60q9 -6 18 -6q10 0 19 6
q19 14 10 35l-35 93q-8 23 1 35q10 15 37 15l106 -3h1q22 0 29 21zM448 644q81 0 138.5 -57.5t57.5 -138.5t-57.5 -138.5t-138.5 -57.5t-138.5 57.5t-57.5 138.5t57.5 138.5t138.5 57.5zM448 280q70 0 119 49t49 119t-49 119t-119 49t-119 -49t-49 -119t49 -119t119 -49z
" />
<glyph unicode="&#x2602;" horiz-adv-x="896" d="M532 805q165 -28 264.5 -140t99.5 -273q0 -35 -25 -59.5t-61 -24.5t-62 28q-26 -23 -59 -23q-35 0 -59 24q-26 -26 -61 -26q-19 0 -37 8v-118q0 -86 -52 -143.5t-130 -57.5t-130 55t-52 141q0 35 24 59.5t60 24.5q37 0 60.5 -24.5t23.5 -59.5q2 -26 15 -26q6 0 9 8t4 16
v7v120q-18 -8 -37 -8q-35 0 -60 25q-27 -25 -61 -25q-35 0 -60 25q-27 -25 -60 -25q-40 0 -63 23.5t-23 55.5q0 162 99 274t265 140v5q0 35 24.5 60t59.5 25t59.5 -25t24.5 -60v-6zM476 201v191h-56v-191q0 -39 -19 -64t-50 -25t-51 23t-20 61q0 12 -8 20t-20 8t-20 -8
t-8 -20q0 -63 35 -101.5t91 -38.5q55 0 90.5 41t35.5 104zM810 364q13 0 21.5 8t8.5 20q0 108 -51 189.5t-131.5 124t-181.5 50.5v55q0 12 -8 20.5t-20 8.5t-20 -8.5t-8 -20.5v-55q-155 -11 -259.5 -107t-104.5 -257q0 -23 30 -23q12 0 20.5 9t8.5 21q0 13 9 22t22 9t22 -9
t9 -22q0 -12 8.5 -21t20.5 -9q13 0 21.5 9t8.5 21q0 13 9 22t22 9t21.5 -9t8.5 -22q0 -12 9 -21t21 -9q13 0 21.5 6.5t8.5 18.5q0 26 30 26h121q31 0 31 -26q0 -12 8.5 -19.5t21.5 -7.5q12 0 20.5 9t8.5 22t9 22t22 9t22 -8.5t9 -21.5t8.5 -21.5t20.5 -8.5q13 0 21.5 9
t8.5 21q0 13 9 22t22 9q12 0 21.5 -10.5t9.5 -23.5q0 -12 8.5 -22t20.5 -10z" />
<glyph unicode="&#x2607;" horiz-adv-x="896" d="M840 644q23 0 39.5 -16.5t16.5 -39.5q0 -28 -23 -46l-699 -531q-16 -11 -34 -11q-20 0 -37 14q-15 13 -18.5 33t6.5 37l175 308h-210q-33 0 -50 30q-15 31 4 58l280 392q18 24 46 24h392q37 0 52 -35q14 -36 -13 -61l-156 -156h229zM140 56l700 532h-364l252 252h-392
l-280 -392h308z" />
<glyph unicode="&#x260e;" horiz-adv-x="896" d="M896 588q0 -23 -16.5 -39.5t-39.5 -16.5h-86q44 -78 86 -172.5t54 -150.5q2 -8 2 -11v-2v-140q0 -23 -16.5 -39.5t-39.5 -16.5h-784q-23 0 -39.5 16.5t-16.5 39.5v140v2q0 1 0.5 5t0.5 6q13 56 55 151t86 172h-86q-23 0 -39.5 16.5t-16.5 39.5v81q0 21 10.5 46.5t41 58.5
t76.5 59.5t126 44.5t181 18h13h13q101 0 181 -18t126 -44.5t76.5 -59.5t41 -58.5t10.5 -46.5v-81zM56 56h784v112h-784v-112zM840 196q-13 61 -68.5 179.5t-99.5 184.5h-28v84q-28 28 -112 37v-65h-168v65q-84 -9 -112 -37v-84h-28q-44 -66 -99.5 -184.5t-68.5 -179.5h784z
M672 588h168v81q0 13 -9 32t-35.5 44t-66 45.5t-110 35t-158.5 14.5h-13h-13q-88 0 -158.5 -14.5t-110.5 -35t-66 -45.5t-35 -44t-9 -32v-81h168v56q0 21 46 40.5t100 25.5q32 4 78 4t78 -4q57 -6 101.5 -24t44.5 -42v-56zM448 560q70 0 119 -45t49 -109t-49 -109t-119 -45
t-119 45t-49 109t49 109t119 45zM448 280q28 0 54 9l-26 103l105 -26q7 21 7 40q0 52 -41 89t-99 37t-99 -37t-41 -89t41 -89t99 -37z" />
<glyph unicode="&#x260f;" horiz-adv-x="896" d="M896 588q0 -23 -16.5 -39.5t-39.5 -16.5h-86q44 -78 86 -172.5t54 -150.5q2 -8 2 -11v-2v-140q0 -23 -16.5 -39.5t-39.5 -16.5h-784q-23 0 -39.5 16.5t-16.5 39.5v140v2q0 1 0.5 5t0.5 6q13 56 55 151t86 172h-86q-23 0 -39.5 16.5t-16.5 39.5v81q0 21 10.5 46.5t41 58.5
t76.5 59.5t126 44.5t181 18h13h13q101 0 181 -18t126 -44.5t76.5 -59.5t41 -58.5t10.5 -46.5v-81zM56 56h784v112h-784v-112zM840 196q-13 61 -68.5 179.5t-99.5 184.5h-28v84q-28 28 -112 37v-65h-168v65q-84 -9 -112 -37v-84h-28q-44 -66 -99.5 -184.5t-68.5 -179.5h784z
M672 588h168v81q0 13 -9 32t-35.5 44t-66 45.5t-110 35t-158.5 14.5h-13h-13q-88 0 -158.5 -14.5t-110.5 -35t-66 -45.5t-35 -44t-9 -32v-81h168v56q0 21 46 40.5t100 25.5q32 4 78 4t78 -4q57 -6 101.5 -24t44.5 -42v-56zM364 476q0 11 -16.5 19.5t-39.5 8.5t-39.5 -8.5
t-16.5 -19.5q0 -12 16.5 -20t39.5 -8t39.5 8t16.5 20zM504 476q0 11 -16.5 19.5t-39.5 8.5t-39.5 -8.5t-16.5 -19.5q0 -12 16.5 -20t39.5 -8t39.5 8t16.5 20zM644 476q0 11 -16.5 19.5t-39.5 8.5t-39.5 -8.5t-16.5 -19.5q0 -12 16.5 -20t39.5 -8t39.5 8t16.5 20zM364 392
q0 11 -16.5 19.5t-39.5 8.5t-39.5 -8.5t-16.5 -19.5q0 -12 16.5 -20t39.5 -8t39.5 8t16.5 20zM504 392q0 11 -16.5 19.5t-39.5 8.5t-39.5 -8.5t-16.5 -19.5q0 -12 16.5 -20t39.5 -8t39.5 8t16.5 20zM644 392q0 11 -16.5 19.5t-39.5 8.5t-39.5 -8.5t-16.5 -19.5
q0 -12 16.5 -20t39.5 -8t39.5 8t16.5 20zM364 308q0 11 -16.5 19.5t-39.5 8.5t-39.5 -8.5t-16.5 -19.5q0 -12 16.5 -20t39.5 -8t39.5 8t16.5 20zM504 308q0 11 -16.5 19.5t-39.5 8.5t-39.5 -8.5t-16.5 -19.5q0 -12 16.5 -20t39.5 -8t39.5 8t16.5 20zM644 308
q0 11 -16.5 19.5t-39.5 8.5t-39.5 -8.5t-16.5 -19.5q0 -12 16.5 -20t39.5 -8t39.5 8t16.5 20z" />
<glyph unicode="&#x2615;" horiz-adv-x="896" d="M879 436l-406 -391q-45 -45 -106 -45q-54 0 -93 37l-235 236q-40 40 -37.5 98t45.5 100l19 20l-30 30q-36 36 -36 87t36 87l165 165q36 36 87 36t87 -36l29 -29l31 33q16 18 40 18h1q21 0 39 -16l364 -350q17 -15 17 -40t-17 -40zM433 84l407 392l-364 350l-71 -75
l-70 69q-20 20 -47 20q-28 0 -48 -20l-164 -165q-20 -19 -20 -47t20 -47l69 -70l-59 -59q-26 -26 -28 -61.5t21 -58.5l235 -235q21 -21 53 -21q36 0 66 28zM193 538l165 168l-70 73l-165 -165zM354 573q34 34 83 34q38 0 62 -24q24 -23 26 -59q36 -2 59 -26q28 -32 23.5 -74
t-33.5 -71q-45 -45 -159 -45q-12 0 -24 0.5t-21 1t-16.5 1.5t-11.5 1l-5 1l-20 3l-3 20q-4 25 -6.5 57t7 91t39.5 89zM492 491q17 43 -13 73q-15 15 -42 15q-39 0 -63 -26q-25 -25 -33 -78t-3 -93l4 -41q32 -5 73 -5q102 0 139 37q22 22 26 53.5t-15 51.5q-21 19 -46 19
q-13 0 -27 -6z" />
<glyph unicode="&#x2622;" horiz-adv-x="896" d="M448 308q44 0 81 26l85 -146q-77 -48 -166 -48q-90 0 -166 48l85 146q37 -26 81 -26zM308 448q0 -2 0.5 -7t0.5 -8h-168q-1 5 -1 15q0 128 90 218q37 36 76 55l84 -146q-37 -17 -59.5 -51t-22.5 -76zM666 666q90 -90 90 -218q0 -2 -0.5 -7t-0.5 -8h-169q2 10 2 15
q0 42 -22.5 76t-59.5 51l84 146q39 -19 76 -55zM504 448q0 23 -16.5 39.5t-39.5 16.5t-39.5 -16.5t-16.5 -39.5t16.5 -39.5t39.5 -16.5t39.5 16.5t16.5 39.5zM448 896q185 0 316.5 -131.5t131.5 -316.5t-131.5 -316.5t-316.5 -131.5t-316.5 131.5t-131.5 316.5t131.5 316.5
t316.5 131.5zM448 56q162 0 277 114.5t115 277.5q0 162 -115 277t-277 115q-163 0 -277.5 -115t-114.5 -277q0 -163 114.5 -277.5t277.5 -114.5z" />
<glyph unicode="&#x2639;" horiz-adv-x="896" d="M399 574q0 22 -15.5 37t-37.5 15t-37 -15t-15 -37t15 -37.5t37 -15.5t37.5 15.5t15.5 37.5zM448 896q185 0 316.5 -131.5t131.5 -316.5t-131.5 -316.5t-316.5 -131.5t-316.5 131.5t-131.5 316.5t131.5 316.5t316.5 131.5zM448 56q162 0 277 114.5t115 277.5
q0 162 -115 277t-277 115q-163 0 -277.5 -115t-114.5 -277q0 -163 114.5 -277.5t277.5 -114.5zM448 399q76 0 139 -40.5t92 -107.5l-54 -23q-22 51 -70.5 83t-106.5 32q-59 0 -107.5 -31.5t-69.5 -82.5l-54 22q28 67 90.5 107.5t140.5 40.5zM602 574q0 22 -15.5 37t-37.5 15
t-37 -15t-15 -37t15 -37.5t37 -15.5t37.5 15.5t15.5 37.5z" />
<glyph unicode="&#x263b;" horiz-adv-x="896" d="M406 574q0 23 -16.5 39.5t-39.5 16.5t-39.5 -16.5t-16.5 -39.5t16.5 -39.5t39.5 -16.5t39.5 16.5t16.5 39.5zM602 574q0 23 -16.5 39.5t-39.5 16.5t-39.5 -16.5t-16.5 -39.5t16.5 -39.5t39.5 -16.5t39.5 16.5t16.5 39.5zM448 896q185 0 316.5 -131.5t131.5 -316.5
t-131.5 -316.5t-316.5 -131.5t-316.5 131.5t-131.5 316.5t131.5 316.5t316.5 131.5zM448 56q162 0 277 114.5t115 277.5q0 162 -115 277t-277 115q-163 0 -277.5 -115t-114.5 -277q0 -163 114.5 -277.5t277.5 -114.5zM448 196q-80 0 -150 50t-102 118h504
q-32 -68 -101.5 -118t-150.5 -50z" />
<glyph unicode="&#x2665;" horiz-adv-x="896" d="M825 786q71 -98 71 -212q0 -174 -212 -389q-81 -83 -204 -175q-13 -10 -32 -10q-18 0 -32 10q-16 10 -51 36.5t-102 87.5t-122.5 125.5t-98 151t-42.5 163.5q0 114 71 212q81 110 191 110q109 0 186 -83q77 83 186 83q110 0 191 -110zM448 56q16 11 42.5 31t94 81
t119 120t94 138.5t42.5 147.5q0 96 -62 181t-144 85q-60 0 -110.5 -35.5t-75.5 -92.5q-25 57 -75.5 92.5t-110.5 35.5q-82 0 -144 -85t-62 -181q0 -70 40.5 -149t98 -142t115 -116t98.5 -82z" />
<glyph unicode="&#x266b;" horiz-adv-x="896" d="M877 882q19 -17 19 -42v-595q0 -78 -61 -132.5t-148 -54.5q-88 0 -149.5 55t-61.5 132q0 78 61 132t149 54h15l-1 193l-280 -29v-408q0 -79 -61 -133t-149 -54t-149 54t-61 133q0 77 62 131.5t149 54.5h13v409q0 21 14.5 37.5t36.5 18.5l559 58h6q21 0 37 -14zM840 245
v595l-560 -58v-478q-46 13 -68 13q-65 0 -110.5 -38t-45.5 -92q0 -55 45 -93t109 -38q65 0 109.5 38t44.5 93v459l392 40v-324q-46 13 -68 13q-65 0 -110.5 -38t-45.5 -92t45.5 -92.5t109.5 -38.5q65 0 109 38.5t44 92.5z" />
<glyph unicode="&#x267f;" horiz-adv-x="896" d="M885 258q12 -19 11 -34q0 -28 -21 -44l-70 -56q-15 -12 -35 -12q-28 0 -44 21l-87 109q-19 -104 -100.5 -173t-188.5 -69q-122 0 -208 86t-86 208q0 83 44 154q-31 0 -47 22l-42 56q-11 16 -11 33q0 31 25 48l129 83q49 34 222 38q-4 20 -4 31q0 57 40 97t96 40
q57 0 96.5 -40.5t39.5 -95.5q0 -39 -20.5 -71.5t-53.5 -49.5q18 -38 18 -79v-65l115 -20q20 -3 35 -21zM507 840q-33 0 -56.5 -23.5t-23.5 -57.5q0 -33 23.5 -56.5t56.5 -23.5q34 0 57.5 23.5t23.5 56.5q0 34 -23.5 57.5t-57.5 23.5zM350 56q90 0 157.5 59.5t78.5 147.5
l-42 7q-8 -73 -63.5 -122.5t-130.5 -49.5q-81 0 -138.5 57.5t-57.5 138.5q0 62 35.5 112.5t92.5 70.5l5 40q-8 0 -26 -2q-66 -27 -107.5 -87t-41.5 -134q0 -98 70 -168t168 -70zM313 309q-20 3 -33.5 18.5t-13.5 35.5q0 6 1 9l10 73q-43 -21 -69 -61.5t-26 -89.5
q0 -70 49 -119t119 -49q64 0 111.5 43t55.5 106zM770 168l70 56l-147 196l-161 28v112q0 46 -30 79t-89 33q-87 0 -144 -7t-71 -14l-13 -7l-129 -84l42 -56l113 57q36 12 72 12q19 0 35.5 -3.5t23.5 -6.5l8 -3l-28 -196l336 -56z" />
<glyph unicode="&#x2680;" horiz-adv-x="896" d="M728 896q70 0 119 -49t49 -119v-560q0 -70 -49 -119t-119 -49h-560q-70 0 -119 49t-49 119v560q0 70 49 119t119 49h560zM840 168v560q0 46 -33 79t-79 33h-560q-46 0 -79 -33t-33 -79v-560q0 -46 33 -79t79 -33h560q46 0 79 33t33 79zM504 448q0 23 -16.5 39.5
t-39.5 16.5t-39.5 -16.5t-16.5 -39.5t16.5 -39.5t39.5 -16.5t39.5 16.5t16.5 39.5z" />
<glyph unicode="&#x2681;" horiz-adv-x="896" d="M728 896q70 0 119 -49t49 -119v-560q0 -70 -49 -119t-119 -49h-560q-70 0 -119 49t-49 119v560q0 70 49 119t119 49h560zM840 168v560q0 46 -33 79t-79 33h-560q-46 0 -79 -33t-33 -79v-560q0 -46 33 -79t79 -33h560q46 0 79 33t33 79zM728 224q0 23 -16.5 39.5
t-39.5 16.5t-39.5 -16.5t-16.5 -39.5t16.5 -39.5t39.5 -16.5t39.5 16.5t16.5 39.5zM280 672q0 23 -16.5 39.5t-39.5 16.5t-39.5 -16.5t-16.5 -39.5t16.5 -39.5t39.5 -16.5t39.5 16.5t16.5 39.5z" />
<glyph unicode="&#x2682;" horiz-adv-x="896" d="M728 896q70 0 119 -49t49 -119v-560q0 -70 -49 -119t-119 -49h-560q-70 0 -119 49t-49 119v560q0 70 49 119t119 49h560zM840 168v560q0 46 -33 79t-79 33h-560q-46 0 -79 -33t-33 -79v-560q0 -46 33 -79t79 -33h560q46 0 79 33t33 79zM280 672q0 23 -16.5 39.5
t-39.5 16.5t-39.5 -16.5t-16.5 -39.5t16.5 -39.5t39.5 -16.5t39.5 16.5t16.5 39.5zM504 448q0 23 -16.5 39.5t-39.5 16.5t-39.5 -16.5t-16.5 -39.5t16.5 -39.5t39.5 -16.5t39.5 16.5t16.5 39.5zM728 224q0 23 -16.5 39.5t-39.5 16.5t-39.5 -16.5t-16.5 -39.5t16.5 -39.5
t39.5 -16.5t39.5 16.5t16.5 39.5z" />
<glyph unicode="&#x2683;" horiz-adv-x="896" d="M728 896q70 0 119 -49t49 -119v-560q0 -70 -49 -119t-119 -49h-560q-70 0 -119 49t-49 119v560q0 70 49 119t119 49h560zM840 168v560q0 46 -33 79t-79 33h-560q-46 0 -79 -33t-33 -79v-560q0 -46 33 -79t79 -33h560q46 0 79 33t33 79zM728 224q0 23 -16.5 39.5
t-39.5 16.5t-39.5 -16.5t-16.5 -39.5t16.5 -39.5t39.5 -16.5t39.5 16.5t16.5 39.5zM280 224q0 23 -16.5 39.5t-39.5 16.5t-39.5 -16.5t-16.5 -39.5t16.5 -39.5t39.5 -16.5t39.5 16.5t16.5 39.5zM280 672q0 23 -16.5 39.5t-39.5 16.5t-39.5 -16.5t-16.5 -39.5t16.5 -39.5
t39.5 -16.5t39.5 16.5t16.5 39.5zM728 672q0 23 -16.5 39.5t-39.5 16.5t-39.5 -16.5t-16.5 -39.5t16.5 -39.5t39.5 -16.5t39.5 16.5t16.5 39.5z" />
<glyph unicode="&#x2684;" horiz-adv-x="896" d="M728 896q70 0 119 -49t49 -119v-560q0 -70 -49 -119t-119 -49h-560q-70 0 -119 49t-49 119v560q0 70 49 119t119 49h560zM840 168v560q0 46 -33 79t-79 33h-560q-46 0 -79 -33t-33 -79v-560q0 -46 33 -79t79 -33h560q46 0 79 33t33 79zM280 224q0 23 -16.5 39.5
t-39.5 16.5t-39.5 -16.5t-16.5 -39.5t16.5 -39.5t39.5 -16.5t39.5 16.5t16.5 39.5zM728 224q0 23 -16.5 39.5t-39.5 16.5t-39.5 -16.5t-16.5 -39.5t16.5 -39.5t39.5 -16.5t39.5 16.5t16.5 39.5zM504 448q0 23 -16.5 39.5t-39.5 16.5t-39.5 -16.5t-16.5 -39.5t16.5 -39.5
t39.5 -16.5t39.5 16.5t16.5 39.5zM280 672q0 23 -16.5 39.5t-39.5 16.5t-39.5 -16.5t-16.5 -39.5t16.5 -39.5t39.5 -16.5t39.5 16.5t16.5 39.5zM728 672q0 23 -16.5 39.5t-39.5 16.5t-39.5 -16.5t-16.5 -39.5t16.5 -39.5t39.5 -16.5t39.5 16.5t16.5 39.5z" />
<glyph unicode="&#x2685;" horiz-adv-x="896" d="M728 896q70 0 119 -49t49 -119v-560q0 -70 -49 -119t-119 -49h-560q-70 0 -119 49t-49 119v560q0 70 49 119t119 49h560zM840 168v560q0 46 -33 79t-79 33h-560q-46 0 -79 -33t-33 -79v-560q0 -46 33 -79t79 -33h560q46 0 79 33t33 79zM336 672q0 23 -16.5 39.5
t-39.5 16.5t-39.5 -16.5t-16.5 -39.5t16.5 -39.5t39.5 -16.5t39.5 16.5t16.5 39.5zM336 448q0 23 -16.5 39.5t-39.5 16.5t-39.5 -16.5t-16.5 -39.5t16.5 -39.5t39.5 -16.5t39.5 16.5t16.5 39.5zM336 224q0 23 -16.5 39.5t-39.5 16.5t-39.5 -16.5t-16.5 -39.5t16.5 -39.5
t39.5 -16.5t39.5 16.5t16.5 39.5zM672 224q0 23 -16.5 39.5t-39.5 16.5t-39.5 -16.5t-16.5 -39.5t16.5 -39.5t39.5 -16.5t39.5 16.5t16.5 39.5zM672 448q0 23 -16.5 39.5t-39.5 16.5t-39.5 -16.5t-16.5 -39.5t16.5 -39.5t39.5 -16.5t39.5 16.5t16.5 39.5zM672 672
q0 23 -16.5 39.5t-39.5 16.5t-39.5 -16.5t-16.5 -39.5t16.5 -39.5t39.5 -16.5t39.5 16.5t16.5 39.5z" />
<glyph unicode="&#x2691;" horiz-adv-x="896" d="M56 896h199q49 0 103 -11.5t86.5 -22.5t85.5 -32q128 -48 182 -48q47 0 95 23q9 5 24 7v0h3q24 0 43 -16.5t19 -39.5q0 -12 -4 -20q-43 -134 -180 -198q92 -103 137 -113q36 -8 43 -45q6 -37 -25 -57q-7 -4 -17 -9l-3 -1q-1 0 -3 -1q-64 -29 -129 -29q-37 0 -80.5 10
t-67.5 19t-75 29q-50 20 -77 29.5t-73 20t-86 10.5q-27 0 -60 -5v-340q0 -23 -16.5 -39.5t-39.5 -16.5h-84q-23 0 -39.5 16.5t-16.5 39.5v784q0 23 16.5 39.5t39.5 16.5zM140 56v784h-84v-784h84zM821 363q1 1 7.5 3t8.5 4q-22 5 -42.5 16.5t-48.5 37.5t-40 37.5t-48.5 53.5
t-42.5 48q7 1 18.5 3.5t43 16t58 32.5t55.5 56.5t44 84.5q-57 -30 -122 -30q-59 0 -136 28.5t-161 57t-160 28.5q-42 0 -87 -9v-383q46 9 88 9q61 0 128 -18.5t115.5 -40.5t108 -40.5t107.5 -18.5q54 0 106 24z" />
<glyph unicode="&#x2698;" horiz-adv-x="896" d="M896 448q0 -84 -122 -135q50 -121 -9 -182q-34 -32 -84 -32q-43 0 -98 23q-51 -122 -135 -122t-135 122q-57 -23 -98 -23q-50 0 -84 32q-59 61 -9 182q-122 51 -122 135t122 135q-50 121 9 182q34 32 84 31q45 0 98 -22q51 122 135 122t135 -122q55 23 98 23q50 0 84 -32
q59 -61 9 -182q122 -51 122 -135zM695 346q67 18 106 45t39 57t-39 57t-106 45q74 131 30 175q-15 16 -44 16q-49 0 -131 -46q-18 67 -45 106t-57 39t-57 -39t-45 -106q-81 45 -131 45q-30 0 -44 -15q-44 -44 30 -175q-68 -18 -106.5 -45t-38.5 -57t38.5 -57t106.5 -45
q-74 -131 -30 -175q15 -16 44 -16q49 0 131 46q18 -68 45 -106.5t57 -38.5t57 38.5t45 106.5q82 -46 131 -46q29 0 44 16q44 44 -30 175zM448 644q81 0 138.5 -57.5t57.5 -138.5t-57.5 -138.5t-138.5 -57.5t-138.5 57.5t-57.5 138.5t57.5 138.5t138.5 57.5zM448 280
q70 0 119 49t49 119t-49 119t-119 49t-119 -49t-49 -119t49 -119t119 -49z" />
<glyph unicode="&#x2699;" horiz-adv-x="896" d="M840 588q23 0 39.5 -16.5t16.5 -39.5v-168q0 -23 -16.5 -39.5t-39.5 -16.5h-62l42 -41q16 -15 18 -40q0 -23 -17 -40l-110 -111q-16 -16 -40 -16t-39 17l-44 44v-65q0 -23 -16.5 -39.5t-39.5 -16.5h-168q-23 0 -39.5 16.5t-16.5 39.5v63l-41 -43q-15 -17 -40 -17
q-22 0 -40 16l-111 110q-16 18 -16 40q0 25 17 40l43 43h-64q-23 0 -39.5 16.5t-16.5 39.5v168q0 23 16.5 39.5t39.5 16.5h64l-44 42q-17 15 -17 40q0 22 16 40l110 110q17 17 40 17q25 0 40 -17l43 -43v63q0 23 16.5 39.5t39.5 16.5h168q23 0 39.5 -16.5t16.5 -39.5v-63
l42 44q15 15 40 17q23 0 40 -17l111 -110q16 -16 16 -40t-17 -39l-44 -44h64zM840 364v168h-115q-5 22 -26 59l82 80l-111 111l-79 -82q-40 21 -59 25v115h-168v-115q-19 -4 -59 -26l-80 82l-110 -111l82 -79q-20 -34 -25 -59h-116v-168h116q4 -19 26 -59l-82 -80l111 -110
l78 82q37 -20 59 -25v-116h168v116q22 5 59 26l80 -82l111 111l-82 78q22 43 25 59h115zM448 616q70 0 119 -49t49 -119t-49 -119t-119 -49t-119 49t-49 119t49 119t119 49zM448 336q46 0 79 33t33 79t-33 79t-79 33t-79 -33t-33 -79t33 -79t79 -33z" />
<glyph unicode="&#x269b;" horiz-adv-x="896" d="M896 662q0 -35 -19 -63.5t-50 -41.5v1q-20 -50 -70 -107q60 -66 81 -125t-2 -102q-33 -57 -138 -57q-41 0 -94 11q-28 -83 -68.5 -130.5t-87.5 -47.5q-46 0 -86.5 46.5t-68.5 127.5q-53 -12 -96 -12h-16q-31 -29 -73 -29q-45 0 -76.5 32.5t-31.5 79.5q0 36 20.5 65.5
t53.5 40.5q23 46 65 94q-60 66 -81 125t2 102q33 57 138 57q41 0 94 -11q28 83 68.5 130.5t87.5 47.5q46 0 86.5 -46.5t68.5 -127.5q51 12 96 12h6q33 40 83 40q44 0 76 -33t32 -79zM448 840q-25 0 -53 -36t-49 -99q50 -16 100 -37q48 23 103 40q-21 62 -48.5 97t-52.5 35z
M588 448q0 42 -3 79q-35 23 -67 42t-72 37q-33 -16 -71 -38q-20 -12 -64 -43q-3 -37 -3 -77q0 -42 3 -79q46 -30 67 -42q32 -19 72 -37q35 17 70 38q32 20 65 43q3 36 3 77zM643 483q1 -12 1 -35q0 -21 -1 -31q26 22 37 33q-11 11 -37 33zM576 297q-5 -3 -14 -8.5t-13 -8.5
q-22 -12 -33 -19q22 -8 50 -16q1 8 4.5 25t5.5 27zM383 260l-33 18l-30 18q3 -22 11 -54q29 9 52 18zM253 413q-1 12 -1 35q0 21 1 31q-21 -16 -37 -34q11 -10 37 -32zM320 599q5 3 14 8.5t13 8.5q10 6 32 18q-13 6 -49 17q-5 -19 -10 -52zM546 618l30 -18q-3 22 -11 54
q-29 -9 -52 -18zM108 644q-12 -22 6 -65t63 -94q40 40 81 70q6 58 18 109q-42 9 -78 9q-72 0 -90 -29zM108 189q22 0 37.5 16.5t15.5 39.5t-15.5 39.5t-37.5 16.5t-37 -16.5t-15 -39.5t15 -39.5t37 -16.5zM213 219q31 2 64 9q-14 58 -19 110q-53 40 -81 67q-26 -33 -39 -53
q35 -10 57 -39.5t22 -67.5q0 -10 -4 -26zM448 56q25 0 53 36t49 99q-55 17 -100 37q-48 -23 -103 -40q21 -62 48.5 -97t52.5 -35zM788 252q12 22 -6 65t-63 94q-40 -40 -81 -70q-6 -58 -18 -109q42 -9 78 -9q72 0 90 29zM762 553q-36 9 -59.5 39.5t-23.5 69.5q0 5 2 15
q-31 -2 -62 -9q11 -46 19 -110q48 -37 80 -67q18 21 27 34q7 10 17 28zM788 606q21 0 36.5 16.5t15.5 39.5t-15.5 39.5t-36.5 16.5q-22 0 -37.5 -16.5t-15.5 -39.5t15.5 -39.5t37.5 -16.5z" />
<glyph unicode="&#x26a0;" horiz-adv-x="896" d="M869 269q53 -104 5 -185q-25 -40 -71 -62t-105 -22h-500q-59 0 -105 22t-71 62q-48 81 5 185l273 520q56 107 148 107q91 0 148 -107zM698 56q91 0 126.5 55t-5.5 132l-273 520q-41 77 -98 77t-98 -77l-273 -521q-41 -76 -5.5 -131t126.5 -55h500zM406 308l-28 280h140
l-28 -280h-84zM490 210q0 17 -12.5 29.5t-29.5 12.5t-29.5 -12.5t-12.5 -29.5t12.5 -29.5t29.5 -12.5t29.5 12.5t12.5 29.5z" />
<glyph unicode="&#x26bd;" horiz-adv-x="896" d="M448 896q185 0 316.5 -131.5t131.5 -316.5q0 -186 -131.5 -317t-316.5 -131q-186 0 -317 131t-131 317q0 185 131 316.5t317 131.5zM623 701l-70 112h-193l-84 -107l85 -120h182zM254 689l-116 -36l-68 -192l73 -103l141 44l55 168zM289 375l-138 -44v-120l153 -125
l133 36v147zM465 120l118 -40l156 107v134l-128 51l-146 -105v-147zM747 348l78 122l-53 173l-127 40l-79 -113l56 -172z" />
<glyph unicode="&#x26be;" horiz-adv-x="896" d="M448 896q185 0 316.5 -131.5t131.5 -316.5t-131.5 -316.5t-316.5 -131.5t-316.5 131.5t-131.5 316.5t131.5 316.5t316.5 131.5zM538 829q-8 -10 -20 -13l3 -30q28 -5 34 -31q8 -26 -15 -44q8 -18 13 -27q28 5 42 -17q16 -22 2 -46q13 -15 21 -21q23 14 45 -2
q24 -16 17 -43q9 -5 27 -13q17 22 44 14t30 -34q15 -3 30 -3q6 14 17 21q-25 107 -104 185t-186 104zM484 122q-25 12 -23 40q2 27 28 36q0 15 -3 30q-27 3 -35 30q-6 27 14 44q-3 9 -13 27q-28 -5 -43 16q-16 22 -2 46q-11 12 -21 21q-9 -4 -11 -5q-18 -5 -35 6
q-23 16 -18 43l-27 12q-9 -11 -22 -15q-14 -2 -21 0q-26 6 -31 34l-30 3q-8 -22 -29 -28q-2 -1 -7 -1q-27 -3 -41 21q-12 -3 -28 -8q0 -28 -24 -39q-1 0 -2.5 -0.5t-2.5 -1.5q5 -154 114.5 -263t263.5 -114q0 6 3 12q11 25 38 25q6 17 8 29zM516 63q139 24 231.5 132.5
t92.5 252.5q0 3 -0.5 8.5t-0.5 8.5q-3 0 -7 2q-15 7 -21 24q-19 0 -35 3q-17 -27 -48 -19q-1 1 -3.5 2t-3.5 1q-23 12 -23 37q-22 10 -33 16q-21 -16 -45 -5q-1 1 -5 3q-26 19 -15 49q-13 12 -25 25q-19 -5 -33 2q-7 4 -16 14q-17 27 3 51q-9 15 -15 33q-11 0 -18 4
q-18 8 -22 27q-8 30 19 46q-2 24 -3 37q-2 0 -3 1q-13 6 -20 21q-3 0 -9.5 0.5t-9.5 0.5q-145 0 -254.5 -94t-132.5 -235q6 -3 14 -11q15 5 35 10q2 14 12.5 23.5t24.5 10.5q33 3 43 -26l36 -3q15 27 47 19q13 -3 22 -14t9 -25l33 -15q24 21 50 2q26 -18 16 -48
q18 -16 26 -25q29 12 49 -15q19 -26 -2 -50q6 -11 16 -33q14 0 25 -8.5t15 -21.5q8 -31 -18 -47l3 -36q13 -5 21 -16.5t7 -25.5q-2 -29 -31 -38h-2q-6 -24 -9 -35q10 -10 13 -20z" />
<glyph unicode="&#x26c5;" horiz-adv-x="896" d="M859 484q23 -15 32 -41t1 -52q-7 -25 -29 -41t-48 -16h-3l-54 1q1 -5 1 -16q0 -32 -23 -57q28 -42 28 -94q0 -69 -49 -118.5t-119 -49.5h-412h-5q-75 6 -127 62.5t-52 132.5q0 64 37 114.5t96 70.5q-4 5 -5 11q-8 26 1 52t32 41l40 26l-39 25q-23 15 -32.5 41t-1.5 52
t29.5 42t47.5 16l3 -1l54 -1l-16 44q-10 25 -2.5 51t29.5 42q22 17 49 17q26 0 48 -16l47 -34l15 50q8 26 29.5 42t48.5 16t49 -16t29 -42l16 -50l46 34q22 16 48 16q27 0 49 -17q22 -16 29.5 -42t-1.5 -51l-17 -44l53 1q1 0 2 0.5t2 0.5q26 0 47.5 -16t29.5 -42t-1 -52
t-32 -41l-40 -25zM596 56q46 0 79 33t33 79q0 47 -32.5 80t-79.5 33q-7 0 -19 -2q-16 51 -57.5 84t-95.5 37h-11h-16q-1 -1 -4 -1q-4 0 -14 -2h-1q-11 -3 -14 -4l-2 -1h-2q-2 0 -5.5 -1.5t-5.5 -2.5q-1 -1 -3 -1q-43 -19 -69 -58.5t-26 -87.5h-29q0 42 20 84q-23 9 -47 9
q-58 0 -98.5 -40.5t-40.5 -98.5q0 -55 37 -94.5t91 -44.5h412zM370 510q0 -46 25 -80v1l31 -2q70 -4 124 -54q44 13 72 50t28 85q0 58 -41 99t-99 41t-99 -41t-41 -99zM839 408q5 19 -11 29l-72 47q-18 13 -18 26q0 14 18 25l72 47q16 11 11 29q-7 18 -24 18h-1l-88 -2h-2
q-21 0 -30 12t-1 30l29 78q7 19 -8 30q-8 5 -16 5q-7 0 -15 -5l-69 -51q-15 -10 -26 -10q-21 0 -29 26l-24 80q-7 18 -25 18q-19 0 -24 -18l-25 -80q-8 -26 -29 -26q-12 0 -25 10l-70 51q-7 5 -15 5t-15 -5q-16 -12 -9 -30l29 -78q8 -19 0 -30q-10 -12 -31 -12l-89 2h-2
q-18 0 -23 -18q-7 -17 10 -29l72 -47q18 -11 18 -25t-18 -26l-72 -47q-17 -10 -10 -29q5 -18 23 -18h2l87 2h2h3q21 15 36 21l3 2q2 1 6.5 2t6.5 2l3 1l2 1q6 2 9 2q-24 42 -24 87q0 70 49.5 119.5t119.5 49.5t119.5 -49.5t49.5 -119.5q0 -53 -30 -96.5t-78 -61.5
q13 -16 19 -29q6 -2 10 -2q36 -2 61 -22q7 -6 16 -6h1q10 0 17.5 7.5t7.5 18.5q0 7 -3 12l-7 20q-7 17 1 29t30 12l90 -2h1q17 0 24 18z" />
<glyph unicode="&#x26d4;" horiz-adv-x="896" d="M196 504h504v-112h-504v112zM448 896q185 0 316.5 -131.5t131.5 -316.5t-131.5 -316.5t-316.5 -131.5t-316.5 131.5t-131.5 316.5t131.5 316.5t316.5 131.5zM448 56q162 0 277 114.5t115 277.5q0 162 -115 277t-277 115q-163 0 -277.5 -115t-114.5 -277
q0 -163 114.5 -277.5t277.5 -114.5z" />
<glyph unicode="&#x26e8;" horiz-adv-x="896" d="M448 896q185 0 316.5 -131.5t131.5 -316.5t-131.5 -316.5t-316.5 -131.5t-316.5 131.5t-131.5 316.5t131.5 316.5t316.5 131.5zM448 56q162 0 277 114.5t115 277.5q0 162 -115 277t-277 115q-163 0 -277.5 -115t-114.5 -277q0 -163 114.5 -277.5t277.5 -114.5zM672 532
h-140v140h-168v-140h-140v-168h140v-140h168v140h140v168z" />
<glyph unicode="&#x26f3;" horiz-adv-x="896" d="M742 308q64 0 109 -45t45 -109t-45 -109t-109 -45t-109 45t-45 109t45 109t109 45zM742 56q40 0 69 29t29 69t-29 69t-69 29t-69 -29t-29 -69t29 -69t69 -29zM363 545q-9 0 -27 -2v-436q63 -7 101.5 -20.5t38.5 -30.5q0 -23 -70 -39.5t-168 -16.5q-99 0 -168.5 16.5
t-69.5 39.5q0 19 47 33.5t121 19.5v731q0 23 16.5 39.5t39.5 16.5q109 -1 124 -1q49 0 97 -20.5t79.5 -46.5t59 -58t38 -49t14.5 -24q16 -26 58.5 -56.5t66.5 -35.5q36 -8 43 -45q5 -29 -16 -50q-6 -8 -16 -13q-2 -1 -4 -3q-42 -19 -93 -19q-53 0 -160 35q-103 35 -152 35z
M280 111v729h-56v-728v-56h56v55zM308 595q28 6 55 6q60 0 163 -35t149 -35q37 0 69 14l5 5q-36 8 -88 45.5t-73 73.5q-4 7 -11 18.5t-31 40.5t-50.5 51.5t-66.5 41t-81 18.5q-21 0 -40 -4v-240z" />
<glyph unicode="&#x26fc;" horiz-adv-x="896" d="M247 479l35 -67h-55l-28 59h-20v-59h-48v176h79q69 0 69 -57q0 -37 -32 -52zM208 510q22 0 22 19t-22 19h-29v-38h29zM344 588h50v-176h-50v176zM551 588q68 0 68 -58q0 -61 -72 -61h-24v-57h-48v176h76zM549 509q22 0 22 20q0 19 -22 19h-26v-39h26zM518 896
q95 0 181.5 -40.5t141.5 -115.5t55 -165v-519q0 -23 -16.5 -39.5t-39.5 -16.5h-784q-23 0 -39.5 16.5t-16.5 39.5v518q0 135 109.5 228.5t268.5 93.5h140zM700 56v518q0 110 -94 188t-228 78t-228 -78t-94 -188v-518h644zM840 56v518q0 104 -89.5 180.5t-216.5 84.5
q89 -36 141.5 -107.5t52.5 -157.5v-518h112z" />
<glyph unicode="&#x26fd;" horiz-adv-x="896" d="M308 756q60 0 100 -32t40 -80v-112h-308v112q0 48 40 80t100 32h28zM890 661q6 -7 6 -17v-504q0 -41 -28 -76.5t-84 -35.5t-84 35.5t-28 76.5v280q0 28 -28 28h-56v-392q0 -23 -16.5 -39.5t-39.5 -16.5h-476q-23 0 -39.5 16.5t-16.5 39.5v588q0 106 81 179t199 73h28
q118 0 199 -73t81 -179v-140h56q42 0 63 -26.5t21 -57.5v-280q0 -10 3 -21t16.5 -23t36.5 -12q18 0 30.5 7t17.5 18t6.5 18t1.5 13v397q-15 -5 -28 -5q-34 0 -59 25t-25 59q0 29 17.5 51t44.5 30l-56 69q-17 22 4 40q23 16 40 -5zM532 56v588q0 82 -63.5 139t-160.5 57h-28
q-97 0 -160.5 -57t-63.5 -139v-588h476zM812 588q11 0 19.5 8.5t8.5 19.5t-8.5 19.5t-19.5 8.5q-12 0 -20 -8.5t-8 -19.5t8 -19.5t20 -8.5z" />
<glyph unicode="&#x2702;" horiz-adv-x="896" d="M664 613q-23 0 -37 14q-18 18 -12.5 50t30.5 58q32 32 71 32q23 0 37 -14q18 -18 12.5 -50.5t-30.5 -57.5q-34 -32 -71 -32zM866 248q18 -48 25 -98t6 -73t-3 -28q-5 -35 -37 -46q-9 -3 -18 -3q-22 0 -40 16l-351 352l-351 -352q-18 -16 -40 -16q-9 0 -18 3
q-34 12 -37 46q-2 5 -3 28t6 73t25 98q50 141 179 237q-81 10 -139 69q-64 64 -69.5 149t50.5 141q52 52 129 52q92 0 162 -70q28 -28 46 -64l2 -4q1 -1 1 -2q1 -2 1 -3q29 -64 56 -102q27 39 56 103l2 4l2 4q18 36 46 64q70 70 162 70q78 0 128 -52q56 -56 51 -141
t-69 -149q-58 -59 -139 -69q129 -96 179 -237zM320 575l519 -519v2q1 11 1.5 25t-4 50t-14 69.5t-32.5 79t-56 85t-88.5 80.5t-126.5 71q-2 1 -6 2.5t-6 2.5q-29 7 -70 51l-2 2q-3 4 -10 11q-1 1 -2 2.5t-1 2.5q-3 3 -9 11q-1 1 -2.5 3.5t-2.5 3.5l-9 12q-2 4 -6 10
q-1 2 -4 6t-4 6q-1 3 -3.5 7t-3.5 7q-4 6 -7 11q-6 12 -10 19l-3 6q-1 3 -2 4q-5 10 -15 32q0 1 -0.5 2.5t-1.5 2.5v0q-13 28 -37 52q-53 53 -122 53q-52 0 -89 -35q-40 -41 -34.5 -102.5t52.5 -109.5q55 -53 123 -53q54 0 88 35zM555 730q-39 -89 -88 -147
q12 -12 23.5 -20.5t17.5 -10.5l5 -2q3 0 5 -1q4 -1 11 -4.5l11 -5.5l36 36q34 -35 88 -35q69 0 122 53q48 48 53.5 110t-34.5 102q-37 35 -89 35q-69 0 -122 -53q-24 -24 -37 -52v0q-2 -2 -2 -5zM57 56l371 371l-78 78q-68 -32 -120.5 -74.5t-82.5 -84t-51 -84.5t-28 -79.5
t-10.5 -65t-1.5 -45.5zM180 767q37 0 71 -32q25 -26 30.5 -58t-12.5 -50q-14 -14 -37 -14q-37 0 -71 32q-25 25 -30.5 57.5t12.5 50.5q14 14 37 14z" />
<glyph unicode="&#x2708;" horiz-adv-x="896" d="M864 685l-141 -145l30 -396q2 -25 -16 -44l-56 -56q-18 -16 -40 -16h-8q-27 5 -41 29l-123 223l-53 -52l3 -143q0 -24 -17 -41l-28 -28q-16 -16 -39 -16h-8q-29 5 -41 29l-88 157l-171 102q-22 13 -27 41q-3 27 16 46l28 28q17 17 40 17h3l148 -9l63 64l-239 119
q-27 13 -30 41q-5 30 15 48l56 56q15 17 40 17h6l387 -45l148 149q38 36 88 36q51 0 87 -36q37 -38 39.5 -89.5t-31.5 -85.5zM360 251l463 473q19 20 16.5 48t-22.5 48q-22 20 -48 20q-28 0 -48 -20l-167 -168l-414 48l-56 -56l308 -154l-135 -136l-173 10l-28 -28l184 -110
l95 -170l28 28zM641 84l56 56l-29 377l-172 -169z" />
<glyph unicode="&#x2709;" horiz-adv-x="896" d="M873 606q23 -18 23 -46v-504q0 -23 -16.5 -39.5t-39.5 -16.5h-784q-23 0 -39.5 16.5t-16.5 39.5v504q0 28 23 46l393 280q17 10 33 10q18 0 32 -11zM56 522v-446l257 257zM700 454v134h-504v-134l252 -185zM336 316l-260 -260h744l-260 260l-104 -75q-3 -3 -8 -3t-8 3z
M582 333l258 -257v446zM449 840l-393 -280v-3l112 -82v141h560v-141l112 82v3zM616 476v-28h-336v28h336zM616 532v-28h-336v28h336z" />
<glyph unicode="&#x270b;" horiz-adv-x="896" d="M784 756q46 0 79 -37t33 -89v-238q0 -162 -131.5 -277t-316.5 -115t-316.5 115t-131.5 277v98q0 52 37 89t89 37q19 0 42 -7v105q0 52 37 89t89 37q28 0 56 -13q15 31 45.5 50t66.5 19q61 0 99 -49q32 21 69 21q49 0 85 -33.5t41 -82.5q12 4 28 4zM840 392v238
q0 29 -16.5 49.5t-39.5 20.5t-39.5 -20.5t-16.5 -49.5v-154h-28v266q0 29 -20.5 49.5t-49.5 20.5t-49.5 -20.5t-20.5 -49.5v-266h-28v294q0 29 -20.5 49.5t-49.5 20.5t-49.5 -20.5t-20.5 -49.5v-294h-28v238q0 29 -20.5 49.5t-49.5 20.5t-49.5 -20.5t-20.5 -49.5v-322h-28
v98q0 29 -20.5 49.5t-49.5 20.5t-49.5 -20.5t-20.5 -49.5v-98q0 -140 114.5 -238t277.5 -98q162 0 277 98.5t115 237.5z" />
<glyph unicode="&#x270e;" horiz-adv-x="896" d="M841 841q55 -55 55 -133t-55 -133l-501 -499q-12 -10 -27 -15l-244 -59q-4 -2 -13 -2q-22 0 -40 16q-22 23 -14 53l59 244q5 15 15 27l499 501q57 55 133 55q78 0 133 -55zM56 56l226 55l-171 171zM309 124l457 456l-186 186l-456 -457zM801 615q39 38 39 93t-39 93
q-37 39 -93 39q-54 0 -93 -39l-16 -15l187 -187z" />
<glyph unicode="&#x2712;" horiz-adv-x="896" d="M838 838q28 -28 45 -74.5t10 -105t-50 -101.5l-304 -305q-16 -14 -38 -16l-159 -159q-10 -11 -26 -15l-247 -60q-4 -2 -13 -2q-22 0 -40 16q-22 23 -14 53l60 247q3 14 15 26l146 147l-25 25q-16 16 -16 39t16 40l269 269q16 16 40 16q23 0 39 -16l15 -15q52 49 126 49
q45 0 86 -17t65 -41zM302 116l173 173l-186 186l-173 -173l-60 -246zM804 597q30 30 34.5 72.5t-8.5 76t-32 52.5q-16 17 -47 29.5t-64 12.5q-54 0 -90 -36l-36 -36l-54 54l-269 -269l27 -27l241 241l27 -27l-235 -235l207 -207z" />
<glyph unicode="&#x2713;" horiz-adv-x="896" d="M895 778q5 -23 -11 -42l-419 -546q-16 -22 -44 -22q-19 0 -32 10l-197 135q-19 14 -23 36.5t9 41.5l67 98q13 19 36 24q2 0 5.5 0.5t5.5 0.5q16 0 31 -10l57 -40l319 410q16 22 44 22q19 0 33 -11l97 -69q19 -14 22 -38zM421 224l419 546l-97 70l-351 -452l-100 70
l-68 -99zM616 56v240l56 72v-312q0 -23 -16.5 -39.5t-39.5 -16.5h-560q-23 0 -39.5 16.5t-16.5 39.5v560q0 23 16.5 39.5t39.5 16.5h414l-44 -56h-370v-560h560zM364 532h-224v-392h392v46l28 37v-111h-448v448h273z" />
<glyph unicode="&#x2731;" horiz-adv-x="896" d="M840 588q23 0 39.5 -16.5t16.5 -39.5v-168q0 -23 -16.5 -39.5t-39.5 -16.5h-76l54 -51q17 -15 17 -40q0 -24 -17 -41l-100 -97q-16 -16 -39 -16q-25 2 -40 18l-51 53v-78q0 -23 -16.5 -39.5t-39.5 -16.5h-168q-23 0 -39.5 16.5t-16.5 39.5v76l-51 -54q-15 -17 -40 -17h-1
q-23 0 -40 17l-97 99q-16 18 -16 40q2 24 18 40l53 51h-78q-23 0 -39.5 16.5t-16.5 39.5v168q0 23 16.5 39.5t39.5 16.5h76l-54 51q-16 15 -18 40q0 22 17 41l100 97q16 15 39 15h1q23 0 40 -17l51 -53v78q0 23 16.5 39.5t39.5 16.5h168q23 0 39.5 -16.5t16.5 -39.5v-76
l51 54q15 17 40 17q24 0 41 -17l97 -99q16 -18 15 -40q0 -23 -17 -40l-53 -51h78zM840 364v168h-217l153 148l-97 99l-147 -156v217h-168v-217l-148 153l-100 -96l157 -148h-217v-168h217l-154 -148l97 -99l148 156v-217h168v217l147 -154l100 97l-156 148h217z" />
<glyph unicode="&#x2753;" horiz-adv-x="896" d="M765 765q131 -133 131 -317t-131 -317q-133 -131 -317 -131t-317 131q-131 131 -131 317t131 317q133 131 317 131t317 -131zM725 171q115 115 115 277t-115 277q-114 115 -277 115t-277 -115q-115 -115 -115 -277t115 -277q114 -115 277 -115t277 115zM456 644
q67 0 106 -29.5t39 -86.5q0 -67 -56 -94q-38 -19 -53 -32.5t-16 -37.5h-56q0 32 3 49t18 35.5t46 32.5q21 11 28.5 19.5t7.5 23.5q0 42 -67 42q-54 0 -98 -48l-50 60q62 66 148 66zM490 266q0 17 -12.5 29.5t-29.5 12.5t-29.5 -12.5t-12.5 -29.5t12.5 -29.5t29.5 -12.5
t29.5 12.5t12.5 29.5z" />
<glyph unicode="&#x27a1;" horiz-adv-x="896" d="M370 12q-30 -25 -63 -4q-27 17 -27 48q0 7 1 11l43 213h-268q-23 0 -39.5 16.5t-16.5 39.5v224q0 23 16.5 39.5t39.5 16.5h268l-43 213q-1 4 -1 11q0 31 27 48q33 21 63 -4l504 -392q22 -16 22 -44t-22 -44zM392 336l-56 -280l504 392l-504 392l56 -280h-336v-224h336z
" />
<glyph unicode="&#x2922;" horiz-adv-x="896" d="M840 896q23 0 39.5 -16.5t16.5 -39.5v-364q0 -37 -35 -52q-9 -4 -21 -4q-22 0 -40 16l-86 87l-86 -87q-16 -16 -40 -16t-40 16l-112 112q-16 18 -16 40q0 23 17 40l87 86l-87 86q-27 25 -13 61q15 35 52 35h364zM840 476v364h-364l126 -126l-126 -126l112 -112l126 126z
M476 308q0 -23 -17 -40l-87 -86l87 -86q26 -26 13 -61q-15 -35 -52 -35h-364q-23 0 -39.5 16.5t-16.5 39.5v364q0 37 35 52q8 4 21 4q22 0 40 -16l86 -87l86 87q18 16 40 16t40 -16l112 -112q16 -18 16 -40zM294 182l126 126l-112 112l-126 -126l-126 126v-364h364z" />
<glyph unicode="&#x2b05;" horiz-adv-x="896" d="M526 884q29 24 63 4q27 -17 27 -48q0 -7 -1 -11l-43 -213h268q23 0 39.5 -16.5t16.5 -39.5v-224q0 -23 -16.5 -39.5t-39.5 -16.5h-268l43 -213q1 -4 1 -11q0 -31 -27 -48q-34 -20 -63 4l-504 392q-22 16 -22 44t22 44zM504 560l56 280l-504 -392l504 -392l-56 280h336
v224h-336z" />
<glyph unicode="&#x2b06;" horiz-adv-x="896" d="M884 370q25 -30 4 -63q-17 -27 -48 -27q-7 0 -11 1l-213 43v-268q0 -23 -16.5 -39.5t-39.5 -16.5h-224q-23 0 -39.5 16.5t-16.5 39.5v268l-213 -43q-4 -1 -11 -1q-31 0 -48 27q-21 33 4 63l392 504q16 22 44 22t44 -22zM560 392l280 -56l-392 504l-392 -504l280 56v-336
h224v336z" />
<glyph unicode="&#x2b07;" horiz-adv-x="896" d="M12 526q-24 29 -4 63q17 27 48 27q7 0 11 -1l213 -43v268q0 23 16.5 39.5t39.5 16.5h224q23 0 39.5 -16.5t16.5 -39.5v-268l213 43q4 1 11 1q31 0 48 -27q20 -34 -4 -63l-392 -504q-16 -22 -44 -22t-44 22zM336 504l-280 56l392 -504l392 504l-280 -56v336h-224v-336z
" />
<glyph unicode="&#xe002;" horiz-adv-x="896" d="M378 784q110 0 188 -78t78 -188t-78 -188t-188 -78t-188 78t-78 188t78 188t188 78zM378 280q98 0 168 70t70 168t-70 168t-168 70t-168 -70t-70 -168t70 -168t168 -70zM863 195q33 -35 33 -81t-33 -81q-35 -33 -81 -33t-81 33l-149 150q-83 -43 -174 -43
q-156 0 -267 111t-111 267t111 267t267 111t267 -111t111 -267q0 -93 -43 -174zM823 73q17 17 17 41t-17 41l-180 180q57 82 57 183q0 134 -94 228t-228 94t-228 -94t-94 -228t94 -228t228 -94q102 0 184 58l-1 -1l180 -180q17 -17 41 -17t41 17zM420 672v-112h112v-84h-112
v-112h-84v112h-112v84h112v112h84z" />
<glyph unicode="&#xe003;" horiz-adv-x="896" d="M378 784q110 0 188 -78t78 -188t-78 -188t-188 -78t-188 78t-78 188t78 188t188 78zM378 280q98 0 168 70t70 168t-70 168t-168 70t-168 -70t-70 -168t70 -168t168 -70zM863 195q33 -35 33 -81t-33 -81q-35 -33 -81 -33t-81 33l-149 150q-83 -43 -174 -43
q-156 0 -267 111t-111 267t111 267t267 111t267 -111t111 -267q0 -93 -43 -174zM823 73q17 17 17 41t-17 41l-180 180q57 82 57 183q0 134 -94 228t-228 94t-228 -94t-94 -228t94 -228t228 -94q102 0 184 58l-1 -1l180 -180q17 -17 41 -17t41 17zM224 560h308v-84h-308v84z
" />
<glyph unicode="&#xe010;" horiz-adv-x="896" d="M890 292q6 -28 6 -54q0 -98 -70 -168t-168 -70q-68 0 -124.5 34t-86.5 92q-30 -57 -86.5 -91.5t-122.5 -34.5q-97 0 -167.5 70.5t-70.5 167.5q0 26 6 54l79 418q4 20 19.5 33t35.5 13h28v7q0 55 37 94t89 39t89 -39t37 -94v-7h56v7q0 55 37 94t89 39t89 -39t37 -94v-7h28
q20 0 35.5 -13t19.5 -33zM224 763v-35h140v35q0 32 -20.5 54.5t-49.5 22.5t-49.5 -22.5t-20.5 -54.5zM420 616v84h-280l-79 -420q-5 -23 -5 -42q0 -75 54 -129q53 -53 128 -53q74 0 128 53.5t54 128.5v266h-28v112h28zM532 763v-35h140v35q0 32 -20.5 54.5t-49.5 22.5
t-49.5 -22.5t-20.5 -54.5zM658 56q75 0 128.5 53.5t53.5 128.5q0 19 -5 42l-79 420h-280v-84h28v-112h-28v-266q0 -75 53.5 -128.5t128.5 -53.5zM364 238q0 52 -37 89t-89 37t-89 -37t-37 -89t37 -89t89 -37t89 37t37 89zM784 238q0 52 -37 89t-89 37t-89 -37t-37 -89
t37 -89t89 -37t89 37t37 89z" />
<glyph unicode="&#xe0d0;" horiz-adv-x="896" d="M864 740q32 -14 32 -50v-74q0 -23 -16.5 -39.5t-39.5 -16.5h-29l-27 -507q-2 -23 -18 -38t-38 -15h-560q-22 0 -38 15t-18 38l-27 507h-29q-23 0 -39.5 16.5t-16.5 39.5v74q0 35 31 50l79 38q11 6 24 6h69q16 49 58.5 80.5t95.5 31.5h182q53 0 95.5 -31.5t57.5 -80.5h69
q12 0 24 -6zM728 56l28 532h-616l28 -532h560zM840 616v74l-79 38h-117v7q0 43 -31 74t-74 31h-182q-43 0 -74 -31t-31 -74v-7h-118l-78 -38v-74h784zM588 735q0 19 -15 34t-34 15h-182q-19 0 -34 -15t-15 -34v-7h280v7zM616 504q0 11 -8.5 19.5t-19.5 8.5q-12 0 -20 -8.5
t-8 -19.5v-364q0 -12 8 -20t20 -8q11 0 19.5 8t8.5 20v364zM476 504q0 11 -8.5 19.5t-19.5 8.5q-12 0 -20 -8.5t-8 -19.5v-364q0 -12 8 -20t20 -8q11 0 19.5 8t8.5 20v364zM336 504q0 11 -8.5 19.5t-19.5 8.5q-12 0 -20 -8.5t-8 -19.5v-364q0 -12 8 -20t20 -8q11 0 19.5 8
t8.5 20v364z" />
<glyph unicode="&#xe0d1;" horiz-adv-x="896" d="M880 650q16 -16 16 -39v-325q0 -23 -16 -39l-230 -231q-16 -16 -39 -16h-325q-22 0 -40 16l-230 230q-16 18 -16 40v325q0 23 16 39l230 230q18 16 40 16h325q23 0 39 -16zM840 286v325l-229 229h-325l-230 -229v-325l230 -230h325zM581 756l175 -175v-265l-175 -176
h-265l-176 176v265l176 175h265zM728 328v241l-154 159h-245l-161 -159v-241l161 -160h238z" />
<glyph unicode="&#xe100;" horiz-adv-x="896" d="M813 896q35 0 59 -24t24 -59v-287q0 -50 -35 -85l-417 -417q-26 -24 -58 -24q-33 0 -59 24l-303 303q-24 24 -24 58.5t24 58.5l417 417q35 35 85 35h287zM840 526v286q0 11 -8.5 19.5t-19.5 8.5h-286q-25 0 -46 -19l-416 -417q-8 -8 -8 -19t8 -18l303 -303q8 -8 19 -8
q10 0 18 8l417 416q19 19 19 46zM756 714q0 17 -12.5 29.5t-29.5 12.5t-29.5 -12.5t-12.5 -29.5t12.5 -29.5t29.5 -12.5t29.5 12.5t12.5 29.5z" />
<glyph unicode="&#xe101;" horiz-adv-x="896" d="M812 896q34 0 59 -25t25 -59v-286q0 -50 -35 -85l-417 -417q-26 -24 -58 -24q-33 0 -59 24l-303 303q-24 24 -24 58.5t24 58.5l417 417q35 35 85 35h286zM840 526v286q0 11 -8.5 19.5t-19.5 8.5h-286q-25 0 -46 -19l-416 -417q-8 -8 -8 -19t8 -18l303 -303q8 -8 19 -8
q10 0 18 8l417 416q19 19 19 46zM527 478l100 -36l-100 -35l46 -95l-95 45l-36 -99l-35 99l-95 -45l45 95l-99 35l99 36l-45 95l95 -46l35 100l36 -100l95 46zM756 714q0 17 -12.5 29.5t-29.5 12.5t-29.5 -12.5t-12.5 -29.5t12.5 -29.5t29.5 -12.5t29.5 12.5t12.5 29.5z" />
<glyph unicode="&#xe1a2;" horiz-adv-x="896" d="M825 786q71 -98 71 -212q0 -174 -212 -389q-81 -83 -204 -175q-13 -10 -32 -10q-18 0 -32 10q-16 10 -51 36.5t-102 87.5t-122.5 125.5t-98 151t-42.5 163.5q0 114 71 212q81 110 191 110q108 0 186 -83q77 83 186 83q110 0 191 -110zM448 56l22 16.5t55 44t78 68
t82 84.5t77.5 97.5t55 103t22.5 104.5q0 96 -62 181t-144 85q-60 0 -110.5 -35.5t-75.5 -92.5q-25 57 -75.5 92.5t-110.5 35.5q-82 0 -144 -85t-62 -181q0 -70 40.5 -149t98 -142t115 -116t98.5 -82zM504 644v-140h140v-112h-140v-140h-112v140h-140v112h140v140h112z" />
<glyph unicode="&#xe1c0;" horiz-adv-x="896" d="M266 0zM630 0zM890 187q15 -29 -4 -56q-16 -25 -46 -25h-5l-104 9l-55 -89q-16 -26 -46 -26q-36 2 -51 31l-117 232q-10 -2 -14 -2t-14 2l-117 -232q-15 -29 -51 -31q-30 0 -46 26l-55 89l-104 -9h-5q-30 0 -46 25q-19 27 -4 56l160 316l-28 48q-16 27 0 56l28 47v55
q0 33 28 49l47 27l28 48q16 28 48 28h55l48 27q14 8 28 8t28 -8l48 -27h55q32 0 48 -28l28 -48l47 -27q28 -16 28 -49v-55l28 -47q16 -29 0 -56l-28 -48zM267 56l130 257l-17 10h-79l-9 15l-31 54l-54 31l-14 8v3l-137 -272l138 12zM448 317l61 35h70l35 61l60 35v70l35 61
l-35 60v70l-60 35l-35 61h-70l-61 35l-61 -35h-70l-35 -61l-60 -35v-70l-35 -60l35 -61v-70l60 -35l35 -61h70zM702 174l138 -12l-137 272v-3l-14 -8l-54 -31l-31 -54l-9 -15h-79l-17 -10l130 -257zM448 749q73 0 124 -51t51 -124t-51 -124t-124 -51t-124 51t-51 124t51 124
t124 51zM448 427q61 0 104 43t43 104t-43 104t-104 43t-104 -43t-43 -104t43 -104t104 -43z" />
<glyph unicode="&#xe1c1;" horiz-adv-x="896" d="M448 504l56 -120l126 -19l-91 -93l21 -132l-112 62l-112 -62l21 132l-91 93l126 19zM896 840v-140q0 -21 -15 -38l-167 -194v-1q-1 -1 -1 -2q43 -73 43 -157q0 -128 -90 -218t-218 -90t-218 90t-90 218q0 84 43 157q0 1 -2 3l-168 196q-13 16 -13 36v84v56
q0 23 16.5 39.5t39.5 16.5h784q23 0 39.5 -16.5t16.5 -39.5zM448 56q104 0 178 74t74 178t-74 178t-178 74t-178 -74t-74 -178t74 -178t178 -74zM672 504l168 196h-784l168 -196h5q88 98 219 98t218 -98h6zM840 728v112h-784v-112h784z" />
<glyph unicode="&#xe200;" horiz-adv-x="896" d="M845 839q45 -50 50.5 -115.5t-41.5 -118.5l-69 -69l4 -4q17 -17 17 -40q0 -24 -17 -39l-84 -84q-16 -16 -39 -16q-24 0 -40 16l-45 45l-339 -330q-14 -14 -86 -44.5t-117 -39.5l-39 39q9 46 39.5 117.5t44.5 84.5l330 340l-44 44q-17 15 -17 39q0 25 17 40l84 84
q16 16 39 16q24 0 40 -16l4 -4l69 69q43 43 109 43q79 0 130 -57zM204 125l362 353l-88 88l-353 -362q-9 -13 -28 -56.5t-32 -82.5q39 13 82.5 32t56.5 28zM670 413l79 78l-256 256l-79 -78zM815 645q29 32 24 76.5t-36 79.5q-34 39 -88 39q-42 0 -69 -27l-90 -90l169 -168z
" />
<glyph unicode="&#xe201;" horiz-adv-x="896" d="M840 392q23 0 39.5 -16.5t16.5 -39.5v-140q0 -23 -16.5 -39.5t-39.5 -16.5h-56v-84q0 -23 -16.5 -39.5t-39.5 -16.5h-140q-23 0 -39.5 16.5t-16.5 39.5v84h-364q-23 0 -39.5 16.5t-16.5 39.5v308h-56q-23 0 -39.5 16.5t-16.5 39.5v140q0 23 16.5 39.5t39.5 16.5h56v84
q0 23 16.5 39.5t39.5 16.5h140q23 0 39.5 -16.5t16.5 -39.5v-84h364q23 0 39.5 -16.5t16.5 -39.5v-308h56zM140 560v140h-84v-140h84zM560 196v140h-252v504h-140v-644h392zM364 392h168v112h-168v-112zM728 56v644h-392v-140h252v-504h140zM840 196v140h-84v-140h84z" />
<glyph unicode="&#xe202;" horiz-adv-x="896" d="M644 840v-140h-56v140h-532v-532h140v-56h-140q-23 0 -39.5 16.5t-16.5 39.5v532q0 23 16.5 39.5t39.5 16.5h532q23 0 39.5 -16.5t16.5 -39.5zM840 644q23 0 39.5 -16.5t16.5 -39.5v-532q0 -23 -16.5 -39.5t-39.5 -16.5h-532q-23 0 -39.5 16.5t-16.5 39.5v532
q0 23 16.5 39.5t39.5 16.5h532zM840 56v532h-532v-532h532z" />
<glyph unicode="&#xe203;" horiz-adv-x="896" d="M613 609q18 -15 20 -38t-14 -41l-435 -510q-15 -18 -38 -20q-24 -2 -41 13l-85 73q-18 15 -20 38t13 41l436 511q14 17 38 19q23 2 41 -13zM481 454l96 113l-85 72l-97 -113zM642 690q-32 14 -34 47q-3 34 26 52l27 18l2 35q0 36 33 49q32 14 60 -9l26 -24l32 9
q32 8 55 -17q22 -26 11 -58l-13 -33l20 -32q19 -29 1 -59q-9 -15 -26 -22q-11 -6 -28 -4l-32 3l-19 -26q-9 -10 -22 -17q-19 -7 -34 -3q-35 7 -43 41l-9 36zM716 775l-53 -33l60 -25l15 -63l39 50l63 -7l-35 56l23 59l-61 -15l-48 43zM848 351q33 -5 45 -38q11 -33 -13 -57
l-25 -25l6 -37q6 -34 -23 -55q-14 -10 -32 -10q-16 0 -27 7l-28 16l-29 -16q-11 -7 -27 -7q-18 0 -32 10q-28 20 -23 55l6 37l-25 25q-24 24 -13 57q12 33 45 38l32 5l15 32q15 32 51 32q35 0 50 -32l15 -32zM795 250l45 46l-62 9l-27 59l-28 -59l-62 -9l45 -46l-11 -65
l56 31l55 -31zM125 707l-25 25q-24 24 -13 57q12 33 45 38l32 5l15 32q15 32 50 32q36 0 51 -32l15 -32l32 -5q33 -5 45 -38q11 -33 -13 -57l-25 -25l6 -37q5 -34 -23 -55q-14 -10 -32 -10q-16 0 -27 7l-29 16l-28 -16q-11 -7 -27 -7q-18 0 -32 10q-29 21 -23 55zM202 781
l-62 -9l45 -46l-11 -65l55 31l56 -31l-11 65l45 46l-62 9l-28 59z" />
<glyph unicode="&#xe204;" horiz-adv-x="896" d="M393 790q17 -3 26.5 -23t4.5 -43q-6 -31 -27 -44q-9 -7 -20 -7h-5q-17 3 -26.5 22.5t-4.5 43.5q6 31 27 44q9 7 20 7h5zM143 741q24 -3 44 -28q14 -20 14.5 -41t-12.5 -32q-11 -6 -20 -6q-1 0 -3 0.5t-3 0.5q-26 3 -43 28q-15 19 -15.5 40.5t13.5 31.5q7 6 19 6h6z
M784 590q112 -80 112 -197v-225q0 -70 -57.5 -119t-138.5 -49h-168q-81 0 -138.5 49.5t-57.5 118.5l-6 -33q-6 -34 -40 -44q-5 -2 -15 -2q-25 0 -42 18q-46 57 -64 129q-36 139 41 282l-11 15q-15 -3 -30 -3q-14 0 -21 1q-68 10 -112 69q-41 54 -35.5 119t54.5 101
q34 27 82 27q7 0 21 -2q50 -6 92 -46q20 45 58 72q38 25 80 25q8 0 24 -2q63 -13 96 -71q1 -2 2.5 -4.5t2.5 -5.5t2 -4q36 87 101 87q37 0 71.5 -36t50.5 -133q20 -4 33 -19.5t13 -35.5v-82zM616 840q-23 0 -42 -38t-28 -102h140q-9 64 -28 102t-42 38zM504 672v-84h224v84
h-224zM331 449l179 -239q2 8 4.5 22t0.5 55t-15.5 80t-52 88t-99.5 87l15 83q5 -1 14 -1q25 0 48 15q38 26 47 76q8 44 -12.5 80t-57.5 43q-5 1 -14 1q-26 0 -48 -16q-38 -25 -47 -75q-4 -20 -1 -42v-2q1 -1 1 -2q13 -67 7 -120q-32 44 -54 120q0 2 -1 3q-7 22 -19 37
q-30 40 -76 47q-4 1 -13 1q-26 0 -49 -15q-30 -23 -32 -64.5t24 -77.5q30 -39 76 -46q4 -1 13 -1q27 0 49 15l59 -80q-39 -62 -54 -123.5t-8 -105t20 -78.5t27 -52l13 -17zM840 168v224q0 101 -112 168h-224q-33 -20 -56 -42q79 -77 100 -166.5t3 -152.5l-26 -73l-133 173
v-131q0 -44 39.5 -78t100.5 -34h168q61 0 100.5 34t39.5 78z" />
<glyph unicode="&#xe205;" horiz-adv-x="896" d="M880 261q16 -17 16 -40.5t-16 -39.5l-166 -165q-16 -16 -39 -16q-22 0 -40 16l-177 178l-110 -109q-6 -6 -25.5 -16t-27.5 -12l-226 -55q-4 -2 -13 -2q-22 0 -40 16q-22 22 -14 53l55 226q2 8 12 27.5t16 25.5l109 110l-178 177q-16 18 -16 40q0 23 16 39l165 166
q18 16 40 16t40 -16l177 -177l137 138q57 55 133 55t133 -55q55 -55 55 -133t-55 -133l-138 -137zM615 801l-16 -15l187 -187l15 16q39 38 39 93t-39 93q-37 39 -93 39q-54 0 -93 -39zM580 766l-123 -123l186 -186l123 123zM56 56l226 55l-171 171zM309 124l129 129
l-185 185l-129 -129zM675 56l165 165l-66 66l-96 -96l-23 23l96 96l-54 54l-62 -62l-23 23l62 62l-55 55l-96 -97l-23 23l96 97l-54 54l-62 -62l-23 23l62 62l-54 54l-97 -96l-23 23l97 96l-55 55l-62 -62l-23 23l62 62l-54 54l-96 -96l-23 23l96 96l-66 66l-165 -165z" />
<glyph unicode="&#xe206;" horiz-adv-x="896" d="M896 672q0 -23 -16.5 -39.5t-39.5 -16.5q23 0 39.5 -16.5t16.5 -39.5v-56q0 -23 -16.5 -39.5t-39.5 -16.5q23 0 39.5 -16.5t16.5 -39.5v-56q0 -23 -16.5 -39.5t-39.5 -16.5q23 0 39.5 -16.5t16.5 -39.5v-56q0 -23 -16.5 -39.5t-39.5 -16.5h-56v-56q0 -23 -16.5 -39.5
t-39.5 -16.5h-56q-23 0 -39.5 16.5t-16.5 39.5q0 -23 -16.5 -39.5t-39.5 -16.5h-56q-23 0 -39.5 16.5t-16.5 39.5q0 -23 -16.5 -39.5t-39.5 -16.5h-56q-23 0 -39.5 16.5t-16.5 39.5q0 -23 -16.5 -39.5t-39.5 -16.5h-56q-23 0 -39.5 16.5t-16.5 39.5v56h-56q-23 0 -39.5 16.5
t-16.5 39.5v56q0 23 16.5 39.5t39.5 16.5q-23 0 -39.5 16.5t-16.5 39.5v56q0 23 16.5 39.5t39.5 16.5q-23 0 -39.5 16.5t-16.5 39.5v56q0 23 16.5 39.5t39.5 16.5q-23 0 -39.5 16.5t-16.5 39.5v56q0 23 16.5 39.5t39.5 16.5h56v56q0 23 16.5 39.5t39.5 16.5h56
q23 0 39.5 -16.5t16.5 -39.5q0 23 16.5 39.5t39.5 16.5h56q23 0 39.5 -16.5t16.5 -39.5q0 23 16.5 39.5t39.5 16.5h56q23 0 39.5 -16.5t16.5 -39.5q0 23 16.5 39.5t39.5 16.5h56q23 0 39.5 -16.5t16.5 -39.5v-56h56q23 0 39.5 -16.5t16.5 -39.5v-56zM840 672v56h-112v112
h-56v-112h-112v112h-56v-112h-112v112h-56v-112h-112v112h-56v-112h-112v-56h112v-112h-112v-56h112v-112h-112v-56h112v-112h-112v-56h112v-112h56v112h112v-112h56v112h112v-112h56v112h112v-112h56v112h112v56h-112v112h112v56h-112v112h112v56h-112v112h112zM672 336
h-112v-112h112v112zM504 336h-112v-112h112v112zM336 336h-112v-112h112v112zM336 504h-112v-112h112v112zM504 504h-112v-112h112v112zM672 504h-112v-112h112v112zM672 672h-112v-112h112v112zM504 672h-112v-112h112v112zM336 672h-112v-112h112v112z" />
<glyph unicode="&#xe222;" horiz-adv-x="896" d="M881 204q15 -16 15 -39t-16 -39l-75 -75q-16 -16 -39 -16q-22 0 -39 15l-213 200l-174 -174q-12 -10 -27 -15l-244 -59q-4 -2 -13 -2q-22 0 -40 16q-22 23 -14 53l59 244q5 15 15 27l121 121q-66 55 -78 143q-17 76 -61 86l-2 1q-23 7 -39.5 26t-16.5 46q0 28 18 49
t48 26q1 0 3 0.5t3 0.5h2q2 0 5.5 0.5t8 0.5h11h13.5q244 0 355 -108l108 109q57 55 133 55q78 0 133 -55t55 -133t-55 -133l-159 -158zM615 801l-16 -15l187 -187l15 16q39 38 39 93t-39 93q-37 39 -93 39q-54 0 -93 -39zM580 766l-99 -99q28 -48 28 -106l115 -123l142 142
zM175 614q10 -74 64 -115q23 -17 46 -27q49 -21 96 -21v0l99 99q3 56 -22 102q-12 21 -29 38q-93 94 -317 94l-36 -1q-20 -4 -20 -19q0 -7 4 -11.5t8 -6.5l3 -1q37 -9 63 -42t34 -61zM56 56l226 55l-171 171zM309 124l184 184l-123 115q-54 4 -105 27l-141 -141zM766 91
l74 74l-341 365l-97 -98z" />
<glyph unicode="&#xe223;" horiz-adv-x="896" d="M896 742v-518q0 -15 -8 -28l-98 -168q-16 -28 -48 -28t-48 28l-98 168q-8 13 -8 28v140q-23 0 -39.5 16.5t-16.5 39.5v25l-14 -389q-1 -23 -17.5 -39.5t-38.5 -16.5h-84q-22 0 -38.5 16.5t-17.5 39.5l-14 390v-208v-14q0 -18 -9 -30l-97 -166q-16 -28 -48 -28t-48 28
l-98 168q-8 13 -8 42v546q0 50 42.5 81t111.5 31q108 0 143 -67q2 26 20 46q9 10 22 15q13 6 27 6q25 0 46 -15q1 -1 4 -3q10 -8 25.5 -23t43.5 -48.5t48 -67.5q4 20 19.5 32.5t35.5 12.5h6q14 49 55 80.5t93 31.5q64 0 109 -45t45 -109zM154 56l98 168h-196zM252 252v448
h-196v-448h196zM252 728v56q0 26 -28 41t-70 15t-70 -15t-28 -41v-56h196zM462 56l14 392h-112l14 -392h84zM476 476q43 39 49 90.5t-16.5 97t-51 85t-53.5 63.5l-25 23q-6 5 -13 5q-5 0 -9 -4t-4.5 -9t1.5 -7l1 -3q15 -31 11.5 -60.5t-15.5 -50.5l-12 -22q-23 -30 -28 -64
t5.5 -62.5t22.5 -48.5t25 -33h112zM840 224v168h-196v-168l98 -168zM840 420v322q0 40 -29 69t-69 29t-69 -29t-29 -69v-14h-56v-308h28v280h28v-280h196z" />
<glyph unicode="&#xe224;" horiz-adv-x="896" d="M100 544l336 336q18 16 40 16t40 -16l364 -364q16 -17 16 -40.5t-16 -39.5l-336 -336q-18 -16 -40 -16q-11 0 -23 5l-138 63l-113 -113q-39 -39 -96 -39q-56 0 -95 39q-41 41 -39 99q2 55 39 92l113 113l-63 138q-16 34 11 63zM504 140l102 102l-364 364l-102 -102
l79 -173l-140 -140q-22 -22 -23 -54.5t23 -57.5q22 -23 55 -23q34 0 57 23l140 140zM626 262l214 214l-364 364l-214 -214zM105 140q0 -14 10.5 -24.5t24.5 -10.5t24.5 10.5t10.5 24.5t-10.5 24.5t-24.5 10.5t-24.5 -10.5t-10.5 -24.5z" />
<glyph unicode="&#xe225;" horiz-adv-x="896" d="M840 784q23 0 39.5 -16.5t16.5 -39.5v-252q0 -23 -16.5 -39.5t-39.5 -16.5h-308v-8q28 -15 28 -48v-308q0 -23 -16.5 -39.5t-39.5 -16.5h-112q-23 0 -39.5 16.5t-16.5 39.5v308q0 33 28 48v120h-308q-23 0 -39.5 16.5t-16.5 39.5v252q0 23 16.5 39.5t39.5 16.5h644
q23 0 39.5 -16.5t16.5 -39.5v-56h84zM56 588h644v252h-644v-252zM504 56v308h-112v-308h112zM840 476v252h-112v-56h56v-140h-364v-140h56v84h364z" />
<glyph unicode="&#xe240;" horiz-adv-x="896" d="M896 532q0 23 -16.5 39.5t-39.5 16.5h-140v-112h84v-364h-364v84h-112v-140q0 -23 16.5 -39.5t39.5 -16.5h476q23 0 39.5 16.5t16.5 39.5v476zM588 896q23 0 39.5 -16.5t16.5 -39.5v-532q0 -23 -16.5 -39.5t-39.5 -16.5h-532q-23 0 -39.5 16.5t-16.5 39.5v532
q0 23 16.5 39.5t39.5 16.5h532zM588 308v532h-532v-532h532z" />
<glyph unicode="&#xe241;" horiz-adv-x="896" d="M644 840v-196h-56v196h-532v-532h196v-56h-196q-23 0 -39.5 16.5t-16.5 39.5v532q0 23 16.5 39.5t39.5 16.5h532q23 0 39.5 -16.5t16.5 -39.5zM840 588q23 0 39.5 -16.5t16.5 -39.5v-476q0 -23 -16.5 -39.5t-39.5 -16.5h-476q-23 0 -39.5 16.5t-16.5 39.5v476
q0 23 16.5 39.5t39.5 16.5h476zM784 112v364h-364v-364h364z" />
<glyph unicode="&#xe242;" horiz-adv-x="896" d="M856 782q17 -5 28.5 -20t11.5 -34v-672q0 -23 -16.5 -39.5t-39.5 -16.5h-784q-23 0 -39.5 16.5t-16.5 39.5v672q0 19 11.5 34t28.5 20l18 72q5 18 20 30t34 12h56q19 0 34 -12t20 -30l16 -63l16 63q5 18 20 30t34 12h56q19 0 34 -12t20 -30l44 -63l16 63q5 18 20 30
t34 12h56q19 0 34 -12t20 -30l16 -63l16 63q5 18 20 30t34 12h56q19 0 34 -12t20 -30zM224 56v56h-168v-56h168zM224 140v504h-168v-504h168zM224 672v56h-28l-28 112h-56l-28 -112h-28v-56h168zM420 56v56h-168v-56h168zM420 140v504h-168v-504h168zM420 672v56h-28
l-28 112h-56l-28 -112h-28v-56h168zM644 56v56h-168v-56h168zM644 140v504h-168v-504h168zM644 672v56h-28l-28 112h-56l-28 -112h-28v-56h168zM840 56v56h-168v-56h168zM840 140v504h-168v-504h168zM840 672v56h-28l-28 112h-56l-28 -112h-28v-56h168zM602 406
q0 40 -12.5 69t-29.5 29t-29.5 -29t-12.5 -69t12.5 -69t29.5 -29t29.5 29t12.5 69zM182 406q0 40 -12.5 69t-29.5 29t-29.5 -29t-12.5 -69t12.5 -69t29.5 -29t29.5 29t12.5 69zM798 406q0 40 -12.5 69t-29.5 29t-29.5 -29t-12.5 -69t12.5 -69t29.5 -29t29.5 29t12.5 69z
M378 406q0 40 -12.5 69t-29.5 29t-29.5 -29t-12.5 -69t12.5 -69t29.5 -29t29.5 29t12.5 69z" />
<glyph unicode="&#xe260;" horiz-adv-x="896" d="M476 870q0 24 10 26t20 -20l385 -823q10 -22 0 -37.5t-34 -15.5h-381v870zM420 870v-870h-381q-18 0 -28.5 9t-10.5 23q0 8 5 21l385 823q6 14 13.5 18.5t12 -2t4.5 -22.5zM56 56h308v644z" />
<glyph unicode="&#xe261;" horiz-adv-x="896" d="M870 420q24 0 26 -10t-20 -20l-823 -385q-22 -10 -37.5 0t-15.5 34v381h870zM870 476h-870v381q0 18 9 28.5t23 10.5q8 0 21 -5l823 -385q22 -10 20 -20t-26 -10zM56 840v-308h644z" />
<glyph unicode="&#xe280;" horiz-adv-x="896" d="M840 280q24 0 40 -16q16 -18 16 -40q-1 -113 -50 -168.5t-118 -55.5q-68 0 -108.5 32.5t-68.5 84.5l-59 -73q-42 -44 -102 -44q-58 0 -99 41t-41 99t41 99t99 41q26 0 50 -9l21 26l-48 95h-112l-78 -348q-4 -19 -19.5 -31.5t-35.5 -12.5h-112q-26 0 -44 21q-16 21 -11 47
l72 324h-17q-23 0 -39.5 16.5t-16.5 39.5v84q0 23 16.5 39.5t39.5 16.5h61l11 50q19 106 86 176q80 82 206 82q58 0 99 -41t41 -99t-41 -99t-99 -41q-29 0 -60 13l-12 -31l-2 -10h186q35 0 50 -31l32 -64l34 44q43 51 108 51q58 0 99 -41t41 -99t-41 -99t-99 -41
q-23 0 -43 7l-6 -8l28 -56q17 29 49 29h56zM728 56q48 0 80 40t32 128h-56q0 -56 -42 -56q-15 0 -25.5 7t-13.5 14l-3 7l-59 118l59 72q22 -22 56 -22t59 25t25 59t-25 59t-59 25q-40 0 -64 -31l-89 -112l-71 143h-256l17 75l1 3q1 4 2 8.5t3.5 11.5t6 14t8 15t10.5 15.5
t13.5 15.5t16.5 14q25 -32 66 -32q34 0 59 25t25 59t-25 59t-59 25q-60 0 -106 -22t-72 -57.5t-39.5 -68t-19.5 -65.5l-21 -95h-106v-84h87l-87 -392h112l89 392h191l79 -157l-75 -95q-25 28 -62 28q-34 0 -59 -25t-25 -59t25 -59t59 -25q37 0 61 27l111 136l26 -51
q14 -28 22.5 -42.5t25.5 -33.5t39.5 -27.5t52.5 -8.5z" />
<glyph unicode="&#xe2a0;" horiz-adv-x="896" d="M880 605q16 -16 16 -39t-16 -39l-138 -138q-16 -16 -39 -16q-24 0 -39 16l-138 138q-16 16 -16 39t16 39l52 52q-59 35 -126 35q-10 0 -30 -2l16 -16q16 -16 16 -39q0 -22 -16 -40l-138 -137q-16 -16 -39 -16t-39 16l-16 16q-2 -20 -2 -30q0 -67 35 -126l51 52
q18 16 40 16q21 0 39 -16l137 -138q17 -15 17 -39t-17 -39l-137 -138q-16 -16 -39 -16q-22 0 -40 16l-137 138q-16 16 -16 39t16 39l43 44q-50 77 -50 168q0 26 5 58l-43 -43q9 -13 9 -30q0 -24 -17 -41t-42 -17q-24 0 -41 17t-17 41t17 41t41 17q16 0 30 -8l56 57l-60 59
q-16 18 -16 40q0 23 16 39l138 137q15 17 39 17t39 -17l60 -59l57 56q-9 16 -9 30q0 24 17.5 41t41.5 17t41 -17t17 -41q0 -25 -17 -42t-41 -17q-16 0 -30 8l-43 -43q29 6 58 6q91 0 168 -50l44 43q16 16 39 16t39 -16zM273 273l-81 -80l138 -138l137 138l-137 137zM261 497
l137 138l-137 137l-137 -137zM703 429l137 137l-137 137l-138 -137z" />
<glyph unicode="&#xe2a1;" horiz-adv-x="896" d="M840 896q23 0 39.5 -16.5t16.5 -39.5v-196q0 -23 -16.5 -39.5t-39.5 -16.5h-196q-23 0 -39.5 16.5t-16.5 39.5v196q0 23 16.5 39.5t39.5 16.5h196zM840 644v196h-196v-196h196zM700 532q23 0 39.5 -16.5t16.5 -39.5v-420q0 -23 -16.5 -39.5t-39.5 -16.5h-644
q-23 0 -39.5 16.5t-16.5 39.5v644q0 23 16.5 39.5t39.5 16.5h420q23 0 39.5 -16.5t16.5 -39.5v-168h168zM252 56v196h-196v-196h196zM252 280v196h-196v-196h196zM252 504v196h-196v-196h196zM476 56v196h-196v-196h196zM476 280v196h-196v-196h196zM476 504v196h-196v-196
h196zM700 56v196h-196v-196h196zM700 280v196h-196v-196h196z" />
<glyph unicode="&#xe301;" horiz-adv-x="896" d="M840 896q23 0 39.5 -16.5t16.5 -39.5v-784q0 -23 -16.5 -39.5t-39.5 -16.5h-784q-23 0 -39.5 16.5t-16.5 39.5v784q0 23 16.5 39.5t39.5 16.5h784zM168 56v784h-112v-784h112zM672 56v784h-476v-784h476zM756 56v784h-56v-784h56zM840 56v784h-56v-784h56zM327 201
q-13 11 -19 22q-57 81 4 277q61 195 154 231q14 5 29 7q21 3 41 -4v1l35 -11q11 -4 16.5 -14t2.5 -20l-32 -101q-4 -11 -14 -16t-21 -1l-53 16q-28 -44 -51 -121q-25 -78 -27 -129l53 -17q11 -3 16.5 -12.5t2.5 -20.5l-32 -102q-3 -10 -13 -15t-21 -2l-35 11q-18 6 -36 21z
" />
<glyph unicode="&#xe310;" horiz-adv-x="896" d="M56 896q114 0 223 -30t201 -84.5t169.5 -132t132 -169.5t84.5 -201t30 -223q0 -23 -16.5 -39.5t-39.5 -16.5h-336q-23 0 -39.5 16.5t-16.5 39.5q0 161 -115 275t-277 114q-23 0 -39.5 16.5t-16.5 39.5v339q0 23 16.5 39.5t39.5 16.5zM504 56h140q0 158 -78.5 292.5
t-214 213t-295.5 78.5v-139q185 0 316.5 -130.5t131.5 -314.5zM700 56h140q0 160 -62 305t-167 250t-250 167t-305 62v-144q175 0 323 -86t234.5 -233.5t86.5 -320.5zM147 292q61 0 104 -42.5t43 -103.5t-43 -103.5t-104 -42.5t-104 42.5t-43 103.5t43 103.5t104 42.5z
M147 56q38 0 64.5 26.5t26.5 63.5t-26.5 63.5t-64.5 26.5t-64.5 -26.5t-26.5 -63.5t26.5 -63.5t64.5 -26.5z" />
<glyph unicode="&#xe311;" horiz-adv-x="896" d="M448 896q185 0 316.5 -131.5t131.5 -316.5q0 -131 -74.5 -240.5t-178.5 -165.5l-1 -1q-5 -18 -20 -29.5t-34 -11.5h-280q-19 0 -34 11.5t-20 29.5l-1 1q-104 56 -178.5 165.5t-74.5 240.5q0 185 131.5 316.5t316.5 131.5zM308 56h280v154q0 50 -43 86t-97 36
q-55 0 -97.5 -35.5t-42.5 -86.5v-154zM448 626q73 0 124.5 -52t51.5 -126q0 -72 -50 -122q27 -24 43 -59q78 75 78 181q0 104 -72 177.5t-175 73.5t-175 -73.5t-72 -177.5q0 -106 78 -181q13 32 43 59q-49 51 -49 122q0 74 51 126t124 52zM538 450q0 38 -26.5 64.5
t-63.5 26.5t-63.5 -24.5t-26.5 -61.5q0 -38 27 -67t63 -29q37 0 63.5 26.5t26.5 64.5zM616 91q91 50 157.5 147.5t66.5 209.5q0 162 -115.5 277t-276.5 115t-276.5 -115t-115.5 -277q0 -112 66.5 -209.5t157.5 -147.5v81q-152 152 -152 276q0 132 94.5 225.5t225.5 93.5
t225 -93.5t94 -225.5q0 -125 -151 -276v-81z" />
<glyph unicode="&#xe350;" horiz-adv-x="896" d="M840 616q23 0 39.5 -16.5t16.5 -39.5v-504q0 -23 -16.5 -39.5t-39.5 -16.5h-784q-23 0 -39.5 16.5t-16.5 39.5v504q0 23 16.5 39.5t39.5 16.5h168v112q0 23 16.5 39.5t39.5 16.5h84v56q0 35 31 50q12 6 25 6q18 0 34 -11l224 -168q22 -17 22 -45t-22 -45l-15 -11h177z
M440 241l-104 75l-260 -260h744l-260 260l-104 -75q-3 -3 -8 -3t-8 3zM420 616v-112l224 168l-224 168v-112h-140v-112h140zM364 560h-308v-3l392 -288l392 288v3h-252l-134 -101q-16 -11 -34 -11q-13 0 -25 6q-31 15 -31 50v56zM840 522l-258 -189l258 -257v446zM313 333
l-257 189v-446z" />
<glyph unicode="&#xe351;" horiz-adv-x="896" d="M896 840v-59q0 -23 -16 -39q16 -16 16 -39v-39q0 -22 -16 -40q16 -16 16 -39v-39q0 -23 -16 -39q16 -18 16 -40v-38q0 -24 -16 -40q16 -16 16 -39v-39q0 -23 -16 -39q16 -18 16 -40v-39q0 -23 -16 -39q16 -16 16 -39v-59q0 -23 -16.5 -39.5t-39.5 -16.5h-59q-23 0 -39 16
q-16 -16 -39 -16h-39q-22 0 -40 16q-16 -16 -39 -16h-39q-23 0 -39 16q-18 -16 -40 -16h-38q-24 0 -40 16q-16 -16 -39 -16h-39q-23 0 -39 16q-18 -16 -40 -16h-39q-23 0 -39 16q-16 -16 -39 -16h-59q-23 0 -39.5 16.5t-16.5 39.5v59q0 23 16 39q-16 16 -16 39v39
q0 22 16 40q-16 16 -16 39v39q0 23 16 39q-16 16 -16 40v38q0 22 16 40q-16 16 -16 39v39q0 23 16 39q-16 18 -16 40v39q0 23 16 39q-16 16 -16 39v59q0 23 16.5 39.5t39.5 16.5h59q23 0 39 -16q16 16 39 16h39q22 0 40 -16q16 16 39 16h39q23 0 39 -16q16 16 40 16h38
q22 0 40 -16q16 16 39 16h39q23 0 39 -16q18 16 40 16h39q23 0 39 -16q16 16 39 16h59q23 0 39.5 -16.5t16.5 -39.5zM840 781v59h-59q-9 -28 -39 -28t-39 28h-39q-10 -28 -40 -28q-28 0 -39 28h-39q-10 -28 -39 -28t-40 28h-38q-11 -28 -40 -28q-30 0 -39 28h-39
q-11 -28 -39 -28q-30 0 -40 28h-39q-9 -28 -39 -28t-39 28h-59v-59q28 -9 28 -39t-28 -39v-39q28 -10 28 -40q0 -28 -28 -39v-39q28 -10 28 -39t-28 -40v-38q28 -11 28 -40q0 -30 -28 -39v-39q28 -11 28 -39q0 -30 -28 -40v-39q28 -9 28 -39t-28 -39v-59h59q9 28 39 28
t39 -28h39q10 28 40 28q28 0 39 -28h39q9 28 39 28q29 0 40 -28h38q11 28 40 28t39 -28h39q11 28 39 28q30 0 40 -28h39q9 28 39 28t39 -28h59v59q-28 9 -28 39t28 39v39q-28 11 -28 40q0 28 28 39v39q-28 9 -28 39q0 29 28 40v38q-28 11 -28 40t28 39v39q-28 11 -28 39
q0 30 28 40v39q-28 9 -28 39t28 39zM140 756h616v-616h-616v616zM728 168v560h-560v-560h560z" />
<glyph unicode="&#xe390;" horiz-adv-x="896" d="M672 644q92 0 158 -66t66 -158v-56q0 -77 -47.5 -137.5t-120.5 -79.5v-91q0 -37 -35 -52q-9 -4 -21 -4q-22 0 -40 16l-123 124h-33q-67 0 -123.5 37t-82.5 98l-6 -7q-18 -16 -40 -16q-13 0 -21 4q-35 15 -35 52v91q-73 19 -120.5 79.5t-47.5 137.5v56q0 92 65.5 158
t158.5 66h196q92 0 158 -66t66 -158v-28h28zM224 308l140 140h56q70 0 119 49t49 119v56q0 70 -49 119t-119 49h-196q-70 0 -119 -49t-49 -119v-56q0 -70 49 -119t119 -49v-140zM840 364v56q0 70 -49 119t-119 49h-30q-11 -83 -74 -139.5t-148 -56.5h-33l-73 -73
q15 -54 60 -88.5t102 -34.5h56l140 -140v140q70 0 119 49t49 119z" />
<glyph unicode="&#xe396;" horiz-adv-x="896" d="M583 896q132 0 222.5 -91.5t90.5 -225.5v-68q0 -130 -93 -222.5t-224 -92.5h-37l-165 -178q-17 -18 -41 -18q-12 0 -21 4q-16 6 -25.5 20.5t-9.5 31.5v142q-119 14 -199.5 103.5t-80.5 209.5v68q0 131 93 224t224 93h266zM840 511v68q0 109 -74.5 185t-182.5 76h-266
q-108 0 -184.5 -76.5t-76.5 -184.5v-68q0 -108 76.5 -183.5t184.5 -75.5h19v-196l182 196h61q108 0 184.5 75.5t76.5 183.5zM742 546q0 14 -14 14h-560q-14 0 -14 -14t14 -14h560q14 0 14 14zM658 658q0 14 -14 14h-392q-14 0 -14 -14t14 -14h392q14 0 14 14zM658 434
q0 14 -14 14h-392q-14 0 -14 -14t14 -14h392q14 0 14 14z" />
<glyph unicode="&#xe397;" horiz-adv-x="896" d="M583 896q132 0 222.5 -91.5t90.5 -225.5v-68q0 -130 -93 -222.5t-224 -92.5h-37l-165 -178q-17 -18 -41 -18q-12 0 -21 4q-16 6 -25.5 20.5t-9.5 31.5v142q-119 14 -199.5 103.5t-80.5 209.5v68q0 131 93 224t224 93h266zM840 511v68q0 109 -74.5 185t-182.5 76h-266
q-108 0 -184.5 -76.5t-76.5 -184.5v-68q0 -108 76.5 -183.5t184.5 -75.5h19v-196l182 196h61q108 0 184.5 75.5t76.5 183.5zM490 378q0 17 -12.5 29.5t-29.5 12.5t-29.5 -12.5t-12.5 -29.5t12.5 -29.5t29.5 -12.5t29.5 12.5t12.5 29.5zM518 756h-140l28 -280h84z" />
<glyph unicode="&#xe398;" horiz-adv-x="896" d="M583 896q132 0 222.5 -91.5t90.5 -225.5v-68q0 -130 -93 -222.5t-224 -92.5h-37l-165 -178q-17 -18 -41 -18q-12 0 -21 4q-16 6 -25.5 20.5t-9.5 31.5v142q-119 14 -199.5 103.5t-80.5 209.5v68q0 131 93 224t224 93h266zM840 511v68q0 109 -74.5 185t-182.5 76h-266
q-108 0 -184.5 -76.5t-76.5 -184.5v-68q0 -108 76.5 -183.5t184.5 -75.5h19v-196l182 196h61q108 0 184.5 75.5t76.5 183.5zM602 640q0 57 -39.5 86.5t-106.5 29.5q-86 0 -148 -66l50 -60q46 48 98 48q67 0 67 -42q0 -15 -7.5 -23.5t-28.5 -19.5q-44 -20 -55.5 -45
t-11.5 -72h56q1 24 16 37.5t53 32.5q57 27 57 94zM490 378q0 17 -12.5 29.5t-29.5 12.5t-29.5 -12.5t-12.5 -29.5t12.5 -29.5t29.5 -12.5t29.5 12.5t12.5 29.5z" />
<glyph unicode="&#xe399;" horiz-adv-x="896" d="M583 896q132 0 222.5 -91.5t90.5 -225.5v-68q0 -130 -93 -222.5t-224 -92.5h-37l-165 -178q-17 -18 -41 -18q-12 0 -21 4q-16 6 -25.5 20.5t-9.5 31.5v142q-119 14 -199.5 103.5t-80.5 209.5v68q0 131 93 224t224 93h266zM840 511v68q0 109 -74.5 185t-182.5 76h-266
q-108 0 -184.5 -76.5t-76.5 -184.5v-68q0 -108 76.5 -183.5t184.5 -75.5h19v-196l182 196h61q108 0 184.5 75.5t76.5 183.5zM336 546q0 17 -12.5 29.5t-29.5 12.5t-29.5 -12.5t-12.5 -29.5t12.5 -29.5t29.5 -12.5t29.5 12.5t12.5 29.5zM504 546q0 17 -12.5 29.5t-29.5 12.5
t-29.5 -12.5t-12.5 -29.5t12.5 -29.5t29.5 -12.5t29.5 12.5t12.5 29.5zM672 546q0 17 -12.5 29.5t-29.5 12.5t-29.5 -12.5t-12.5 -29.5t12.5 -29.5t29.5 -12.5t29.5 12.5t12.5 29.5z" />
<glyph unicode="&#xe401;" horiz-adv-x="896" d="M336 56h504v168q0 90 -73.5 154.5t-178.5 69.5q-79 -4 -141.5 -42t-91.5 -98h-60q20 57 67 102.5t110 70.5q-50 30 -79 80.5t-29 110.5q0 92 65.5 158t158.5 66q92 0 158 -66t66 -158q0 -59 -29.5 -110t-78.5 -82q86 -33 139 -102.5t53 -153.5v-168q0 -23 -16.5 -39.5
t-39.5 -16.5h-504q-23 0 -39.5 16.5t-16.5 39.5v28h56v-28zM420 672q0 -70 49 -119t119 -49t119 49t49 119t-49 119t-119 49t-119 -49t-49 -119zM392 252v-112h-140v-140h-112v140h-140v112h140v140h112v-140h140z" />
<glyph unicode="&#xe402;" horiz-adv-x="896" d="M840 0h-504q-23 0 -39.5 16.5t-16.5 39.5v28h56v-28h504v168q0 90 -73.5 154.5t-178.5 69.5q-79 -4 -141.5 -42t-91.5 -98h-60q20 57 67 102.5t110 70.5q-50 30 -79 80.5t-29 110.5q0 92 65.5 158t158.5 66q92 0 158 -66t66 -158q0 -59 -29.5 -110t-78.5 -82
q86 -33 139 -102.5t53 -153.5v-168q0 -23 -16.5 -39.5t-39.5 -16.5zM420 672q0 -70 49 -119t119 -49t119 49t49 119t-49 119t-119 49t-119 -49t-49 -119zM392 252v-112h-392v112h392z" />
<glyph unicode="&#xe404;" horiz-adv-x="896" d="M275 196l99 -99l-79 -79l-99 99l-99 -99l-79 79l99 99l-99 99l79 79l99 -99l99 99l79 -79zM840 0h-483l56 56h427v168q0 90 -73.5 154.5t-178.5 69.5q-124 -6 -199 -89l-39 40q49 54 122 81q-49 31 -78.5 82t-29.5 110q0 92 65.5 158t158.5 66q92 0 158 -66t66 -158
q0 -59 -29.5 -110t-78.5 -82q86 -33 139 -102.5t53 -153.5v-168q0 -23 -16.5 -39.5t-39.5 -16.5zM420 672q0 -70 49 -119t119 -49t119 49t49 119t-49 119t-119 49t-119 -49t-49 -119z" />
<glyph unicode="&#xe405;" horiz-adv-x="896" d="M476 294q0 -39 -23 -83.5t-56 -80t-66 -66t-56 -47.5l-23 -17q-9 6 -24 17t-54 45t-68.5 67t-53.5 79t-24 86q0 55 36 104.5t83 49.5q35 0 62.5 -20t42.5 -53q15 33 42.5 53t62.5 20q47 0 83 -49.5t36 -104.5zM840 0h-497l60 56h437v168q0 90 -73.5 154.5t-178.5 69.5
q-53 -3 -98 -21q-15 22 -41 44q21 9 23 10q-50 30 -79 80.5t-29 110.5q0 92 65.5 158t158.5 66q92 0 158 -66t66 -158q0 -59 -29.5 -110t-78.5 -82q86 -33 139 -102.5t53 -153.5v-168q0 -23 -16.5 -39.5t-39.5 -16.5zM588 504q70 0 119 49t49 119t-49 119t-119 49t-119 -49
t-49 -119t49 -119t119 -49z" />
<glyph unicode="&#xe420;" horiz-adv-x="896" d="M896 59q2 -24 -16 -42q-15 -17 -40 -17h-784q-25 0 -42 19q-16 17 -14 43l84 784q2 21 18 35.5t38 14.5h645q23 0 39.5 -16.5t16.5 -39.5zM56 56h644l85 784h-645zM757 56h83l-27 560zM224 728h449l-29 -560h-476zM589 224l56 476h-393l-28 -476q27 63 65.5 101.5
t102.5 38.5q71 0 126 -42.5t71 -97.5zM527 519q3 42 -25.5 72.5t-72.5 30.5q-43 0 -75 -30.5t-33 -72.5q-1 -41 27 -69.5t70 -28.5t73.5 28.5t35.5 69.5z" />
<glyph unicode="&#xe421;" horiz-adv-x="896" d="M448 799l89 -99h-179zM840 756q23 0 39.5 -16.5t16.5 -39.5v-644q0 -23 -16.5 -39.5t-39.5 -16.5h-784q-23 0 -39.5 16.5t-16.5 39.5v644q0 23 16.5 39.5t39.5 16.5h237l114 122q16 18 41 18t41 -18l114 -122h237zM840 56v644h-261l-131 140l-131 -140h-261v-644h784z
M448 490q29 0 49.5 -20.5t20.5 -49.5t-20.5 -49.5t-49.5 -20.5t-49.5 20.5t-20.5 49.5t20.5 49.5t49.5 20.5zM112 644h672v-532h-672v532zM756 140v476h-616v-476h196v63q0 44 31.5 74.5t80.5 30.5t80.5 -30.5t31.5 -74.5v-63h196z" />
<glyph unicode="&#xe422;" horiz-adv-x="896" d="M448 799l89 -99h-179zM840 756q23 0 39.5 -16.5t16.5 -39.5v-644q0 -23 -16.5 -39.5t-39.5 -16.5h-784q-23 0 -39.5 16.5t-16.5 39.5v644q0 23 16.5 39.5t39.5 16.5h237l114 122q16 18 41 18t41 -18l114 -122h237zM840 56v644h-261l-131 140l-131 -140h-261v-644h784z
M112 644h672v-532h-672v532zM756 140v476h-616v-476h56v63q0 44 31.5 74.5t80.5 30.5t80.5 -30.5t31.5 -74.5v-63h56v63q0 44 31.5 74.5t80.5 30.5t80.5 -30.5t31.5 -74.5v-63h56zM588 490q29 0 49.5 -20.5t20.5 -49.5t-20.5 -49.5t-49.5 -20.5t-49.5 20.5t-20.5 49.5
t20.5 49.5t49.5 20.5zM308 490q29 0 49.5 -20.5t20.5 -49.5t-20.5 -49.5t-49.5 -20.5t-49.5 20.5t-20.5 49.5t20.5 49.5t49.5 20.5z" />
<glyph unicode="&#xe430;" horiz-adv-x="896" d="M448 523q-28 0 -51 18t-33 47h168q-10 -29 -33 -47t-51 -18zM504 630q-11 0 -19.5 8.5t-8.5 19.5t8.5 19.5t19.5 8.5t19.5 -8.5t8.5 -19.5t-8.5 -19.5t-19.5 -8.5zM420 630q-11 0 -19.5 8.5t-8.5 19.5t8.5 19.5t19.5 8.5t19.5 -8.5t8.5 -19.5t-8.5 -19.5t-19.5 -8.5z
M844 521q52 -131 52 -225q0 -65 -28 -118q-12 -24 -22 -36q-107 -142 -398 -142q-211 0 -329.5 78.5t-118.5 217.5q0 114 71 269l16 32q69 133 152 208q85 91 209 91t209 -91q101 -92 173 -253q2 -3 7.5 -16t6.5 -15zM279 765q-81 -72 -142 -193q105 -169 299 -269
q155 48 343 226q-67 151 -162 236q-67 75 -169 75t-169 -75zM448 56q263 0 354 120q-114 9 -215.5 38.5t-172 67t-131 86t-96.5 89.5t-65 85q-66 -145 -66 -246q0 -121 109 -180.5t283 -59.5zM819 203q21 44 21 93q0 82 -48 204q-173 -159 -318 -215q155 -68 345 -82z
M448 434q-75 0 -128.5 53.5t-53.5 128.5t53.5 128.5t128.5 53.5t128.5 -53.5t53.5 -128.5t-53.5 -128.5t-128.5 -53.5zM448 770q-64 0 -109 -45t-45 -109t45 -109t109 -45t109 45t45 109t-45 109t-109 45z" />
<glyph unicode="&#xe440;" horiz-adv-x="896" d="M840 336q23 0 39.5 -16.5t16.5 -39.5v-224q0 -23 -16.5 -39.5t-39.5 -16.5h-784q-23 0 -39.5 16.5t-16.5 39.5v224q0 23 16.5 39.5t39.5 16.5h28v84q0 113 79.5 206.5t197.5 126.5q-11 22 -11 45q0 40 29 69t69 29t69 -29t29 -69q0 -23 -11 -45q118 -33 197.5 -126.5
t79.5 -206.5v-84h28zM140 417v-109h616v109q0 106 -87 194t-207 98v50q28 9 28 39q0 17 -12.5 29.5t-29.5 12.5t-29.5 -12.5t-12.5 -29.5q0 -30 28 -39v-50q-120 -10 -207 -98t-87 -194zM840 56v224h-784v-224h784zM252 462q0 -29 20.5 -49.5t49.5 -20.5t49.5 20.5
t20.5 49.5t-20.5 49.5t-49.5 20.5t-49.5 -20.5t-20.5 -49.5zM504 462q0 -29 20.5 -49.5t49.5 -20.5t49.5 20.5t20.5 49.5t-20.5 49.5t-49.5 20.5t-49.5 -20.5t-20.5 -49.5z" />
<glyph unicode="&#xe441;" horiz-adv-x="896" d="M779 614q51 -8 84 -46t33 -92q0 -49 -32.5 -97.5t-82.5 -65.5q-17 -137 -109.5 -225t-223.5 -88t-223.5 88t-109.5 225q-50 17 -82.5 65.5t-32.5 97.5q0 54 33 92t84 46q21 115 112 198.5t219 83.5t219 -83.5t112 -198.5zM140 364v196q-37 0 -60.5 -23.5t-23.5 -60.5
q0 -34 25.5 -69.5t58.5 -42.5zM728 364v196q0 108 -82 194t-198 86t-198 -86t-82 -194v-196q0 -130 78.5 -219t201.5 -89t201.5 89t78.5 219zM756 364q33 7 58.5 42.5t25.5 69.5q0 37 -23.5 60.5t-60.5 23.5v-196zM641 308h-386q23 -63 75.5 -101.5t117.5 -38.5t117.5 38.5
t75.5 101.5zM336 609q20 0 34.5 -14.5t14.5 -34.5t-14.5 -34.5t-34.5 -14.5t-34.5 14.5t-14.5 34.5t14.5 34.5t34.5 14.5zM560 609q20 0 34.5 -14.5t14.5 -34.5t-14.5 -34.5t-34.5 -14.5t-34.5 14.5t-14.5 34.5t14.5 34.5t34.5 14.5z" />
<glyph unicode="&#xe500;" horiz-adv-x="896" d="M238 812h602q23 0 39.5 -16.5t16.5 -39.5q0 -8 -1 -11l-56 -388q29 -17 29 -49v-56q0 -26 -19 -42q19 -33 19 -70q0 -58 -41 -99t-99 -41t-99 41t-41 99q0 31 12 56h-136q12 -26 12 -56q0 -58 -41 -99t-99 -41t-99 41t-41 99q0 44 26 81q-6 10 -7 17l-130 490h-29
q-23 0 -39.5 16.5t-16.5 39.5v56q0 23 16.5 39.5t39.5 16.5h117q19 0 34 -11.5t20 -30.5zM672 476v-112h112l17 112h-129zM476 756v-112h168v112h-168zM476 616v-112h168v112h-168zM476 476v-112h168v112h-168zM448 756h-194l26 -112h168v112zM313 504h135v112h-160z
M448 476h-127l25 -112h102v112zM336 56q34 0 59 25t25 59t-25 59t-59 25t-59 -25t-25 -59t25 -59t59 -25zM728 56q34 0 59 25t25 59t-25 59t-59 25t-59 -25t-25 -59t25 -59t59 -25zM812 252v56h-498l-141 532h-117v-56h72l141 -532h543zM805 504l13 112h-146v-112h133z
M823 644l17 112h-168v-112h151z" />
<glyph unicode="&#xe520;" horiz-adv-x="896" d="M840 728q23 0 39.5 -16.5t16.5 -39.5v-563q0 -45 -32 -77t-77 -32h-678q-45 0 -77 32t-32 77v563q0 23 16.5 39.5t39.5 16.5h84q3 70 51.5 119t116.5 49q43 0 80 -21t60 -57q23 36 60 57t80 21q67 0 116 -49t52 -119h84zM476 721v-21h56v21q0 29 16 46t40 17t40 -17
t16 -46v-21h56v21q0 49 -32.5 84t-79.5 35t-79.5 -35t-32.5 -84zM560 56v616h-140v49q0 49 -32.5 84t-79.5 35t-79.5 -35t-32.5 -84v-49h-140v-563q0 -22 15.5 -37.5t37.5 -15.5h451zM840 109v563h-252v-616h199q21 0 37 15.5t16 37.5zM364 721q0 29 -16 46t-40 17t-40 -17
t-16 -46v-49h112v49z" />
<glyph unicode="&#xe540;" horiz-adv-x="896" d="M434 560q64 0 109 -45t45 -109t-45 -109t-109 -45t-109 45t-45 109t45 109t109 45zM434 280q52 0 89 37t37 89t-37 89t-89 37t-89 -37t-37 -89t37 -89t89 -37zM886 787q10 -13 10 -30v-701q0 -23 -16.5 -39.5t-39.5 -16.5h-784q-23 0 -39.5 16.5t-16.5 39.5v701
q0 17 9 30l56 84q17 25 47 25h672q30 0 46 -25zM840 56v672h-784v-672h784zM56 756h784l-56 84h-672zM728 196v-56h-588v532h588v-84h56v-168h-56v-56h56v-168h-56zM756 560h-56v-112h56v112zM700 168v28h-28v168h28v56h-28v168h28v56h-532v-476h532zM700 336v-112h56v112
h-56zM350 406q0 -34 25 -59t59 -25t59 25t25 59t-25 59t-59 25t-59 -25t-25 -59z" />
<glyph unicode="&#xe550;" horiz-adv-x="896" d="M267 462q47 0 47 30q0 25 -51 42q-89 30 -89 88q0 72 78 85v49h56v-45q33 -1 69 -16l-16 -55q-34 17 -69 17q-42 0 -42 -27q0 -12 13 -20.5t45 -20.5q44 -15 63.5 -36.5t19.5 -53.5q0 -34 -21.5 -58t-61.5 -31v-46h-56v42q-48 3 -80 21l15 56q38 -21 80 -21zM476 392v28
h280v-28h-280zM476 308v28h280v-28h-280zM476 224v28h280v-28h-280zM140 224v28h280v-28h-280zM476 140v28h280v-28h-280zM140 140v28h280v-28h-280zM880 668q16 -16 16 -41v-571q0 -23 -16.5 -39.5t-39.5 -16.5h-784q-23 0 -39.5 16.5t-16.5 39.5v784q0 23 16.5 39.5
t39.5 16.5h573q22 0 40 -16zM840 56v560h-224v224h-560v-784h784zM644 644h196l-196 196v-196z" />
<glyph unicode="&#xe551;" horiz-adv-x="896" d="M308 140v84h112v-84h-112zM308 280v84h112v-84h-112zM308 420v84h112v-84h-112zM168 140v84h84v-84h-84zM168 280v84h84v-84h-84zM168 420v84h84v-84h-84zM476 280v84h112v-84h-112zM644 420v84h84v-84h-84zM476 140v84h112v-84h-112zM756 896q64 0 102 -38t38 -102v-616
q0 -64 -38 -102t-102 -38h-616q-64 0 -102 38t-38 102v616q0 64 38 102t102 38h616zM840 140v616q0 84 -84 84h-616q-84 0 -84 -84v-616q0 -84 84 -84h616q84 0 84 84zM168 588v168h560v-168h-560zM644 140v224h84v-224h-84zM476 420v84h112v-84h-112z" />
<glyph unicode="&#xe570;" horiz-adv-x="896" d="M448 896q185 0 316.5 -131.5t131.5 -316.5t-131.5 -316.5t-316.5 -131.5t-316.5 131.5t-131.5 316.5t131.5 316.5t316.5 131.5zM476 839v-347l313 149q-47 85 -130 138t-183 60zM447 57q146 0 256 96l-283 284v404q-153 -11 -258.5 -123.5t-105.5 -267.5
q0 -163 114.5 -278t276.5 -115zM744 192q96 112 96 257q0 71 -25 138l-319 -147z" />
<glyph unicode="&#xe577;" horiz-adv-x="896" d="M840 280q23 0 39.5 -16.5t16.5 -39.5v-168q0 -23 -16.5 -39.5t-39.5 -16.5h-168q-23 0 -39.5 16.5t-16.5 39.5v168q0 23 16.5 39.5t39.5 16.5h56v112h-252v-112h56q23 0 39.5 -16.5t16.5 -39.5v-168q0 -23 -16.5 -39.5t-39.5 -16.5h-168q-23 0 -39.5 16.5t-16.5 39.5v168
q0 23 16.5 39.5t39.5 16.5h56v112h-252v-112h56q23 0 39.5 -16.5t16.5 -39.5v-168q0 -23 -16.5 -39.5t-39.5 -16.5h-168q-23 0 -39.5 16.5t-16.5 39.5v168q0 23 16.5 39.5t39.5 16.5h56v168h308v84h-168q-23 0 -39.5 16.5t-16.5 39.5v252q0 23 16.5 39.5t39.5 16.5h392
q23 0 39.5 -16.5t16.5 -39.5v-252q0 -23 -16.5 -39.5t-39.5 -16.5h-168v-84h308v-168h56zM252 840v-252h392v252h-392zM224 224h-168v-168h168v168zM532 224h-168v-168h168v168zM840 56v168h-168v-168h168z" />
<glyph unicode="&#xe581;" horiz-adv-x="896" d="M364 0h-308q-23 0 -39.5 16.5t-16.5 39.5v392q0 56 40 94q6 8 13 12q-25 33 -25 76q0 52 37 89t89 37t89 -37t37 -89q0 -42 -26 -76q9 -8 13 -12q8 8 13 10v31q0 57 42 99q8 8 12 11q-26 34 -26 77q0 52 37 89t89 37t89 -37t37 -89q0 -44 -27 -77q15 -12 27 -27
q8 10 14 16q8 8 12 11q-26 34 -26 77q0 52 37 89t89 37t89 -37t37 -89q0 -44 -27 -77q55 -44 55 -109v-32q22 -13 27 -39l28 -168q2 -14 -1 -23q2 -8 2 -14v-252q0 -23 -16.5 -39.5t-39.5 -16.5h-84q-23 0 -39.5 16.5t-16.5 39.5v140h-280v-140q0 -23 -16.5 -39.5
t-39.5 -16.5zM154 700q-29 0 -49.5 -20.5t-20.5 -49.5t20.5 -49.5t49.5 -20.5t49.5 20.5t20.5 49.5t-20.5 49.5t-49.5 20.5zM252 56v392q0 35 -28.5 59.5t-69.5 24.5t-69.5 -24.5t-28.5 -59.5v-392h196zM686 840q-29 0 -49.5 -20.5t-20.5 -49.5t20.5 -49.5t49.5 -20.5
t49.5 20.5t20.5 49.5t-20.5 49.5t-49.5 20.5zM686 672q-40 0 -69 -26.5t-29 -62.5v-51h196v52q0 36 -29 62t-69 26zM434 840q-29 0 -49.5 -20.5t-20.5 -49.5t20.5 -49.5t49.5 -20.5t49.5 20.5t20.5 49.5t-20.5 49.5t-49.5 20.5zM434 672q-40 0 -69 -26.5t-29 -62.5v-51h196
v52q0 36 -29 62t-69 26zM308 504l-28 -168h560l-28 168h-504zM840 56v252h-560v-252h84v196h392v-196h84z" />
<glyph unicode="&#xe5d8;" horiz-adv-x="896" d="M896 589v-8v-525q0 -23 -16.5 -39.5t-39.5 -16.5h-784q-23 0 -39.5 16.5t-16.5 39.5v532v7v0q1 2 1 5l56 252q4 19 19.5 31.5t35.5 12.5h672q20 0 35 -12.5t19 -31.5l56 -251q2 -6 2 -12zM56 588h784l-56 252h-672zM840 56v504h-784v-504h784zM693 784l31 -140h-552
l31 140h490zM207 672h481l-18 84h-444zM196 448h504v-280h-504v280zM672 196v112h-448v-112h448zM672 336v84h-448v-84h448zM182 476q0 17 -12.5 29.5t-29.5 12.5t-29.5 -12.5t-12.5 -29.5t12.5 -29.5t29.5 -12.5t29.5 12.5t12.5 29.5zM182 140q0 17 -12.5 29.5t-29.5 12.5
t-29.5 -12.5t-12.5 -29.5t12.5 -29.5t29.5 -12.5t29.5 12.5t12.5 29.5zM798 140q0 17 -12.5 29.5t-29.5 12.5t-29.5 -12.5t-12.5 -29.5t12.5 -29.5t29.5 -12.5t29.5 12.5t12.5 29.5zM798 476q0 17 -12.5 29.5t-29.5 12.5t-29.5 -12.5t-12.5 -29.5t12.5 -29.5t29.5 -12.5
t29.5 12.5t12.5 29.5z" />
<glyph unicode="&#xe601;" horiz-adv-x="896" d="M879 782q17 -17 17 -40v-686q0 -23 -16.5 -39.5t-39.5 -16.5h-756q-23 0 -39.5 16.5t-16.5 39.5v686q0 22 16 40l98 97q17 17 39 17q24 0 40 -16l98 -98l3 -3q2 2 2 3l98 98q18 16 40 16q20 0 36 -14l98 -84q7 -4 12 -13l94 94q17 17 39 17q24 0 40 -16zM280 56v686
l-99 98l-97 -98v-686h196zM560 56v700l-98 84l-98 -98v-182h-56v-84h56v-168h-56v-84h56v-168h196zM840 56v686l-99 98l-97 -98v-182h-56v-84h56v-168h-56v-84h56v-168h196z" />
<glyph unicode="&#xe603;" horiz-adv-x="896" d="M896 280v-224q0 -23 -16.5 -39.5t-39.5 -16.5q-52 0 -98 30q-46 -30 -98 -30t-98 30q-46 -30 -98 -30t-98 30q-46 -30 -98 -30t-98 30q-46 -30 -98 -30q-23 0 -39.5 16.5t-16.5 39.5v224q0 33 28 49v287q0 24 18 41l238 224q15 15 38 15h231q22 0 37 -12l257 -211
q21 -17 21 -43v-301q28 -16 28 -49zM569 840h-209l209 -196h243zM812 616h-224v-308h224v308zM84 616v-308h112v224q0 40 38 76t88 36t88 -36t38 -76v-224h112v308l-238 224zM840 56v70q-61 0 -98 51q-37 -51 -98 -51t-98 51q-37 -51 -98 -51t-98 51q-37 -51 -98 -51t-98 51
q-37 -51 -98 -51v-70q61 0 98 50q37 -50 98 -50t98 50q37 -50 98 -50t98 50q37 -50 98 -50t98 50q37 -50 98 -50zM840 224v56h-784v-56h784z" />
<glyph unicode="&#xe604;" horiz-adv-x="896" d="M714 896q75 0 128.5 -55t53.5 -134v-651q0 -23 -16.5 -39.5t-39.5 -16.5h-784q-23 0 -39.5 16.5t-16.5 39.5v392q0 20 13 36l168 196q17 20 43 20h252q27 0 42 -20l14 -15v42q0 79 53.5 134t128.5 55zM504 71v278l-139 -139zM489 364h-278l139 -139zM196 349v-278
l139 139zM211 56h278l-139 139zM644 56v392l-168 196h-252l-168 -196v-392h112v336h364v-336h112zM840 56v616h-252v-121l84 -96v-399h168zM840 700v7q0 55 -37 94t-89 39t-89 -39t-37 -94v-7h252z" />
<glyph unicode="&#xe671;" horiz-adv-x="896" d="M448 896q185 0 316.5 -131.5t131.5 -316.5t-131.5 -316.5t-316.5 -131.5t-316.5 131.5t-131.5 316.5t131.5 316.5t316.5 131.5zM448 56q162 0 277 114.5t115 277.5q0 162 -115 277t-277 115q-163 0 -277.5 -115t-114.5 -277q0 -163 114.5 -277.5t277.5 -114.5zM374 521
l270 123l-123 -270l-269 -122zM448 406q17 0 29.5 12.5t12.5 29.5t-12.5 29.5t-29.5 12.5t-29.5 -12.5t-12.5 -29.5t12.5 -29.5t29.5 -12.5zM448 784q140 0 238 -98t98 -238t-98 -238t-238 -98t-238 98t-98 238t98 238t238 98zM448 140q128 0 218 90t90 218t-90 218t-218 90
t-218 -90t-90 -218t90 -218t218 -90z" />
<glyph unicode="&#xe672;" horiz-adv-x="896" d="M879 446q17 -15 17 -39q0 -22 -16 -40l-98 -99q-18 -16 -40 -16h-210v-196q0 -23 -16.5 -39.5t-39.5 -16.5h-56q-23 0 -39.5 16.5t-16.5 39.5v196h-224q-23 0 -39.5 16.5t-16.5 39.5v196q0 31 27 48l-95 94q-16 16 -16 40t16 40l98 98q18 16 40 16h210q0 23 16.5 39.5
t39.5 16.5h56q23 0 39.5 -16.5t16.5 -39.5h196q23 0 39.5 -16.5t16.5 -39.5v-196q0 -20 -13 -36q4 -2 10 -8zM56 686l98 -98h266v-56h56v56h252v196h-252v56h-56v-56h-266zM742 308l98 99l-98 97h-602v-196h280v-252h56v252h266z" />
<glyph unicode="&#xe673;" horiz-adv-x="896" d="M863 779q33 -15 33 -51v-672q0 -30 -25 -47q-15 -9 -31 -9q-10 0 -23 5l-230 102l-258 -103q-9 -4 -21 -4q-14 0 -26 6l-252 129q-30 17 -30 50v655q0 30 25 47q15 9 31 9q10 0 23 -5l230 -102l258 103q9 4 21 4q10 0 23 -5zM560 829l-224 -90v-672l224 90v672zM56 185
l252 -129v672l-252 112v-655zM840 56v672l-252 112v-672z" />
<glyph unicode="&#xe6d0;" horiz-adv-x="896" d="M448 896q210 0 329 -90.5t119 -250.5q0 -51 -37.5 -120.5t-86.5 -130t-114.5 -127.5t-103 -101.5t-70.5 -62.5q-14 -13 -36 -13q-21 0 -37 13q-34 30 -70 62.5t-102.5 101t-115 128t-86 129.5t-37.5 121q0 160 118.5 250.5t329.5 90.5zM448 56q16 14 42.5 37.5t94 90
t119 126.5t94 129.5t42.5 115.5q0 97 -54 162.5t-140 94t-198 28.5q-174 0 -283 -71t-109 -214q0 -46 40.5 -114t98 -132.5t115 -123t98.5 -93.5zM448 714q52 0 89 -37t37 -89t-37 -89t-89 -37t-89 37t-37 89t37 89t89 37zM448 490q40 0 69 29t29 69t-29 69t-69 29t-69 -29
t-29 -69t29 -69t69 -29z" />
<glyph unicode="&#xe700;" horiz-adv-x="896" d="M847 326l1 -1q48 -59 48 -137q0 -73 -50.5 -130.5t-117.5 -57.5h-541q-77 0 -132 55.5t-55 132.5q0 48 24 91q16 28 49 28h133q-32 29 -61 62.5t-63.5 83t-56.5 110.5t-23 122q-2 16 -2 24q0 77 55 132t132 55h534q5 0 15 -2q69 -10 114.5 -62.5t45.5 -122.5
q0 -78 -56 -134q-16 -15 -40 -15h-66l-3 -6t-3 -5q-1 -2 -2 -6.5t2 -22.5t13 -40.5t36.5 -62.5t66.5 -87zM714 840h-436q68 -48 68 -131q0 -53 -31 -93h485q40 38 40 93q0 50 -38 88t-88 43zM56 188q0 -54 38 -92.5t93 -38.5q54 0 92 38.5t38 92.5q0 35 -17 64h-227
q-17 -40 -17 -64zM721 56q50 4 84.5 42.5t34.5 89.5q0 56 -35 102q-173 206 -125 287q1 1 2.5 5t2.5 6h-427l29 38q14 16 22 39q7 18 8 35v1v8q0 54 -38 92.5t-92 38.5q-55 0 -93 -38.5t-38 -92.5v-20q1 -54 21 -109t52 -100t59.5 -75.5t56.5 -56.5l34 -29q67 -47 67 -131
t-69 -132h444z" />
<glyph unicode="&#xe701;" horiz-adv-x="896" d="M847 326l1 -1q48 -59 48 -137q0 -73 -50.5 -130.5t-117.5 -57.5h-541q-77 0 -132 55.5t-55 132.5q0 48 24 91q16 28 49 28h133q-32 29 -61 62.5t-63.5 83t-56.5 110.5t-23 122q-2 16 -2 24q0 77 55 132t132 55h534q5 0 15 -2q69 -10 114.5 -62.5t45.5 -122.5
q0 -78 -56 -134q-16 -15 -40 -15h-66l-3 -6t-3 -5q-5 -10 2 -37q50 -24 80 -71.5t30 -104.5v-1q0 -1 2 -2.5t2 -2.5zM728 336l-126 98v-196zM714 840h-436q68 -48 68 -131q0 -53 -31 -93h485q40 38 40 93q0 50 -38 88t-88 43zM56 188q0 -54 38 -92.5t93 -38.5q54 0 92 38.5
t38 92.5q0 35 -17 64h-227q-17 -40 -17 -64zM721 56q50 4 84.5 42.5t34.5 89.5q0 35 -16 70q-23 -53 -71.5 -85.5t-108.5 -32.5q-81 0 -138.5 57.5t-57.5 138.5t57.5 138.5t138.5 57.5q8 0 26 -2q-2 28 10 47q1 1 2.5 5t2.5 6h-427l29 38q14 16 22 39q7 18 8 35v1v8
q0 54 -38 92.5t-92 38.5q-55 0 -93 -38.5t-38 -92.5v-20q1 -54 21 -109t52 -100t59.5 -75.5t56.5 -56.5l34 -29q67 -47 67 -131t-69 -132h444z" />
<glyph unicode="&#xe702;" horiz-adv-x="896" d="M847 326l1 -1q48 -59 48 -137q0 -73 -50.5 -130.5t-117.5 -57.5h-541q-77 0 -132 55.5t-55 132.5q0 48 24 91q16 28 49 28h133q-32 29 -61 62.5t-63.5 83t-56.5 110.5t-23 122q-2 16 -2 24q0 77 55 132t132 55h534q5 0 15 -2q69 -10 114.5 -62.5t45.5 -122.5
q0 -78 -56 -134q-16 -15 -40 -15h-66l-3 -6t-3 -5q-5 -10 2 -37q50 -24 80 -71.5t30 -104.5v-1q0 -1 2 -2.5t2 -2.5zM728 420h-168v-168h168v168zM714 840h-436q68 -48 68 -131q0 -53 -31 -93h485q40 38 40 93q0 50 -38 88t-88 43zM56 188q0 -54 38 -92.5t93 -38.5
q54 0 92 38.5t38 92.5q0 35 -17 64h-227q-17 -40 -17 -64zM721 56q50 4 84.5 42.5t34.5 89.5q0 35 -16 70q-23 -53 -71.5 -85.5t-108.5 -32.5q-81 0 -138.5 57.5t-57.5 138.5t57.5 138.5t138.5 57.5q8 0 26 -2q-2 28 10 47q1 1 2.5 5t2.5 6h-427l29 38q14 16 22 39
q7 18 8 35v1v8q0 54 -38 92.5t-92 38.5q-55 0 -93 -38.5t-38 -92.5v-20q1 -54 21 -109t52 -100t59.5 -75.5t56.5 -56.5l34 -29q67 -47 67 -131t-69 -132h444z" />
<glyph unicode="&#xe703;" horiz-adv-x="896" d="M847 326l1 -1q48 -59 48 -137q0 -73 -50.5 -130.5t-117.5 -57.5h-541q-77 0 -132 55.5t-55 132.5q0 48 24 91q16 28 49 28h133q-32 29 -61 62.5t-63.5 83t-56.5 110.5t-23 122q-2 16 -2 24q0 77 55 132t132 55h534q5 0 15 -2q69 -10 114.5 -62.5t45.5 -122.5
q0 -78 -56 -134q-16 -15 -40 -15h-66l-3 -6t-3 -5q-5 -10 2 -37q50 -24 80 -71.5t30 -104.5v-1q0 -1 2 -2.5t2 -2.5zM742 336q0 40 -29 69t-69 29t-69 -29t-29 -69t29 -69t69 -29t69 29t29 69zM714 840h-436q68 -48 68 -131q0 -53 -31 -93h485q40 38 40 93q0 50 -38 88
t-88 43zM300 252h-227q-17 -29 -17 -64q0 -54 38 -92.5t93 -38.5q54 0 92 38.5t38 92.5q0 35 -17 64zM721 56q50 4 84.5 42.5t34.5 89.5q0 35 -16 70q-23 -53 -71.5 -85.5t-108.5 -32.5q-81 0 -138.5 57.5t-57.5 138.5t57.5 138.5t138.5 57.5q8 0 26 -2q-2 28 10 47
q1 1 2.5 5t2.5 6h-427l29 38q14 16 22 39q7 18 8 35v1v8q0 54 -38 92.5t-92 38.5q-55 0 -93 -38.5t-38 -92.5v-20q1 -54 21 -109t52 -100t59.5 -75.5t56.5 -56.5l34 -29q67 -47 67 -131t-69 -132h444z" />
<glyph unicode="&#xe710;" horiz-adv-x="896" d="M840 504q23 0 39.5 -16.5t16.5 -39.5v-392q0 -23 -16.5 -39.5t-39.5 -16.5h-784q-23 0 -39.5 16.5t-16.5 39.5v784q0 23 16.5 39.5t39.5 16.5h392q23 0 39.5 -16.5t16.5 -39.5v-88q6 1 19 1q50 0 85.5 -35.5t35.5 -85.5q0 -47 -32.5 -81.5t-79.5 -38.5v-8h40
q34 0 57 -25.5t24 -58.5h1q1 33 24 58.5t57 25.5h105zM56 840v-364h119q-7 0 -7 31q0 39 27.5 65t66.5 26t66.5 -25.5t27.5 -64.5q0 -32 -7 -32h99v75q0 10 9.5 17.5t20.5 7.5l14 -2q13 -7 30 -7q27 0 46.5 19t19.5 46t-19 46t-46 19q-15 0 -28 -6q-12 -3 -17 -3
q-11 0 -20.5 7.5t-9.5 17.5v127h-392zM448 56v98q0 -8 -31 -8q-39 0 -64.5 27.5t-25.5 67.5q0 39 25.5 66.5t64.5 27.5q31 0 31 -8v121h-105q-25 0 -25 20q0 2 0.5 4t1.5 3v1q7 13 7 27q0 27 -19 46t-46 19t-46 -19.5t-19 -46.5q0 -16 6 -28q3 -2 3 -6q0 -20 -25 -20h-125
v-392h392zM840 56v392h-105q-10 0 -17.5 -10t-7.5 -21l2 -15q7 -16 7 -29q0 -28 -19 -47t-46 -19t-46.5 18.5t-19.5 45.5q0 13 7 29q3 13 3 17q0 11 -8 21t-18 10h-96v-126q0 -26 -20 -26q-2 0 -6 2l-3 1h2q-16 7 -28 7q-27 0 -46 -19t-19 -46q0 -28 19 -47t46 -19
q14 0 28 7q3 3 7 3q20 0 20 -26v-103h364z" />
<glyph unicode="&#xe714;" horiz-adv-x="896" d="M728 896q70 0 119 -49t49 -119v-672q0 -23 -16.5 -39.5t-39.5 -16.5h-784q-23 0 -39.5 16.5t-16.5 39.5v672q0 70 49 119t119 49h560zM840 56v532h-784v-532h784zM840 616v112q0 46 -33 79t-79 33h-560q-46 0 -79 -33t-33 -79v-112h784zM224 742q0 17 -12.5 29.5
t-29.5 12.5t-29.5 -12.5t-12.5 -29.5t12.5 -29.5t29.5 -12.5t29.5 12.5t12.5 29.5zM336 742q0 17 -12.5 29.5t-29.5 12.5t-29.5 -12.5t-12.5 -29.5t12.5 -29.5t29.5 -12.5t29.5 12.5t12.5 29.5zM448 742q0 17 -12.5 29.5t-29.5 12.5t-29.5 -12.5t-12.5 -29.5t12.5 -29.5
t29.5 -12.5t29.5 12.5t12.5 29.5z" />
<glyph unicode="&#xe7a0;" horiz-adv-x="896" d="M447 896q92 0 165.5 -5.5t119.5 -13t79.5 -20t49 -22t24.5 -23.5t10 -20.5t1 -16.5v-654q0 -10 -1 -16.5t-10 -20.5t-24.5 -23.5t-49 -22t-79 -20t-119 -13t-165.5 -5.5t-165.5 5.5t-119 13t-79 20t-49 22t-24.5 23.5t-10 20.5t-1 16.5v654q0 10 1 16.5t9.5 20.5
t24.5 23.5t49 22t78.5 20t119 13t165.5 5.5zM447 840q-162 0 -276.5 -19t-114.5 -46q0 -28 115 -48t277 -20q161 0 276 20t115 48q0 27 -115 46t-277 19zM840 121v157q-33 -15 -106 -28q-113 -19 -286 -19t-286 19q-71 13 -105 28v-157q0 -27 114.5 -46t276.5 -19t277 19
t115 46zM840 325v177q-40 -18 -106 -28q-113 -19 -286 -19t-286 19q-69 11 -105 28v-177q0 -28 114 -47t277 -19t277.5 19t114.5 47zM840 548v185q-30 -19 -111 -33q-123 -21 -281 -21q-161 0 -282 21q-75 12 -109 31v-183q0 -27 114.5 -46t276.5 -19t277 19t115 46z" />
<glyph unicode="&#xe7a2;" horiz-adv-x="896" d="M476 448h-112v112h-112v-112h-112v-112h112v-112h112v112h112v112zM896 775v-654q0 -10 -1 -16.5t-10 -20.5t-24.5 -23.5t-49 -22t-79 -20t-119 -13t-165.5 -5.5t-165.5 5.5t-119 13t-79 20t-49 22t-24.5 23.5t-10 20.5t-1 16.5v654q0 10 1 16.5t10 20.5t24.5 23.5t49 22
t79 20t119 13t165.5 5.5t165.5 -5.5t119 -13t79 -20t49 -22t24.5 -23.5t10 -20.5t1 -16.5zM448 840q-162 0 -277 -19t-115 -46q0 -28 114.5 -47t277.5 -19t277 19t114 47q0 27 -114.5 46t-276.5 19zM840 548v185q-30 -19 -111 -33q-117 -20 -281 -20q-167 0 -282 20
q-78 12 -110 31v-610q0 -27 115 -46t277 -19t277 19t115 46v157q-33 -15 -106 -28q-56 -9 -146 -16v29q112 8 182 24.5t70 37.5v177q-40 -18 -106 -28q-56 -9 -146 -16v29q113 8 182.5 24t69.5 37z" />
<glyph unicode="&#xe7a5;" horiz-adv-x="896" d="M448 896q92 0 165.5 -5.5t119 -13t79 -20t49 -22t24.5 -23.5t10 -20.5t1 -16.5v-654q0 -10 -1 -16.5t-10 -20.5t-24.5 -23.5t-49 -22t-79 -20t-119 -13t-165.5 -5.5t-165.5 5.5t-119 13t-79 20t-49 22t-24.5 23.5t-10 20.5t-1 16.5v654q0 10 1 16.5t10 20.5t24.5 23.5
t49 22t79 20t119 13t165.5 5.5zM448 840q-162 0 -277 -19t-115 -46q0 -28 114.5 -47t277.5 -19t277 19t114 47q0 27 -114.5 46t-276.5 19zM840 548v185q-30 -19 -111 -33q-117 -20 -281 -20q-167 0 -282 20q-78 12 -110 31v-610q0 -27 115 -46t277 -19t277 19t115 46v157
q-33 -15 -106 -28q-56 -9 -146 -16v29q112 8 182 24.5t70 37.5v177q-40 -18 -106 -28q-56 -9 -146 -16v29q113 8 182.5 24t69.5 37zM387 392l79 79l-79 79l-79 -79l-79 79l-79 -79l79 -79l-79 -79l79 -79l79 79l79 -79l79 79z" />
<glyph unicode="&#xe7b0;" horiz-adv-x="896" d="M840 896q23 0 39.5 -16.5t16.5 -39.5v-784q0 -23 -16.5 -39.5t-39.5 -16.5h-784q-23 0 -39.5 16.5t-16.5 39.5v784q0 23 16.5 39.5t39.5 16.5h784zM840 56v140h-784v-140h784zM840 224v616h-784v-616h784zM196 756h504v-112h-504v112zM672 672v56h-448v-56h448zM681 588
q44 -44 44 -105q0 -80 -81.5 -138t-195.5 -58t-195.5 58t-81.5 138q0 61 44 105h466zM448 315q102 0 175 50t73 119q0 32 -28 76h-440q-28 -44 -28 -76q0 -69 73 -119t175 -50zM140 784q0 11 -8.5 19.5t-19.5 8.5q-12 0 -20 -8.5t-8 -19.5q0 -12 8 -20t20 -8q11 0 19.5 8
t8.5 20zM812 784q0 11 -8.5 19.5t-19.5 8.5q-12 0 -20 -8.5t-8 -19.5q0 -12 8 -20t20 -8q11 0 19.5 8t8.5 20zM140 280q0 11 -8.5 19.5t-19.5 8.5q-12 0 -20 -8.5t-8 -19.5q0 -12 8 -20t20 -8q11 0 19.5 8t8.5 20zM812 280q0 11 -8.5 19.5t-19.5 8.5q-12 0 -20 -8.5
t-8 -19.5q0 -12 8 -20t20 -8q11 0 19.5 8t8.5 20z" />
<glyph unicode="&#xe7b6;" horiz-adv-x="896" d="M840 896q23 0 39.5 -16.5t16.5 -39.5v-784q0 -23 -16.5 -39.5t-39.5 -16.5h-784q-23 0 -39.5 16.5t-16.5 39.5v784q0 23 16.5 39.5t39.5 16.5h784zM316 673q-3 1 -2.5 23t0.5 25q-2 41 -27 60q-91 -75 -91 -193q0 -104 74 -178t178 -74t178 74t74 178t-74 178t-178 74
q-4 0 -12.5 -0.5t-12.5 -0.5q-2 -4 -8.5 -12t-9.5 -15t0 -12q4 -7 11 -7q6 0 20 8.5t16 9.5q20 5 26 5q17 0 17 -15q0 -7 -7 -21.5t-6 -23.5q1 -1 4 -1q6 0 16 7t15 7t9 -5q15 -13 -13 -44q-6 -6 -9.5 -11.5t-5 -9t-3.5 -10.5t-4 -12q-4 -13 -8 -13q-2 0 -3.5 4t-3.5 10
t-4 9q-8 9 -24 9q-12 0 -20 -5q-24 -10 -11 -41q11 -27 46 -27q5 0 15.5 0.5t16.5 0.5q20 0 32 -6q24 -14 28.5 -52.5t-15.5 -56.5q-3 -2 -11 -7.5t-14 -11.5t-10 -12q-2 -4 -3 -13t-3 -13q-21 -42 -31 -42q-3 0 -6 5l-12 10q-12 13 -17.5 55t-19.5 58q-4 4 -10.5 9.5
t-10 8.5t-6 9.5t-2.5 14.5t3.5 13.5t9.5 11t9 10.5q10 16 -12 32t-45 20h-4q-5 0 -11.5 -2.5t-8.5 -2.5q-5 0 -9 11zM840 56v140h-784v-140h784zM840 224v616h-271q72 -34 115.5 -102t43.5 -150q0 -116 -82 -198t-198 -82t-198 82t-82 198q0 82 43.5 150t115.5 102h-271
v-616h784zM784 308q11 0 19.5 -8.5t8.5 -19.5q0 -12 -8.5 -20t-19.5 -8q-12 0 -20 8t-8 20q0 11 8 19.5t20 8.5zM112 308q11 0 19.5 -8.5t8.5 -19.5q0 -12 -8.5 -20t-19.5 -8q-12 0 -20 8t-8 20q0 11 8 19.5t20 8.5zM784 812q11 0 19.5 -8.5t8.5 -19.5q0 -12 -8.5 -20
t-19.5 -8q-12 0 -20 8t-8 20q0 11 8 19.5t20 8.5zM112 812q11 0 19.5 -8.5t8.5 -19.5q0 -12 -8.5 -20t-19.5 -8q-12 0 -20 8t-8 20q0 11 8 19.5t20 8.5z" />
<glyph unicode="&#xe7b7;" horiz-adv-x="896" d="M840 896q23 0 39.5 -16.5t16.5 -39.5v-784q0 -23 -16.5 -39.5t-39.5 -16.5h-784q-23 0 -39.5 16.5t-16.5 39.5v784q0 23 16.5 39.5t39.5 16.5h784zM840 56v140h-784v-140h784zM840 224v616h-336v-168h112l-72 -84h137q44 -44 44 -105q0 -80 -81.5 -138t-195.5 -58
t-195.5 58t-81.5 138q0 61 44 105h137l-72 84h112v168h-336v-616h784zM448 476l-72 84h-148q-28 -44 -28 -76q0 -69 73 -119t175 -50t175 50t73 119q0 32 -28 76h-148zM84 784q0 -12 8 -20t20 -8q11 0 19.5 8t8.5 20q0 11 -8.5 19.5t-19.5 8.5q-12 0 -20 -8.5t-8 -19.5z
M756 784q0 -12 8 -20t20 -8q11 0 19.5 8t8.5 20q0 11 -8.5 19.5t-19.5 8.5q-12 0 -20 -8.5t-8 -19.5zM84 280q0 -12 8 -20t20 -8q11 0 19.5 8t8.5 20q0 11 -8.5 19.5t-19.5 8.5q-12 0 -20 -8.5t-8 -19.5zM756 280q0 -12 8 -20t20 -8q11 0 19.5 8t8.5 20q0 11 -8.5 19.5
t-19.5 8.5q-12 0 -20 -8.5t-8 -19.5z" />
<glyph unicode="&#xe800;" horiz-adv-x="896" d="M859 49q9 -8 9 -21q0 -12 -8 -20t-20 -8h-784q-19 0 -25 16q-9 16 3 29l392 504q7 11 21.5 11t22.5 -11zM113 56h670l-335 430zM685 364h99v420h-672v-420h99l22 28h-93v364h616v-364h-93zM840 896q23 0 39.5 -16.5t16.5 -39.5v-532q0 -23 -16.5 -39.5t-39.5 -16.5h-68
l-43 56h111v532h-784v-532h111l-43 -56h-68q-23 0 -39.5 16.5t-16.5 39.5v532q0 23 16.5 39.5t39.5 16.5h784z" />
<glyph unicode="&#xe802;" horiz-adv-x="896" d="M840 364q23 0 39.5 -16.5t16.5 -39.5v-252q0 -23 -16.5 -39.5t-39.5 -16.5h-784q-23 0 -39.5 16.5t-16.5 39.5v252q0 23 16.5 39.5t39.5 16.5h329q0 28 -28 28h-140q-42 0 -63 26.5t-21 57.5q0 12 5 25t14 25t18.5 22.5t21.5 20.5t20 16.5t17 12.5t10 7q368 272 428 287
q12 4 28 4q59 0 110 -57t76 -150q25 -91 9 -167q-19 -97 -92 -116q-11 -4 -28 -4q-101 0 -511 105q-3 0 -4 1h-38q-28 -4 -28 -32t28 -28h140q31 0 57.5 -21t26.5 -63h399zM682 838q-40 -10 -52.5 -73t8.5 -142q21 -78 63.5 -125.5t82.5 -37.5q39 10 51.5 73t-8.5 141
q-21 79 -63.5 127t-81.5 37zM610 798q-53 -34 -137.5 -93.5t-142.5 -102.5l-57 -42q268 -67 418 -92q-54 53 -80 148q-29 107 -1 182zM560 56v252h-504v-252h504zM840 56v252h-252v-252h252z" />
<glyph unicode="&#xe811;" horiz-adv-x="896" d="M392 723q23 0 39.5 -6.5t16.5 -16.5t-16.5 -16.5t-39.5 -6.5t-39.5 6.5t-16.5 16.5t16.5 16.5t39.5 6.5zM896 599q0 -92 -125 -147l1 -1v-2q12 -25 12 -51q0 -27 -11 -51q11 -25 11 -50q0 -26 -11 -51q11 -25 11 -50q0 -62 -58 -107.5t-145.5 -67t-188.5 -21.5
t-188.5 21.5t-145.5 67t-58 107.5q0 25 11 50q-11 25 -11 51q0 25 11 50q-11 24 -11 51q0 24 11 49q-11 25 -11 50q0 57 50 102q-50 45 -50 101q0 62 58 107.5t145.5 67t188.5 21.5q136 0 245.5 -40t138.5 -112h1q1 -1 2 -1q117 -55 117 -144zM392 840q-139 0 -237.5 -41
t-98.5 -99t98.5 -99t237.5 -41t237.5 41t98.5 99t-98.5 99t-237.5 41zM141 591q-85 -40 -85 -93q0 -58 98.5 -99t237.5 -41q114 0 203.5 29t119.5 74q-92 -30 -211 -30q-151 0 -254 45.5t-109 114.5zM392 56q139 0 237.5 41t98.5 99q0 14 -7 27q-43 -43 -130.5 -68.5
t-198.5 -25.5t-199 25.5t-131 68.5q-6 -13 -6 -27q0 -58 98.5 -99t237.5 -41zM392 157q140 0 238 41t98 99q0 14 -7 27q-43 -43 -130.5 -68.5t-198.5 -25.5t-199 25.5t-131 68.5q-6 -14 -6 -27q0 -58 98 -99t238 -41zM392 258q140 0 238 41t98 99q0 14 -7 27
q-43 -43 -130.5 -69t-198.5 -26t-199 26t-131 69q-6 -13 -6 -27q0 -58 98 -99t238 -41zM504 459q139 0 237.5 41t98.5 99q0 53 -85 93q-6 -69 -109 -114.5t-254 -45.5q-119 0 -211 30q29 -45 118.5 -74t204.5 -29z" />
<glyph unicode="&#xe820;" horiz-adv-x="896" d="M773 724q44 -34 83.5 -98.5t39.5 -121.5q0 -23 -16.5 -39.5t-39.5 -16.5h-87q-39 0 -53 37v-296q0 -79 -61 -134t-149 -55t-149 55t-61 134q0 77 61.5 131.5t148.5 54.5q2 0 7.5 -0.5t6.5 -0.5v466q0 23 16.5 39.5t39.5 16.5h95q22 0 37.5 -14t18.5 -36q4 -30 13 -59.5
t15 -36.5q4 -4 18 -14q6 -3 16 -12zM753 504h87q0 40 -32.5 94t-69.5 82q-5 4 -18.5 14.5t-19.5 16.5q-16 16 -28.5 54.5t-16.5 74.5h-95v-535q-25 14 -70 14q-64 0 -109 -38t-45 -92q0 -55 45 -94t109 -39t109 39t45 94v442q18 -7 36 -20q30 -23 51.5 -54.5t21.5 -52.5z
M28 784q-12 0 -20 8t-8 20q0 11 8 19.5t20 8.5h392q11 0 19.5 -8.5t8.5 -19.5q0 -12 -8.5 -20t-19.5 -8h-392zM28 672q-12 0 -20 8t-8 20q0 11 8 19.5t20 8.5h392q11 0 19.5 -8.5t8.5 -19.5q0 -12 -8.5 -20t-19.5 -8h-392zM28 560q-12 0 -20 8t-8 20q0 11 8 19.5t20 8.5h392
q11 0 19.5 -8.5t8.5 -19.5q0 -12 -8.5 -20t-19.5 -8h-392zM448 476q0 -12 -8.5 -20t-19.5 -8h-392q-12 0 -20 8t-8 20q0 11 8 19.5t20 8.5h392q11 0 19.5 -8.5t8.5 -19.5z" />
<glyph unicode="&#xe821;" horiz-adv-x="896" d="M880 589q16 -16 16 -29v-504q0 -23 -16.5 -39.5t-39.5 -16.5h-784q-23 0 -39.5 16.5t-16.5 39.5v476q0 21 13 35l252 308q16 21 42 21h1h252q22 0 40 -16l2 -3q16 19 42 19h112q23 0 39.5 -16.5t16.5 -39.5v-184zM588 56v476l-280 308l-252 -308v-476h532zM840 56v476
h-224v-476h224zM602 560h238l-84 84v196h-112v-84l-84 84h-210zM308 292v296h56q1 -5 1.5 -15.5t1 -15t2 -11.5t4 -11.5t6.5 -8.5q3 -3 11.5 -9t11.5 -8q28 -19 51 -57t23 -60h-56q-3 9 -8.5 21.5t-20.5 34t-27 21.5v-245q0 -39 -27.5 -58t-69.5 -19q-38 0 -65 23t-27 54
q0 32 27 54.5t64 22.5q24 0 42 -9z" />
<glyph unicode="&#xe822;" horiz-adv-x="896" d="M561 564q29 -23 53.5 -64t24.5 -80h-67q0 22 -13 48t-36 43q-19 16 -19 24v-229q0 -42 -37 -71.5t-88 -29.5q-50 0 -87 29.5t-37 71.5q0 41 34 70.5t83 29.5q48 0 48 -10v304h77q12 -82 34 -106q2 -2 8 -9t11.5 -12t10.5 -9zM448 896q185 0 316.5 -131.5t131.5 -316.5
q0 -186 -131.5 -317t-316.5 -131q-186 0 -317 131t-131 317q0 185 131 316.5t317 131.5zM448 56q162 0 277 115t115 277t-115 277t-277 115t-277 -115t-115 -277t115 -277t277 -115z" />
<glyph unicode="&#xe851;" horiz-adv-x="896" d="M392 588h392v-364h-392v364zM840 700q23 0 39.5 -16.5t16.5 -39.5v-588q0 -23 -16.5 -39.5t-39.5 -16.5h-504q-23 0 -39.5 16.5t-16.5 39.5v140h-224q-23 0 -39.5 16.5t-16.5 39.5v588q0 23 16.5 39.5t39.5 16.5h504q23 0 39.5 -16.5t16.5 -39.5v-140h224zM308 448h-196
v336h392v-112h56v168h-504v-588h252v196zM840 56v588h-504v-588h504z" />
<glyph unicode="&#xe856;" horiz-adv-x="896" d="M863 387q33 -33 33 -79.5t-33 -78.5q-33 -33 -79 -33t-79 33l-89 89v-262q0 -23 -16.5 -39.5t-39.5 -16.5h-504q-23 0 -39.5 16.5t-16.5 39.5v560q0 23 16.5 39.5t39.5 16.5h148q24 98 103.5 161t182.5 63q122 0 208 -86t86 -208q0 -59 -23 -113zM208 518h-68v-266h336
v56q-94 4 -167.5 62.5t-100.5 147.5zM56 56h504v260q-30 -7 -56 -8v-84h-392v322h89q-5 30 -5 56v14h-140v-560zM614 399l130 -131q16 -16 40 -16t40 16t16 40t-16 40l-131 130q35 57 35 124q0 98 -70 168t-168 70t-168 -70t-70 -168t70 -168t168 -70q67 0 124 35zM490 784
q75 0 128.5 -53.5t53.5 -128.5q0 -76 -53.5 -129t-128.5 -53q-76 0 -129 53t-53 129q0 75 53 128.5t129 53.5zM490 448q64 0 109 45t45 109t-45 109t-109 45t-109 -45t-45 -109t45 -109t109 -45z" />
<glyph unicode="&#xe8a0;" horiz-adv-x="896" d="M448 896q185 0 316.5 -131.5t131.5 -316.5t-131.5 -316.5t-316.5 -131.5t-316.5 131.5t-131.5 316.5t131.5 316.5t316.5 131.5zM448 56q162 0 277 114.5t115 277.5q0 162 -115 277t-277 115q-163 0 -277.5 -115t-114.5 -277q0 -163 114.5 -277.5t277.5 -114.5zM476 280
v336h140v-336h-140zM280 280v336h140v-336h-140z" />
<glyph unicode="&#xe8b0;" horiz-adv-x="896" d="M840 896q23 0 39.5 -16.5t16.5 -39.5v-784q0 -23 -16.5 -39.5t-39.5 -16.5h-784q-23 0 -39.5 16.5t-16.5 39.5v784q0 23 16.5 39.5t39.5 16.5h784zM840 56v784h-784v-784h784zM168 784h560v-308h-560v308zM700 504v252h-504v-252h504zM168 420h560v-308h-560v308z
M700 140v252h-504v-252h504zM84 756h56v-56h-56v56zM756 196h56v-56h-56v56zM756 308h56v-56h-56v56zM756 420h56v-56h-56v56zM756 532h56v-56h-56v56zM756 644h56v-56h-56v56zM756 756h56v-56h-56v56zM84 196h56v-56h-56v56zM84 308h56v-56h-56v56zM84 420h56v-56h-56v56z
M84 532h56v-56h-56v56zM84 644h56v-56h-56v56z" />
<glyph unicode="&#xe8b1;" horiz-adv-x="896" d="M336 616l252 -168l-252 -168v336zM168 784h560v-672h-560v672zM700 140v616h-504v-616h504zM840 896q23 0 39.5 -16.5t16.5 -39.5v-784q0 -23 -16.5 -39.5t-39.5 -16.5h-784q-23 0 -39.5 16.5t-16.5 39.5v784q0 23 16.5 39.5t39.5 16.5h784zM840 56v784h-784v-784h784z
M812 196h-56v-56h56v56zM812 308h-56v-56h56v56zM812 420h-56v-56h56v56zM812 532h-56v-56h56v56zM812 644h-56v-56h56v56zM812 756h-56v-56h56v56zM140 196h-56v-56h56v56zM140 308h-56v-56h56v56zM140 420h-56v-56h56v56zM140 532h-56v-56h56v56zM140 644h-56v-56h56v56z
M140 756h-56v-56h56v56z" />
<glyph unicode="&#xe8c0;" horiz-adv-x="896" d="M840 896q23 0 39.5 -16.5t16.5 -39.5v-560q0 -23 -16.5 -39.5t-39.5 -16.5v-168q0 -23 -16.5 -39.5t-39.5 -16.5h-140q-18 0 -33 10.5t-20 27.5l-15 46h-256l-15 -46q-13 -38 -53 -38h-140q-23 0 -39.5 16.5t-16.5 39.5v168q-23 0 -39.5 16.5t-16.5 39.5v560
q0 23 16.5 39.5t39.5 16.5h784zM784 56v196h-672v-196h140l28 84h336l28 -84h140zM840 280v560h-784v-560h784zM756 756v-392h-616v392h616z" />
<glyph unicode="&#xe8c1;" horiz-adv-x="896" d="M786 714l-35 -45q-8 -11 -22 -11q-10 0 -17 7q-9 7 -10.5 18.5t5.5 21.5l35 45q18 21 39 5q22 -19 5 -41zM890 850l-35 -45q-7 -11 -22 -11q-9 0 -17 6q-9 7 -10.5 19t5.5 21l35 45q8 9 19 10.5t20 -5.5q9 -8 10.5 -19.5t-5.5 -20.5zM682 579l-35 -45q-8 -11 -22 -11
q-9 0 -17 6q-21 18 -5 41l35 45q18 21 39 5q22 -19 5 -41zM504 644q23 0 39.5 -16.5t16.5 -39.5v-280q0 -23 -16.5 -39.5t-39.5 -16.5h-28v-28q0 -23 -16.5 -39.5t-39.5 -16.5h-364q-23 0 -39.5 16.5t-16.5 39.5v448q0 23 16.5 39.5t39.5 16.5h364q23 0 39.5 -16.5
t16.5 -39.5v-28h28zM420 224v448h-364v-448h364zM504 308v280h-56v-280h56zM682 317q17 -22 -5 -41q-7 -6 -17 -6q-13 0 -22 11l-35 45q-7 10 -5.5 21.5t10.5 18.5t20.5 6t18.5 -10zM885 6q-7 -6 -17 -6q-14 0 -22 11l-35 45q-7 9 -5.5 21t10.5 19q9 8 20.5 6.5t18.5 -11.5
l35 -45q7 -9 5.5 -20.5t-10.5 -19.5zM786 181q7 -9 5.5 -20.5t-10.5 -19.5q-7 -6 -17 -6q-13 0 -22 11l-35 45q-7 9 -5.5 21t10.5 19t20.5 6t18.5 -10zM140 539v-182q0 -14 -14 -14t-14 14v182q0 14 14 14t14 -14zM196 539v-182q0 -14 -14 -14t-14 14v182q0 14 14 14t14 -14
z" />
<glyph unicode="&#xe900;" horiz-adv-x="896" d="M560 252v-28h-224v28h224zM756 672v-532h-616v532h616zM728 168v140h-560v-140h560zM728 336v140h-560v-140h560zM728 504v140h-560v-140h560zM560 420v-28h-224v28h224zM560 588v-28h-224v28h224zM886 787q10 -13 10 -30v-701q0 -23 -16.5 -39.5t-39.5 -16.5h-784
q-23 0 -39.5 16.5t-16.5 39.5v701q0 17 9 30l56 84q17 25 47 25h672q30 0 46 -25zM840 56v672h-784v-672h784zM56 756h784l-56 84h-672z" />
<glyph unicode="&#xe901;" horiz-adv-x="896" d="M895 600q0 -2 0.5 -6t0.5 -6v-140q0 -33 -28 -49v-343q0 -23 -16.5 -39.5t-39.5 -16.5h-728q-23 0 -39.5 16.5t-16.5 39.5v343q-28 16 -28 49v140q0 8 1 12l55 247q3 21 19 35t37 14h672q20 0 35.5 -13.5t19.5 -33.5zM112 839l-56 -251h784l-56 251v1h-672v-1zM812 56
v364h-196v-84h-336v84h-196v-364h728zM840 448v112h-784v-112h784z" />
<glyph unicode="&#xe960;" horiz-adv-x="896" d="M742 896q69 0 111.5 -31t42.5 -81v-560q0 -18 -9 -30l-97 -166q-16 -28 -48 -28t-48 28l-50 84v-56q0 -23 -16.5 -39.5t-39.5 -16.5h-532q-23 0 -39.5 16.5t-16.5 39.5v784q0 23 16.5 39.5t39.5 16.5h532q31 0 48 -27q43 27 106 27zM308 56v56h-252v-56h252zM308 140v616
h-252v-616h252zM308 784v56h-252v-56h252zM588 56v56h-252v-56h252zM588 140v616h-252v-616h252zM588 784v56h-252v-56h252zM742 56l98 168h-196zM840 252v448h-196v-448h196zM840 728v56q0 26 -28 41t-70 15t-70 -15t-28 -41v-56h196zM252 644h-140v-28h140v28zM252 700
h-140v-28h140v28zM532 700h-140v-28h140v28zM532 644h-140v-28h140v28z" />
<glyph unicode="&#xe961;" horiz-adv-x="896" d="M856 810q18 -6 29 -20.5t11 -33.5v-602q0 -39 -39 -53l-308 -98q-9 -3 -17 -3q-17 0 -33 11q-23 15 -23 45v28h-112q-23 0 -39.5 16.5t-16.5 39.5v1q-3 0 -4 1q-128 12 -216 108.5t-88 225.5q0 127 86.5 212.5t221.5 94.5v1q0 23 16.5 39.5t39.5 16.5h140q0 28 23 45
q14 11 33 11q6 0 16 -2zM560 840v-28h93zM504 140v42q-19 -14 -42 -14h-98v-28h140zM462 504h-126v28h126q17 0 29.5 12.5t12.5 29.5t-12.5 29.5t-29.5 12.5h-210v28h84v84q-119 0 -199.5 -69t-80.5 -183q0 -110 74 -190t182 -89q3 -1 10 -1h140q17 0 29.5 12.5t12.5 29.5
t-12.5 29.5t-29.5 12.5h-126v28h126q17 0 29.5 12.5t12.5 29.5t-12.5 29.5t-29.5 12.5h-126v28h126q17 0 29.5 12.5t12.5 29.5t-12.5 29.5t-29.5 12.5zM521 610l207 116v58h-364v-140h98q39 0 59 -34zM840 154v602l-308 -172v-528z" />
<glyph unicode="&#xe970;" horiz-adv-x="896" d="M840 896q23 0 39.5 -16.5t16.5 -39.5v-784q0 -23 -16.5 -39.5t-39.5 -16.5h-784q-23 0 -39.5 16.5t-16.5 39.5v784q0 23 16.5 39.5t39.5 16.5h784zM168 56v784h-112v-784h112zM672 56v784h-196v-389l-70 86l-70 -86v389h-140v-784h476zM756 56v784h-56v-784h56zM840 56
v784h-56v-784h56z" />
<glyph unicode="&#xe971;" horiz-adv-x="896" d="M140 308v28h616v-28h-616zM140 224v28h616v-28h-616zM140 140v28h616v-28h-616zM140 476v28h616v-28h-616zM140 392v28h616v-28h-616zM840 812q23 0 39.5 -16.5t16.5 -39.5v-700q0 -23 -16.5 -39.5t-39.5 -16.5h-784q-23 0 -39.5 16.5t-16.5 39.5v700q0 23 16.5 39.5
t39.5 16.5h112v56q0 11 8 19.5t20 8.5q11 0 19.5 -8.5t8.5 -19.5v-56h112v56q0 11 8 19.5t20 8.5q11 0 19.5 -8.5t8.5 -19.5v-56h112v56q0 11 8 19.5t20 8.5q11 0 19.5 -8.5t8.5 -19.5v-56h112v56q0 11 8 19.5t20 8.5q11 0 19.5 -8.5t8.5 -19.5v-56h112zM840 56v700h-112
v-84q0 -12 -8.5 -20t-19.5 -8q-12 0 -20 8t-8 20v84h-112v-84q0 -12 -8.5 -20t-19.5 -8q-12 0 -20 8t-8 20v84h-112v-84q0 -12 -8.5 -20t-19.5 -8q-12 0 -20 8t-8 20v84h-112v-84q0 -12 -8.5 -20t-19.5 -8q-12 0 -20 8t-8 20v84h-112v-700h784z" />
<glyph unicode="&#xe972;" horiz-adv-x="896" d="M840 896q23 0 39.5 -16.5t16.5 -39.5v-784q0 -23 -16.5 -39.5t-39.5 -16.5h-784q-23 0 -39.5 16.5t-16.5 39.5v784q0 23 16.5 39.5t39.5 16.5h784zM840 56v784h-784v-784h784zM756 504v-28h-616v28h616zM756 252v-28h-616v28h616zM756 420v-28h-616v28h616zM756 168v-28
h-616v28h616zM756 336v-28h-616v28h616zM224 742q0 17 -12.5 29.5t-29.5 12.5t-29.5 -12.5t-12.5 -29.5t12.5 -29.5t29.5 -12.5t29.5 12.5t12.5 29.5zM392 742q0 17 -12.5 29.5t-29.5 12.5t-29.5 -12.5t-12.5 -29.5t12.5 -29.5t29.5 -12.5t29.5 12.5t12.5 29.5zM588 742
q0 17 -12.5 29.5t-29.5 12.5t-29.5 -12.5t-12.5 -29.5t12.5 -29.5t29.5 -12.5t29.5 12.5t12.5 29.5zM756 742q0 17 -12.5 29.5t-29.5 12.5t-29.5 -12.5t-12.5 -29.5t12.5 -29.5t29.5 -12.5t29.5 12.5t12.5 29.5z" />
<glyph unicode="&#xe973;" horiz-adv-x="896" d="M840 896q23 0 39.5 -16.5t16.5 -39.5v-784q0 -23 -16.5 -39.5t-39.5 -16.5h-784q-23 0 -39.5 16.5t-16.5 39.5v784q0 23 16.5 39.5t39.5 16.5h784zM840 56v784h-784v-784h784zM756 168v-28h-616v28h616zM756 252v-28h-616v28h616zM756 336v-28h-616v28h616zM756 420v-28
h-616v28h616zM756 672v-196h-280v196h280zM420 504v-28h-280v28h280zM420 588v-28h-280v28h280zM420 672v-28h-280v28h280zM490 770q0 17 -12.5 29.5t-29.5 12.5t-29.5 -12.5t-12.5 -29.5t12.5 -29.5t29.5 -12.5t29.5 12.5t12.5 29.5z" />
<glyph unicode="&#xe9a0;" horiz-adv-x="896" d="M896 668q0 -47 -36 -80q36 -33 36 -80v-120q0 -47 -36 -80q36 -33 36 -80v-120q0 -44 -32 -76t-76 -32h-120q-47 0 -80 36q-33 -36 -80 -36h-120q-47 0 -80 36q-33 -36 -80 -36h-120q-44 0 -76 32t-32 76v120q0 47 36 80q-36 33 -36 80v120q0 47 36 80q-36 33 -36 80v120
q0 44 32 76t76 32h120q47 0 80 -36q33 36 80 36h120q47 0 80 -36q33 36 80 36h120q44 0 76 -32t32 -76v-120zM280 108v120q0 22 -15 37t-37 15h-120q-22 0 -37 -15t-15 -37v-120q0 -22 15 -37t37 -15h120q22 0 37 15t15 37zM280 388v120q0 22 -15 37t-37 15h-120
q-22 0 -37 -15t-15 -37v-120q0 -22 15 -37t37 -15h120q22 0 37 15t15 37zM280 668v120q0 22 -15 37t-37 15h-120q-22 0 -37 -15t-15 -37v-120q0 -22 15 -37t37 -15h120q22 0 37 15t15 37zM560 108v120q0 22 -15 37t-37 15h-120q-22 0 -37 -15t-15 -37v-120q0 -22 15 -37
t37 -15h120q22 0 37 15t15 37zM560 388v120q0 22 -15 37t-37 15h-120q-22 0 -37 -15t-15 -37v-120q0 -22 15 -37t37 -15h120q22 0 37 15t15 37zM560 668v120q0 22 -15 37t-37 15h-120q-22 0 -37 -15t-15 -37v-120q0 -22 15 -37t37 -15h120q22 0 37 15t15 37zM840 108v120
q0 22 -15 37t-37 15h-120q-22 0 -37 -15t-15 -37v-120q0 -22 15 -37t37 -15h120q22 0 37 15t15 37zM840 388v120q0 22 -15 37t-37 15h-120q-22 0 -37 -15t-15 -37v-120q0 -22 15 -37t37 -15h120q22 0 37 15t15 37zM840 668v120q0 22 -15 37t-37 15h-120q-22 0 -37 -15
t-15 -37v-120q0 -22 15 -37t37 -15h120q22 0 37 15t15 37z" />
<glyph unicode="&#xe9a3;" horiz-adv-x="896" d="M840 896q23 0 39.5 -16.5t16.5 -39.5v-784q0 -23 -16.5 -39.5t-39.5 -16.5h-784q-23 0 -39.5 16.5t-16.5 39.5v784q0 23 16.5 39.5t39.5 16.5h784zM420 56v364h-364v-364h364zM420 476v364h-364v-364h364zM840 56v364h-364v-364h364zM840 476v364h-364v-364h364zM336 336
h-196v-196h196v196zM336 756h-196v-196h196v196zM756 756h-196v-196h196v196zM756 336h-196v-196h196v196z" />
<glyph unicode="&#xe9b0;" horiz-adv-x="896" d="M448 896q117 0 215.5 -18.5t165.5 -61t67 -102.5q0 -8 -1.5 -36t-1.5 -32q0 -22 -14 -38l-73 -88q34 -43 34 -99q0 -67 -47 -114l-68 -67q-45 -47 -114 -47q-25 0 -51 8v-89q0 -46 -33 -79t-79 -33t-79 33t-33 79v125l-316 372q-10 11 -15 47t-5 58q0 60 67 102.5
t165.5 61t215.5 18.5zM731 518l106 128q-48 -46 -155.5 -71t-234.5 -25q-126 0 -231.5 25t-153.5 71l330 -389v-145q0 -23 16.5 -39.5t39.5 -16.5t39.5 16.5t16.5 39.5v145l26 26l7 -4q30 -30 74 -30t74 30l68 68q31 30 31 73.5t-30 74.5zM448 588q162 0 277 37t115 89
t-115 89t-277 37q-163 0 -277.5 -37t-114.5 -89t114.5 -89t277.5 -37zM713 388q13 14 13 33t-13 33l-20 19l-121 -145l8 -8q13 -13 33 -13q19 0 32 13z" />
<glyph unicode="&#xea00;" horiz-adv-x="896" d="M893 143q7 -25 -1.5 -53.5t-24.5 -49.5q-29 -40 -74 -40h-688q-54 0 -85 44q-32 44 -14 100q73 251 78 257v393q0 43 27 72.5t68 29.5h541q40 0 66 -29t26 -73v-390q3 -3 23.5 -68.5t38.5 -129.5zM140 794v-402h616v402q0 20 -9.5 33t-26.5 13h-541q-18 0 -28.5 -13.5
t-10.5 -32.5zM793 56q21 0 36 27.5t10 44.5l-67 236h-128v-56h-392v56h-126l-67 -236q-9 -29 6 -50.5t40 -21.5h688zM196 448v336h504v-336h-504z" />
<glyph unicode="&#xea01;" horiz-adv-x="896" d="M168 756h560v-532h-560v532zM711 896q53 0 91 -38t38 -91v-638q0 -53 -38 -91t-91 -38h-526q-53 0 -91 38t-38 91v638q0 53 38 91t91 38h526zM784 129v638q0 30 -21.5 51.5t-51.5 21.5h-526q-30 0 -51.5 -21.5t-21.5 -51.5v-638q0 -30 21.5 -51.5t51.5 -21.5h526
q30 0 51.5 21.5t21.5 51.5zM490 140q0 17 -12.5 29.5t-29.5 12.5t-29.5 -12.5t-12.5 -29.5t12.5 -29.5t29.5 -12.5t29.5 12.5t12.5 29.5z" />
<glyph unicode="&#xea11;" horiz-adv-x="896" d="M880 659l-18 -18q27 -37 27 -83q0 -57 -38 -97l-423 -423q-38 -38 -96 -38t-96 38l-198 198q-38 38 -38 96t38 96l424 423q38 38 96 38q46 0 83 -27l18 18q18 16 40 16q21 0 39 -16l142 -142q16 -16 16 -39t-16 -40zM812 614l-29 28l57 57l-141 141l-57 -57l-28 29
q-21 21 -56 21q-36 0 -57 -21l-423 -424q-22 -22 -22 -56.5t22 -56.5l197 -197q22 -22 57 -22t56 22l424 423q21 22 21 56.5t-21 56.5zM772 574q5 -5 5 -16q0 -12 -5 -17l-424 -424q-5 -5 -16 -5q-10 0 -17 5l-198 198q-5 7 -5 17q0 11 5 16l424 424q5 5 17 5q11 0 16 -5z
M667 476l82 82l-191 191l-273 -273h382z" />
<glyph unicode="&#xea13;" horiz-adv-x="896" d="M880 659l-18 -18q27 -37 27 -83q0 -57 -38 -97l-423 -423q-38 -38 -96 -38t-96 38l-198 198q-38 38 -38 96t38 96l424 423q38 38 96 38q46 0 83 -27l18 18q18 16 40 16q21 0 39 -16l142 -142q16 -16 16 -39t-16 -40zM812 614l-28 28l56 57l-141 141l-57 -57l-28 29
q-21 21 -56 21q-36 0 -57 -21l-423 -424q-22 -22 -22 -56.5t22 -56.5l197 -197q22 -22 57 -22t56 22l424 423q21 22 21 56.5t-21 56.5zM770 574q5 -5 5 -16q0 -12 -5 -17l-422 -424q-5 -5 -16 -5q-10 0 -17 5l-196 198q-5 5 -5 17q0 13 5 16l422 424q5 5 17 5q11 0 16 -5z
M332 140l417 418l-191 191l-418 -417z" />
<glyph unicode="&#xea14;" horiz-adv-x="896" d="M880 659l-18 -18q27 -37 27 -83q0 -57 -38 -97l-423 -423q-38 -38 -96 -38t-96 38l-198 198q-38 38 -38 96t38 96l424 423q38 38 96 38q46 0 83 -27l18 18q18 16 40 16q21 0 39 -16l142 -142q16 -16 16 -39t-16 -40zM812 614l-29 28l57 57l-141 141l-57 -57l-28 29
q-21 21 -56 21q-36 0 -57 -21l-424 -424q-21 -22 -21 -56.5t21 -56.5l198 -197q22 -22 57 -22t56 22l424 423q21 22 21 56.5t-21 56.5zM574 772l198 -198q5 -5 5 -16q0 -12 -5 -17l-424 -424q-5 -5 -16 -5q-10 0 -17 5l-198 198q-5 7 -5 17q0 11 5 16l424 424q5 5 17 5
q11 0 16 -5zM556 392l-73 73l149 35l-84 86l-167 -75l48 -66l-189 -89z" />
<glyph unicode="&#xea20;" horiz-adv-x="896" d="M588 182q17 0 29.5 -12.5t12.5 -29.5t-12.5 -29.5t-29.5 -12.5t-29.5 12.5t-12.5 29.5t12.5 29.5t29.5 12.5zM767 896q53 0 91 -38t38 -91v-638q0 -53 -38 -91t-91 -38h-358q-53 0 -91 38t-38 91v11q0 -58 -41 -99t-99 -41t-99 41t-41 99v177q0 60 41 99q1 1 2 2.5t2 2.5
l10 182l-37 64q-9 16 -7 35l19 145q3 21 18.5 35t37.5 14h108q21 0 37 -14t18 -35l19 -145q2 -19 -7 -35l-36 -64l9 -182q46 -41 46 -104v450q0 53 38 91t91 38h358zM86 840l-19 -145l45 -79l-11 -196h77l-10 196l44 79l-18 145h-108zM224 140v177q0 50 -44 74v1h-80
q-10 -5 -20 -15q-24 -24 -24 -60v-177q0 -35 24.5 -59.5t59.5 -24.5q36 0 59 25q25 23 25 59zM840 129v638q0 30 -21.5 51.5t-51.5 21.5h-358q-30 0 -51.5 -21.5t-21.5 -51.5v-638q0 -30 21.5 -51.5t51.5 -21.5h358q30 0 51.5 21.5t21.5 51.5zM672 784h-168v-28h168v28z
M784 700h-392v-476h392v476z" />
<glyph unicode="&#xea21;" horiz-adv-x="896" d="M767 896q53 0 91 -38t38 -91v-638q0 -53 -38 -91t-91 -38h-358q-53 0 -91 38t-38 91v326l-2 -2v-10l-14 -389q-1 -22 -17 -38t-39 -16h-84q-23 0 -39 16t-17 38l-14 392v8q-27 34 -42 74.5t-10.5 92.5t38.5 96q5 7 9.5 17.5t8 27t-4.5 26.5q-1 1 -1 2q-11 16 -9 41t20 44
q11 11 23 15q12 6 27 6q27 0 45 -15q0 -1 2 -2l2 -1q75 -68 118 -140v29q0 53 38 91t91 38h358zM208 56l14 392h-112l14 -392h84zM222 476q32 29 43.5 64t5 68.5t-21.5 67.5t-36.5 62t-40.5 50t-32 34l-14 13q-7 5 -13 5t-9 -4q-4 -4 -5 -9t1 -7l1 -3q15 -31 12 -60.5
t-15 -50.5l-12 -22q-23 -30 -28.5 -64.5t5 -62.5t22.5 -48t25 -33h112zM840 129v638q0 30 -21.5 51.5t-51.5 21.5h-358q-30 0 -51.5 -21.5t-21.5 -51.5v-638q0 -30 21.5 -51.5t51.5 -21.5h358q30 0 51.5 21.5t21.5 51.5zM672 784h-168v-28h168v28zM784 700h-392v-476h392
v476zM630 140q0 17 -12.5 29.5t-29.5 12.5t-29.5 -12.5t-12.5 -29.5t12.5 -29.5t29.5 -12.5t29.5 12.5t12.5 29.5z" />
<glyph unicode="&#xea22;" horiz-adv-x="896" d="M672 784h-168v-28h168v28zM784 700h-392v-476h392v476zM630 140q0 17 -12.5 29.5t-29.5 12.5t-29.5 -12.5t-12.5 -29.5t12.5 -29.5t29.5 -12.5t29.5 12.5t12.5 29.5zM767 896q53 0 91 -38t38 -91v-638q0 -53 -38 -91t-91 -38h-358q-53 0 -91 38t-38 91v32l-78 -133
q-16 -28 -48 -28t-48 28l-98 168q-8 13 -8 56v532q0 50 42.5 81t111.5 31q108 0 142 -66q18 30 48 48t65 18h358zM154 56l98 168h-196zM252 252v448h-196v-448h196zM252 728v56q0 26 -28 41t-70 15t-70 -15t-28 -41v-56h196zM840 129v638q0 30 -21.5 51.5t-51.5 21.5h-358
q-30 0 -51.5 -21.5t-21.5 -51.5v-638q0 -30 21.5 -51.5t51.5 -21.5h358q30 0 51.5 21.5t21.5 51.5z" />
<glyph unicode="&#xea80;" horiz-adv-x="896" d="M840 896q23 0 39.5 -16.5t16.5 -39.5v-784q0 -23 -16.5 -39.5t-39.5 -16.5h-784q-23 0 -39.5 16.5t-16.5 39.5v784q0 23 16.5 39.5t39.5 16.5h784zM672 56v560h-616v-560h616zM672 644v196h-616v-196h616zM840 56v560h-140v-560h140zM840 644v196h-140v-196h140zM364 112
q-93 0 -158.5 65.5t-65.5 158.5t65.5 158.5t158.5 65.5t158.5 -65.5t65.5 -158.5t-65.5 -158.5t-158.5 -65.5zM179 359l-1 -2q0 -2 -0.5 -6l-1 -8t-1 -9t-0.5 -8q0 -74 55.5 -126.5t133.5 -52.5t133.5 52.5t55.5 126.5q0 3 -0.5 8t-1 9l-1 8t-0.5 6l-1 2q-36 5 -55 31
q-23 -31 -64 -31t-64 31q-23 -31 -64 -31q-40 0 -63 31q-23 -30 -60 -31zM140 742q0 -17 12.5 -29.5t29.5 -12.5t29.5 12.5t12.5 29.5t-12.5 29.5t-29.5 12.5t-29.5 -12.5t-12.5 -29.5zM252 742q0 -17 12.5 -29.5t29.5 -12.5t29.5 12.5t12.5 29.5t-12.5 29.5t-29.5 12.5
t-29.5 -12.5t-12.5 -29.5z" />
<glyph unicode="&#xea81;" horiz-adv-x="896" d="M364 203q-55 0 -94 39t-39 94t39 94t94 39q48 0 84 -30t46 -75h-102v-56h102q-10 -45 -46 -75t-84 -30zM364 112q-93 0 -158.5 65.5t-65.5 158.5t65.5 158.5t158.5 65.5t158.5 -65.5t65.5 -158.5t-65.5 -158.5t-158.5 -65.5zM364 525q-78 0 -133.5 -55.5t-55.5 -133.5
t55.5 -133.5t133.5 -55.5t133.5 55.5t55.5 133.5t-55.5 133.5t-133.5 55.5zM840 896q23 0 39.5 -16.5t16.5 -39.5v-784q0 -23 -16.5 -39.5t-39.5 -16.5h-784q-23 0 -39.5 16.5t-16.5 39.5v784q0 23 16.5 39.5t39.5 16.5h784zM672 56v560h-616v-560h616zM672 644v196h-616
v-196h616zM840 56v560h-140v-560h140zM840 644v196h-140v-196h140zM140 742q0 -17 12.5 -29.5t29.5 -12.5t29.5 12.5t12.5 29.5t-12.5 29.5t-29.5 12.5t-29.5 -12.5t-12.5 -29.5zM252 742q0 -17 12.5 -29.5t29.5 -12.5t29.5 12.5t12.5 29.5t-12.5 29.5t-29.5 12.5
t-29.5 -12.5t-12.5 -29.5z" />
<glyph unicode="&#xea82;" horiz-adv-x="896" d="M840 896q23 0 39.5 -16.5t16.5 -39.5v-140q0 -33 -28 -49v-595q0 -23 -16.5 -39.5t-39.5 -16.5h-728q-23 0 -39.5 16.5t-16.5 39.5v595q-28 16 -28 49v140q0 23 16.5 39.5t39.5 16.5h784zM700 56v504h-504v-504h110q-54 52 -54 126q0 81 63 135q29 26 41 42.5t11 27
t-5 23.5q-13 35 15 60q15 15 38 15q10 0 23 -5q75 -37 127 -95q23 -26 33 -43q46 -70 46 -160q0 -76 -55 -126h111zM415 429q16 -34 4 -69.5t-67 -84.5q-44 -36 -44 -93q0 -46 34 -81t84 -42q-21 37 -21 74q0 67 56 116q50 44 56 71l6 28q-22 24 -49 44.5t-43 28.5zM551 312
q-9 -38 -67 -89q-44 -39 -44 -90q0 -42 30 -74q51 7 84.5 41.5t33.5 81.5q0 74 -37 130zM812 56v616h-728v-616h84v504q0 11 8 19.5t20 8.5h504q11 0 19.5 -8.5t8.5 -19.5v-504h84zM840 700v140h-784v-140h784z" />
<glyph unicode="&#xea84;" horiz-adv-x="896" d="M840 896q23 0 39.5 -16.5t16.5 -39.5v-672q0 -23 -16.5 -39.5t-39.5 -16.5h-213q-30 -50 -107.5 -80t-182.5 -32h-1h-28h-2q-122 3 -214 48t-92 123v554q0 79 95 125t222 46h523zM317 840q-108 0 -184.5 -34t-76.5 -81q0 -48 76.5 -82t184.5 -34q109 0 185.5 34t76.5 82
q0 47 -77 81t-185 34zM588 171v489q-92 -77 -252 -80v-20h-28v20q-160 4 -252 80v-489q0 -46 73.5 -79t178.5 -36v28h28v-28q105 2 178.5 35.5t73.5 79.5zM840 168v672h-344q54 -20 87 -50t33 -65v-557h224zM336 168h-28v-56h28v56zM336 252h-28v-56h28v56zM336 364h-28v-84
h28v84zM336 448h-28v-56h28v56zM336 532h-28v-56h28v56zM396 728q0 14 -21.5 23.5t-52.5 9.5t-52.5 -9.5t-21.5 -23.5t21.5 -23.5t52.5 -9.5t52.5 9.5t21.5 23.5z" />
<glyph unicode="&#xea85;" horiz-adv-x="896" d="M856 735q28 -16 37 -48t-7 -60l-16 -29q-12 -22 -33 -32q8 -30 -7 -57l-16 -29q-19 -35 -59 -40q0 -23 -10 -40l-16 -30q-22 -40 -70 -40q-2 0 -6.5 0.5t-7.5 0.5q-11 -21 -32.5 -34t-46.5 -13q-17 0 -35 8l-8 2l11 -12q16 -16 16 -39t-16 -40l-130 -131q-18 -16 -40 -16
h-115q-56 -56 -109 -56q-58 0 -99 41t-41 99q0 53 56 109v115q0 22 16 40l131 130q17 17 40 17q24 0 39 -17l2 -2q-1 4 -5 14q-22 47 -5 79q0 1 1 1l16 29q19 35 59 40q0 22 10 41l16 29q22 40 70 40q7 0 11 -1q1 10 8 22l16 29q10 19 29 30t41 11q19 0 39 -10zM364 112
l131 131l-252 252l-131 -131v-140q-56 -46 -56 -84q0 -34 25 -59t59 -25q17 0 38 14t34 28l12 14h140zM598 361q5 13 0 26.5t-18 19.5q-21 11 -61 14h-2q-12 0 -30.5 -7t-50.5 -22.5t-34 -16.5l55 -54q5 0 28.5 15t28.5 15q12 0 29 -5q1 0 4 -0.5t4 -1.5l1 -1q7 -3 14 -3
q22 0 32 21zM696 427q5 8 1.5 18.5t-13.5 15.5l-308 175q-10 4 -15 4q-15 0 -21 -12l-16 -29q-4 -8 8 -34.5t12 -48.5q-1 -4 -16 -26t-16 -25l56 -56q2 5 16 34t21 48.5t7 29.5l232 -131q7 -4 15 -4q15 0 21 11zM781 536q5 8 1.5 18.5t-13.5 16.5l-308 174q-7 4 -15 4
q-15 0 -21 -12l-16 -29q-5 -8 -1.5 -18.5t13.5 -15.5l308 -175q10 -4 15 -4q15 0 21 12zM837 654q10 21 -9 33l-266 150q-4 3 -11 3q-15 0 -21 -12l-16 -29q-5 -9 -2.5 -19t11.5 -14l265 -150q6 -3 12 -3q14 0 21 12z" />
<glyph unicode="&#xea86;" horiz-adv-x="896" d="M755 563l102 -101q17 -16 17 -39t-17 -40l-367 -367q-16 -16 -39 -16q-22 0 -40 16l-395 395q-16 18 -16 40q0 23 16 39l367 367q16 16 39 16q24 0 40 -16l101 -102l102 102q39 39 96 39t96 -39q41 -41 39 -99q-2 -56 -39 -93zM311 705l-255 -254l47 -48l255 255z
M638 378l-50 50l-255 -255l50 -50zM313 193l255 255l-50 50l-255 -255zM243 263l255 255l-50 50l-255 -255zM173 333l255 255l-50 50l-255 -255zM451 56l254 255l-47 47l-255 -255zM725 331l92 91l-141 141l141 141q22 23 23 55.5t-23 57.5q-23 23 -56 23q-34 0 -57 -23
l-141 -141l-141 141l-91 -92z" />
<glyph unicode="&#xea87;" horiz-adv-x="896" d="M895 156q5 -46 -24 -83t-76 -42l-283 -30q-4 -1 -12 -1q-37 0 -66.5 21.5t-40.5 55.5q-1 0 -3.5 -0.5t-3.5 -0.5q-8 0 -26 4l-274 65q-46 9 -69 50q-25 39 -14 85l65 274q9 38 39.5 62t69.5 24q14 0 26 -3l160 -38l138 281q8 18 27 16q20 -2 25 -20l106 -346l81 9
q4 1 12 1q44 0 76 -29t36 -72zM520 792l-101 -206l58 -14q47 -12 71 -54l55 6zM386 132q13 0 25 7l-27 248q-3 37 19 62q21 27 57 32l42 4q-10 26 -38 32l-274 65q-8 2 -13 2q-19 0 -34.5 -12t-19.5 -31l-66 -274q-5 -23 7.5 -43t34.5 -25l274 -65q8 -2 13 -2zM789 87
q23 3 38 21.5t13 41.5l-31 283q-3 22 -19 36.5t-38 14.5h-6l-283 -31q-23 -3 -38 -21.5t-13 -41.5l31 -283v-1q3 -22 19 -36t38 -14zM572 152q0 17 -12.5 29.5t-29.5 12.5q-18 0 -30 -12.5t-12 -29.5q0 -18 12 -30t30 -12q17 0 29.5 12t12.5 30zM765 383q0 17 -12.5 29.5
t-29.5 12.5t-29.5 -12.5t-12.5 -29.5q0 -18 12.5 -30t29.5 -12t29.5 12t12.5 30zM674 268q0 18 -12.5 30t-29.5 12t-29.5 -12t-12.5 -30q0 -17 12.5 -29.5t29.5 -12.5t29.5 12.5t12.5 29.5zM315 359q0 17 -12.5 29.5t-29.5 12.5t-29.5 -12.5t-12.5 -29.5t12.5 -29.5
t29.5 -12.5t29.5 12.5t12.5 29.5z" />
<glyph unicode="&#xea90;" horiz-adv-x="896" d="M112 644h672v-532h-672v532zM756 140v476h-616v-476h616zM448 799l89 -99h-179zM840 756q23 0 39.5 -16.5t16.5 -39.5v-644q0 -23 -16.5 -39.5t-39.5 -16.5h-784q-23 0 -39.5 16.5t-16.5 39.5v644q0 23 16.5 39.5t39.5 16.5h237l114 122q16 18 41 18t41 -18l114 -122h237
zM840 56v644h-261l-131 140l-131 -140h-261v-644h784z" />
<glyph unicode="&#xea91;" horiz-adv-x="896" d="M840 756q23 0 39.5 -16.5t16.5 -39.5v-644q0 -23 -16.5 -39.5t-39.5 -16.5h-784q-23 0 -39.5 16.5t-16.5 39.5v644q0 23 16.5 39.5t39.5 16.5h237l114 122q16 18 41 18t41 -18l114 -122h237zM840 56v644h-261l-131 140l-131 -140h-261v-644h784zM537 700l-89 99l-90 -99
h179zM112 644h672v-532h-672v532zM756 140v476h-616v-476h616zM532 346l84 86l-116 17l-52 111l-52 -111l-116 -17l84 -86l-20 -122l104 57l104 -57z" />
<glyph unicode="&#xea92;" horiz-adv-x="896" d="M840 756q23 0 39.5 -16.5t16.5 -39.5v-644q0 -23 -16.5 -39.5t-39.5 -16.5h-784q-23 0 -39.5 16.5t-16.5 39.5v644q0 23 16.5 39.5t39.5 16.5h237l114 122q16 18 41 18t41 -18l114 -122h237zM840 56v644h-261l-131 140l-131 -140h-261v-644h784zM537 700l-89 99l-90 -99
h179zM112 644h672v-532h-672v532zM756 140v476h-616v-476h84l110 112h-78l111 112h-63l144 142l144 -142h-63l111 -112h-78l110 -112h84z" />
<glyph unicode="&#xea93;" horiz-adv-x="896" d="M840 756q23 0 39.5 -16.5t16.5 -39.5v-644q0 -23 -16.5 -39.5t-39.5 -16.5h-784q-23 0 -39.5 16.5t-16.5 39.5v644q0 23 16.5 39.5t39.5 16.5h237l114 122q16 18 41 18t41 -18l114 -122h237zM840 56v644h-261l-131 140l-131 -140h-261v-644h784zM537 700l-89 99l-90 -99
h179zM112 644h672v-532h-672v532zM756 140v476h-616v-476h616zM616 378q0 -28 -62 -44q31 -55 13 -75q-7 -6 -19 -6q-21 0 -56 19q-18 -62 -44 -62q-28 0 -44 62q-35 -19 -56 -19q-12 0 -19 6q-18 20 13 75q-62 16 -62 44q0 26 62 44q-31 55 -13 75q7 6 19 6q21 0 56 -19
q16 62 44 62q26 0 44 -62q35 19 56 19q12 0 19 -6q18 -20 -13 -75q62 -18 62 -44zM448 322q23 0 39.5 16.5t16.5 39.5t-16.5 39.5t-39.5 16.5t-39.5 -16.5t-16.5 -39.5t16.5 -39.5t39.5 -16.5z" />
<glyph unicode="&#xea94;" horiz-adv-x="896" d="M840 756q23 0 39.5 -16.5t16.5 -39.5v-644q0 -23 -16.5 -39.5t-39.5 -16.5h-784q-23 0 -39.5 16.5t-16.5 39.5v644q0 23 16.5 39.5t39.5 16.5h237l114 122q16 18 41 18t41 -18l114 -122h237zM840 56v644h-261l-131 140l-131 -140h-261v-644h784zM537 700l-89 99l-90 -99
h179zM112 644h672v-532h-672v532zM756 140v476h-616v-476h616zM559 446q0 43 -29.5 64.5t-80.5 21.5q-65 0 -112 -49l38 -45q33 36 74 36q51 0 51 -30q0 -11 -5.5 -17t-22.5 -14q-60 -27 -60 -86h58q3 29 46 50q43 20 43 69zM476 259q0 14 -10.5 24.5t-24.5 10.5
t-24.5 -10.5t-10.5 -24.5t10.5 -24.5t24.5 -10.5t24.5 10.5t10.5 24.5z" />
<glyph unicode="&#xea95;" horiz-adv-x="896" d="M448 799l89 -99h-179zM840 756q23 0 39.5 -16.5t16.5 -39.5v-644q0 -23 -16.5 -39.5t-39.5 -16.5h-784q-23 0 -39.5 16.5t-16.5 39.5v644q0 23 16.5 39.5t39.5 16.5h237l114 122q16 18 41 18t41 -18l114 -122h237zM840 56v644h-261l-131 140l-131 -140h-261v-644h784z
M112 644h672v-532h-672v532zM756 140v476h-616v-476h84v171q-28 9 -28 39v140q0 14 14 14t14 -14v-98h28v98q0 14 14 14t14 -14v-98h28v98q0 14 14 14t14 -14v-140q0 -30 -28 -39v-171h140v56h-56v252q0 23 16.5 39.5t39.5 16.5t39.5 -16.5t16.5 -39.5v-308h112v140h-14
q-42 37 -42 103q0 50 24.5 85.5t59.5 35.5t59.5 -35.5t24.5 -85.5q0 -66 -42 -103h-14v-140h84z" />
<glyph unicode="&#xeaa0;" horiz-adv-x="896" d="M501 706q16 0 27.5 -12t11.5 -28q0 -10 -5 -18q-29 14 -74 17v1q0 16 11.5 28t28.5 12zM388 706q16 0 27.5 -11.5t11.5 -28.5v-1q-45 -5 -72 -20q-6 9 -6 21q0 17 11.5 28.5t27.5 11.5zM854 319q47 -47 41.5 -119t-60.5 -127q-59 -61 -139 -61q-55 0 -97 34
q-72 -46 -151 -46q-78 0 -152 46q-40 -34 -96 -34q-79 0 -140 61q-54 55 -59.5 127t41.5 119q18 16 36 26q-31 23 -46 59q-22 54 0 110q17 40 53.5 64t79.5 24q28 0 52 -10q0 3 -1 5q-29 11 -49 31q-43 43 -40 107t50 111q48 50 117 50q60 0 101 -41q4 -4 5 -6q27 5 48 5
t48 -5q1 2 5 6q41 41 101 41q69 0 117 -50q47 -47 50 -111t-40 -107q-20 -20 -50 -31v-5q24 10 52 10q43 0 79.5 -24t53.5 -64q22 -56 0 -110q-15 -36 -46 -59q18 -10 36 -26zM207 668q24 -24 61 -24h5q-2 -16 -2 -23q0 -69 47 -119.5t116 -56.5v96q-5 2 -19 6.5t-22.5 7.5
t-8.5 5q0 12 22 24.5t42 12.5t42 -12.5t22 -24.5q0 -2 -8.5 -5t-22.5 -7.5t-19 -6.5v-96q69 6 116 56.5t47 119.5q0 7 -2 23h5q37 0 61 24q27 27 24.5 67.5t-33.5 70.5q-33 34 -78 34q-37 0 -61 -24q-14 -14 -20 -34q-35 16 -73 16t-73 -16q-6 18 -20 34q-24 24 -61 24
q-45 0 -78 -34q-31 -30 -33.5 -70.5t24.5 -67.5zM267 94q30 31 24.5 80t-43.5 87q-44 44 -100 44q-40 0 -66 -26q-31 -31 -25.5 -79.5t43.5 -86.5q44 -45 100 -45q39 0 67 26zM587 105q-20 39 -9 88.5t49 87.5q31 31 72 45q0 8 -2 24l68 28q33 14 47 47q14 34 0 67
q-23 54 -81 54q-18 0 -33 -7l-80 -33q-28 -41 -73 -65.5t-97 -24.5t-97.5 24.5t-73.5 65.5l-79 33q-15 7 -33 7q-58 0 -81 -54q-14 -33 0 -67q14 -33 47 -47l68 -28q-2 -16 -2 -24q41 -14 72 -45q38 -38 48.5 -87.5t-8.5 -88.5q66 -49 139 -49t139 49zM796 113
q38 38 43.5 86.5t-25.5 79.5q-26 26 -66 26q-56 0 -100 -44q-38 -38 -44 -87t25 -80q28 -26 67 -26q56 0 100 45z" />
<glyph unicode="&#xeaa1;" horiz-adv-x="896" d="M840 504q23 0 39.5 -16.5t16.5 -39.5v-392q0 -23 -16.5 -39.5t-39.5 -16.5h-784q-23 0 -39.5 16.5t-16.5 39.5v392q0 23 16.5 39.5t39.5 16.5h140v336q0 23 16.5 39.5t39.5 16.5h392q23 0 39.5 -16.5t16.5 -39.5v-336h140zM252 840v-364h392v364h-392zM420 56v392h-364
v-392h364zM840 56v392h-392v-392h392zM473 756l74 -196h-61l-11 28h-62l-11 -28h-60l74 196h57zM427 644h34l-17 59zM305 263q29 -12 29 -51q0 -33 -19.5 -52.5t-56.5 -19.5h-90v224h91q71 0 71 -58q0 -29 -25 -43zM224 308v-28h33q18 0 18 14t-18 14h-33zM259 196
q20 0 20 14t-20 14h-35v-28h35zM741 204l-48 25q-17 -29 -36 -29q-35 0 -35 56t34 56q22 0 33 -31l51 20q-11 31 -29.5 45.5t-54.5 14.5q-41 0 -67 -28.5t-26 -76.5q0 -46 24.5 -75.5t68.5 -29.5q58 0 85 53z" />
<glyph unicode="&#xeaa2;" horiz-adv-x="896" d="M574 896q133 0 227.5 -94.5t94.5 -227.5t-94.5 -227.5t-227.5 -94.5q-79 0 -148 36l-66 -67q4 -26 4 -39q0 -75 -53.5 -128.5t-128.5 -53.5t-128.5 53.5t-53.5 128.5t53.5 128.5t128.5 53.5q13 0 39 -4l67 66q-36 69 -36 148q0 133 94.5 227.5t227.5 94.5zM840 574
q0 110 -78 188t-188 78q-12 0 -34 -2l298 -298q2 22 2 34zM424 794l370 -370q24 36 37 83l-324 324q-47 -13 -83 -37zM363 736q-27 -37 -39 -72l340 -340q35 12 72 39zM418 359q70 -51 156 -51q32 0 60 7l-319 319q-7 -28 -7 -60q0 -86 51 -156l-123 -123q-26 13 -54 13
q-52 0 -89 -37t-37 -89t37 -89t89 -37t89 37t37 89q0 28 -13 54zM182 252q29 0 49.5 -20.5t20.5 -49.5t-20.5 -49.5t-49.5 -20.5t-49.5 20.5t-20.5 49.5t20.5 49.5t49.5 20.5zM182 140q17 0 29.5 12.5t12.5 29.5t-12.5 29.5t-29.5 12.5t-29.5 -12.5t-12.5 -29.5t12.5 -29.5
t29.5 -12.5z" />
<glyph unicode="&#xeaa3;" horiz-adv-x="896" d="M840 896q23 0 39.5 -16.5t16.5 -39.5v-500q0 -23 -16.5 -39.5t-39.5 -16.5q-29 0 -82 -75.5t-92 -173.5q-6 -16 -20.5 -25.5t-31.5 -9.5h-331q-17 0 -31.5 9.5t-20.5 25.5q-40 98 -93 173.5t-82 75.5q-23 0 -39.5 16.5t-16.5 39.5v500q0 23 16.5 39.5t39.5 16.5h784z
M56 616v-140h140v140h-140zM840 476v140h-140v-140h140zM840 644v196h-84v-112h-28v112h-56v-112h-28v112h-56v-112h-28v112h-56v-112h-28v112h-56v-112h-28v112h-56v-112h-28v112h-56v-112h-28v112h-56v-112h-28v112h-84v-196h168v-196h-168v-108q31 0 66 -29.5t62.5 -71
t50.5 -83t35 -70.5l13 -30h331q5 12 13 31t34 68t51.5 86.5t61 68t66.5 30.5v108h-168v196h168z" />
<glyph unicode="&#xeaa4;" horiz-adv-x="896" d="M812 436q37 -16 60.5 -51t23.5 -77v-252q0 -23 -16.5 -39.5t-39.5 -16.5h-280q-26 0 -42 19q-16 -19 -42 -19h-336q-21 0 -37 14t-19 35l-54 405q-30 15 -30 50v140q0 23 16.5 39.5t39.5 16.5h56q0 81 57.5 138.5t138.5 57.5t138.5 -57.5t57.5 -138.5h6q-6 20 -6 42
q0 64 45 109t109 45h84q64 0 109 -45t45 -109q0 -44 -23 -80.5t-61 -56.5v-169zM476 56l56 420h-448l56 -420h336zM56 504h504v140h-112v56q0 58 -41 99t-99 41t-99 -41t-41 -99v-56h-112v-140zM840 56v252q0 34 -25 59t-59 25v253q36 5 60 33t24 64q0 40 -29 69t-69 29h-84
q-40 0 -69 -29t-29 -69q0 -36 24 -64t60 -33v-253q-34 0 -59 -25t-25 -59v-252h280zM784 742q0 17 -12.5 29.5t-29.5 12.5h-84q-17 0 -29.5 -12.5t-12.5 -29.5t12.5 -29.5t29.5 -12.5h84q17 0 29.5 12.5t12.5 29.5zM392 700q0 34 -25 59t-59 25t-59 -25t-25 -59v-56h168v56z
" />
<glyph unicode="&#xeab0;" horiz-adv-x="896" d="M840 252q23 0 39.5 -17.5t16.5 -40.5v-4q-3 -89 -121.5 -139.5t-326.5 -50.5q-210 0 -329 51.5t-119 142.5q0 23 16.5 40.5t39.5 17.5h224v168q0 17 12 34q-50 53 -50 120q0 83 67 143q32 28 45 47t12 31t-6 26q-13 36 15 61q17 14 37 14q13 0 25 -6q5 -2 23.5 -12.5
t53.5 -38t62 -59.5q8 -8 11 -19q12 -10 16 -17q51 -76 51 -170q0 -67 -51 -120q13 -16 13 -34v-168h224zM556 714q-9 -40 -71 -95q-46 -40 -46 -95q0 -42 31 -76q55 7 91.5 42t36.5 84q0 75 -42 140zM560 420h-224v-196h224v196zM346 675q-48 -42 -48 -101q0 -51 39 -86.5
t98 -40.5q-25 37 -25 77q0 64 56 117q29 28 45.5 53.5t18.5 37.5l3 12q-11 13 -23.5 25t-23.5 21.5t-22.5 17.5t-20.5 13.5t-16 10t-11 6.5l-4 2q18 -36 5 -75t-71 -90zM448 56q169 0 280.5 37.5t111.5 102.5h-784q0 -66 111 -103t281 -37z" />
<glyph unicode="&#xeab1;" horiz-adv-x="896" d="M896 532v-196q0 -23 -16.5 -39.5t-39.5 -16.5h-85l51 -211q7 -27 -10 -48q-18 -21 -44 -21h-107q-19 0 -34.5 12t-20.5 31l-58 237h-168l-58 -237q-5 -19 -20.5 -31t-34.5 -12h-107q-28 0 -44 21q-17 22 -11 48l52 211h-85q-23 0 -39.5 16.5t-16.5 39.5v196
q0 23 16.5 39.5t39.5 16.5h140q10 0 17 -3l21 87h-94q-23 0 -39.5 16.5t-16.5 39.5v112q0 23 16.5 39.5t39.5 16.5h616q23 0 39.5 -16.5t16.5 -39.5v-112q0 -23 -16.5 -39.5t-39.5 -16.5h-94l21 -87q7 3 17 3h140q23 0 39.5 -16.5t16.5 -39.5zM140 728h616v112h-616v-112z
M480 504l-32 132l-32 -132h64zM56 532v-56h140v56h-140zM840 336v112h-181l-62 252h-107l61 -252h-206l61 252h-108l-61 -252h-181v-112h156l-68 -280h107l69 280h256l69 -280h107l-69 280h157zM840 476v56h-140v-56h140z" />
<glyph unicode="&#xead0;" horiz-adv-x="896" d="M728 896q70 0 119 -49t49 -119v-560q0 -70 -49 -119t-119 -49h-560q-70 0 -119 49t-49 119v560q0 70 49 119t119 49h560zM840 168v560q0 46 -33 79t-79 33h-560q-46 0 -79 -33t-33 -79v-560q0 -46 33 -79t79 -33h560q46 0 79 33t33 79zM658 784q52 0 89 -37t37 -89
t-37 -89t-89 -37q-48 0 -83 32l-92 -85q0 -15 -10 -25q-3 -4 -11 -8v-86q46 -6 75 -36q37 -37 37 -89t-37 -89t-89 -37t-89 37t-37 89t37 89q29 30 75 36v87q-6 1 -10 7q-11 9 -11 25l-92 85q-35 -32 -83 -32q-52 0 -89 37t-37 89t37 89t89 37t89 -37t37 -89q0 -40 -24 -74
l86 -79q22 17 44 0l86 79q-24 34 -24 74q0 52 37 89t89 37zM319 603q17 25 17 55q0 40 -29 69t-69 29t-69 -29t-29 -69t29 -69t69 -29q34 0 62 23l-31 28q-13 -9 -31 -9q-23 0 -39.5 16.5t-16.5 39.5t16.5 39.5t39.5 16.5t39.5 -16.5t16.5 -39.5q0 -10 -6 -26zM517 304
q-22 23 -55 28v-43q13 -3 26 -14q16 -17 16 -40.5t-16 -39.5t-40 -16t-40 16q-16 17 -16 40t16 40q13 11 26 14v43q-33 -5 -55 -28q-29 -28 -29 -69t29 -69q29 -29 69 -29t69 29q29 28 29 69t-29 69zM658 560q40 0 69 29t29 69t-29 69t-69 29t-69 -29t-29 -69q0 -30 17 -55
l31 29q-6 12 -6 26q0 23 16.5 39.5t39.5 16.5t39.5 -16.5t16.5 -39.5t-16.5 -39.5t-39.5 -16.5q-18 0 -31 9l-31 -28q28 -23 62 -23z" />
<glyph unicode="&#xeae0;" horiz-adv-x="896" d="M817 817q57 -58 73.5 -148.5t-11.5 -198.5q-5 -15 -11 -36q-32 -101 -96 -194q-27 -38 -31 -42q-25 -32 -51 -58q-52 -52 -112 -86q-5 -3 -42 -22q-75 -32 -150 -32q-152 0 -268 118q-92 91 -113 207t35 228q13 27 25 43q29 47 76 94q24 26 56 50q2 2 14 11.5t15 11.5
l27 18l1 1q93 60 191 89q3 1 18 5t17 5q63 15 121 15q135 0 216 -79zM386 56q65 0 128 28q-113 54 -232 173q-142 142 -191 272q-48 -104 -29.5 -199.5t95.5 -172.5q103 -101 229 -101zM651 180q20 20 46 53q-11 2 -20 6q-32 13 -55 37.5t-30 42.5l-1 -1q-3 8 -10 16
q-2 4 -8 10l-3 3l-3 3q-1 1 -4 3t-4 3t-4 2.5l-5 2.5q-1 0 -3 2l-3 1q-1 0 -5 1.5t-6 1.5q-12 2 -14 2h-2h-5q-52 0 -95 42l-1 1q-45 45 -48 105q-2 7 -3 18q-1 2 -2.5 6t-2.5 6l-1 3q-1 1 -1 2.5t-1 2.5t-2.5 4t-2.5 4t-3 3.5t-3 4.5l-3 3l-2 2q-6 6 -9 8q-10 6 -14 7v1
q-17 5 -40 24.5t-38 52.5q-4 8 -8 28q-36 -30 -52 -46q-40 -40 -68 -85q40 -133 193 -286q125 -125 246 -178q56 34 100 78zM727 272q57 84 88 179q-95 56 -189 150q-110 111 -165 217q-91 -27 -176 -83l-27 -18q2 -21 9 -36q9 -21 24 -36.5t23 -19.5t13 -6h1q14 -7 20 -12
q6 -3 13 -10l3 -3l4 -4q7 -10 8 -11q2 -3 6 -11l3 -6q1 0 1 -2q2 -4 4.5 -10.5t2.5 -7.5q2 -7 4 -24v-1q0 -6 2.5 -17.5t12 -31.5t24.5 -35l1 -1q34 -34 78 -34h1h4q5 0 19 -2q5 -1 15 -5q4 -1 5 -2q2 -2 5 -2q2 -2 6 -4.5t5 -2.5q8 -6 10 -8q2 -1 5 -4l2 -2q6 -6 12 -14
q8 -11 14 -21v-1q3 -7 9 -16t23.5 -24.5t37.5 -23.5q9 -4 29 -8zM824 484q24 85 13 164.5t-60 128.5q-63 63 -176 63q-50 0 -108 -14q58 -104 156 -202q85 -85 175 -140zM714 379q8 8 8 20t-8 21q-10 8 -21 8q-10 0 -20 -8q-8 -9 -8 -21t8 -20q9 -9 20 -9q12 0 21 9z
M546 505q9 8 9 20.5t-9 20.5q-8 9 -20 9t-21 -9q-8 -8 -8 -20.5t8 -20.5t21 -8t20 8zM421 675q9 8 9 20t-9 21q-8 8 -20 8q-11 0 -21 -8q-8 -9 -8 -21t8 -20q9 -9 21 -9q13 0 20 9z" />
<glyph unicode="&#xeae1;" horiz-adv-x="896" d="M896 678q0 -21 -7 -35q7 -14 7 -27v-168q0 -93 -66 -158.5t-158 -65.5h-140v-11q56 -18 98 -62.5t42 -94.5q0 -23 -16.5 -39.5t-39.5 -16.5h-336q-23 0 -39.5 16.5t-16.5 39.5q0 67 70 120q29 23 70 37v11h-140q-93 0 -158.5 65.5t-65.5 158.5v168q0 16 7 27q-7 14 -7 35
q0 31 33 102q15 32 51 32q26 0 42 -19q16 19 42 19t42 -19q16 19 42 19t42 -19q16 19 42 19q18 0 35 -12q8 23 26 64q15 32 51 32t51 -32q19 -42 26 -65q15 13 35 13q26 0 42 -19q16 19 42 19t42 -19q16 19 42 19t42 -19q16 19 42 19q36 0 51 -32q33 -71 33 -102zM728 756
q-28 -58 -28 -77q0 -14 8 -24.5t20 -10.5q11 0 19.5 10.5t8.5 24.5q0 8 -7 27.5t-14 34.5zM644 756q-28 -58 -28 -77q0 -14 8 -24.5t20 -10.5q11 0 19.5 10.5t8.5 24.5q0 8 -7 27.5t-14 34.5zM560 756q-28 -58 -28 -77q0 -14 8 -24.5t20 -10.5q11 0 19.5 10.5t8.5 24.5
q0 8 -7 27.5t-14 34.5zM448 840q-28 -58 -28 -77q0 -14 8 -24.5t20 -10.5q11 0 19.5 10.5t8.5 24.5q0 8 -7 27.5t-14 34.5zM336 756q-28 -58 -28 -77q0 -14 8 -24.5t20 -10.5q11 0 19.5 10.5t8.5 24.5q0 8 -7 27.5t-14 34.5zM252 756q-28 -58 -28 -77q0 -14 8 -24.5
t20 -10.5q11 0 19.5 10.5t8.5 24.5q0 8 -7 27.5t-14 34.5zM168 756q-28 -58 -28 -77q0 -14 8 -24.5t20 -10.5q11 0 19.5 10.5t8.5 24.5q0 8 -7 27.5t-14 34.5zM84 756q-28 -58 -28 -77q0 -14 8 -24.5t20 -10.5q11 0 19.5 10.5t8.5 24.5q0 8 -7 27.5t-14 34.5zM840 448v168
h-56v-168q0 -42 -28 -73v241h-56v-276q-18 -4 -28 -4v280h-56v-280h-28v280h-56v-280h-56v364h-56v-364h-56v280h-56v-280h-28v280h-56v-280q-10 0 -28 4v276h-56v-241q-28 31 -28 73v168h-56v-168q0 -70 49 -119t119 -49h196v-114q-44 0 -92 -35t-48 -75h336q0 40 -48 75
t-92 35v114h196q70 0 119 49t49 119zM812 644q11 0 19.5 10.5t8.5 24.5q0 8 -7 27.5t-14 34.5l-7 15q-28 -58 -28 -77q0 -14 8 -24.5t20 -10.5z" />
<glyph unicode="&#xeb00;" horiz-adv-x="896" d="M532 504v-252h196l-280 -252l-280 252h196v252h168zM707 756q79 -3 134 -60t55 -136q0 -81 -57.5 -138.5t-138.5 -57.5h-112v56h112q58 0 99 41t41 99t-41 99t-99 41q-12 0 -32 -4q-14 62 -63.5 103t-114.5 41q-76 0 -129 -53.5t-53 -128.5q0 -9 1 -14h-42q-1 5 -1 14
q0 46 18 87q-30 11 -60 11q-70 0 -119 -49t-49 -119t49 -119t119 -49h84v-56h-84q-93 0 -158.5 65.5t-65.5 158.5q0 92 65.5 158t158.5 66q39 0 74 -13q34 45 84 71t108 26q70 0 129 -38.5t88 -101.5z" />
<glyph unicode="&#xeb02;" horiz-adv-x="896" d="M644 308l-196 -182l-196 182h140v140h112v-140h140zM895 600q1 -4 1 -12v-532q0 -23 -16.5 -39.5t-39.5 -16.5h-784q-23 0 -39.5 16.5t-16.5 39.5v532q0 8 1 12l57 252q4 19 19 31.5t35 12.5h672q20 0 35 -12.5t19 -31.5zM112 840l-56 -252h364v252h-308zM840 56v504
h-784v-504h784zM476 588h364l-56 252h-308v-252z" />
<glyph unicode="&#xeb03;" horiz-adv-x="896" d="M896 589v-8v-525q0 -23 -16.5 -39.5t-39.5 -16.5h-784q-23 0 -39.5 16.5t-16.5 39.5v532v7v0q1 2 1 5l56 252q4 19 19.5 31.5t35.5 12.5h672q20 0 35 -12.5t19 -31.5l56 -251q2 -6 2 -12zM56 588h784l-56 252h-672zM840 56v504h-784v-504h784zM644 308l-196 -182
l-196 182h140v140h112v-140h140zM693 784l31 -140h-552l31 140h490zM207 672h481l-18 84h-444zM182 476q0 17 -12.5 29.5t-29.5 12.5t-29.5 -12.5t-12.5 -29.5t12.5 -29.5t29.5 -12.5t29.5 12.5t12.5 29.5zM182 140q0 17 -12.5 29.5t-29.5 12.5t-29.5 -12.5t-12.5 -29.5
t12.5 -29.5t29.5 -12.5t29.5 12.5t12.5 29.5zM798 140q0 17 -12.5 29.5t-29.5 12.5t-29.5 -12.5t-12.5 -29.5t12.5 -29.5t29.5 -12.5t29.5 12.5t12.5 29.5zM798 476q0 17 -12.5 29.5t-29.5 12.5t-29.5 -12.5t-12.5 -29.5t12.5 -29.5t29.5 -12.5t29.5 12.5t12.5 29.5z" />
<glyph unicode="&#xeb40;" horiz-adv-x="896" d="M168 224l280 252l280 -252h-196v-224h-168v224h-196zM707 756q79 -3 134 -60t55 -136q0 -81 -57.5 -138.5t-138.5 -57.5h-39l-64 56h103q58 0 99 41t41 99t-41 99t-99 41q-12 0 -32 -4q-14 62 -63.5 103t-114.5 41q-76 0 -129 -53.5t-53 -128.5q0 -9 1 -14h-42
q-1 5 -1 14q0 46 18 87q-30 11 -60 11q-70 0 -119 -49t-49 -119t49 -119t119 -49h75l-64 -56h-11q-93 0 -158.5 65.5t-65.5 158.5q0 92 65.5 158t158.5 66q39 0 74 -13q34 45 84 71t108 26q70 0 129 -38.5t88 -101.5z" />
<glyph unicode="&#xeb42;" horiz-adv-x="896" d="M252 280l196 182l196 -182h-140v-140h-112v140h-140zM895 600q1 -4 1 -12v-532q0 -23 -16.5 -39.5t-39.5 -16.5h-784q-23 0 -39.5 16.5t-16.5 39.5v532q0 8 1 12l57 252q4 19 19 31.5t35 12.5h672q20 0 35 -12.5t19 -31.5zM112 840l-56 -252h364v252h-308zM840 56v504
h-784v-504h784zM476 588h364l-56 252h-308v-252z" />
<glyph unicode="&#xeb43;" horiz-adv-x="896" d="M896 589v-8v-525q0 -23 -16.5 -39.5t-39.5 -16.5h-784q-23 0 -39.5 16.5t-16.5 39.5v532v7v0q1 2 1 5l56 252q4 19 19.5 31.5t35.5 12.5h672q20 0 35 -12.5t19 -31.5l56 -251q2 -6 2 -12zM56 588h784l-56 252h-672zM840 56v504h-784v-504h784zM252 280l196 182l196 -182
h-140v-140h-112v140h-140zM693 784l31 -140h-552l31 140h490zM207 672h481l-18 84h-444zM182 476q0 17 -12.5 29.5t-29.5 12.5t-29.5 -12.5t-12.5 -29.5t12.5 -29.5t29.5 -12.5t29.5 12.5t12.5 29.5zM182 140q0 17 -12.5 29.5t-29.5 12.5t-29.5 -12.5t-12.5 -29.5
t12.5 -29.5t29.5 -12.5t29.5 12.5t12.5 29.5zM798 140q0 17 -12.5 29.5t-29.5 12.5t-29.5 -12.5t-12.5 -29.5t12.5 -29.5t29.5 -12.5t29.5 12.5t12.5 29.5zM798 476q0 17 -12.5 29.5t-29.5 12.5t-29.5 -12.5t-12.5 -29.5t12.5 -29.5t29.5 -12.5t29.5 12.5t12.5 29.5z" />
<glyph unicode="&#xeb82;" horiz-adv-x="896" d="M861 892q35 -15 35 -52v-309q0 -23 -16.5 -39t-39.5 -16h-313q-37 0 -52 34q-14 35 13 62l70 68q-50 28 -109 28q-65 0 -119.5 -35.5t-81.5 -95.5q-14 -33 -51 -33q-13 0 -22 4l-107 46q-22 10 -30 31q-8 23 1 43q53 122 164.5 195t245.5 73q154 0 274 -94l77 77
q17 17 40 17q12 0 21 -4zM840 532v308l-115 -115q-115 115 -276 115q-119 0 -215.5 -64.5t-143.5 -169.5l107 -46q33 73 101 118.5t151 45.5q115 0 194 -79l-116 -113h313zM859 311q8 -23 -1 -43q-54 -122 -165.5 -195t-244.5 -73q-154 0 -274 94l-79 -78q-16 -16 -39 -16
q-13 0 -21 4q-35 15 -35 52v307q0 23 16.5 39.5t39.5 16.5h314q37 0 52 -34q13 -36 -13 -62l-70 -68q51 -27 109 -27q65 0 119.5 35.5t81.5 95.5q14 33 51 33q13 0 22 -5l107 -45q21 -10 30 -31zM448 56q118 0 215.5 64.5t143.5 169.5l-107 46q-33 -73 -101 -118.5
t-151 -45.5q-117 0 -195 78l117 114h-314v-308l115 115q115 -115 277 -115z" />
<glyph unicode="&#xeb84;" horiz-adv-x="896" d="M56 896q114 0 223 -30t201 -84.5t169.5 -132t132 -169.5t84.5 -201t30 -223q0 -23 -16.5 -39.5t-39.5 -16.5h-784q-23 0 -39.5 16.5t-16.5 39.5v784q0 23 16.5 39.5t39.5 16.5zM56 56h196q0 80 -57 134.5t-139 54.5v-189zM308 56h140q0 161 -115 275t-277 114v-137
q104 0 178 -74t74 -178zM504 56h140q0 119 -46.5 227t-125 186.5t-187.5 124.5t-229 46v-139q185 0 316.5 -130.5t131.5 -314.5zM700 56h140q0 160 -62 305t-167 250t-250 167t-305 62v-144q131 0 250 -51t205.5 -136.5t137.5 -204t51 -248.5z" />
<glyph unicode="&#xeb85;" horiz-adv-x="896" d="M700 896q81 0 138.5 -57.5t57.5 -138.5q0 -57 -30.5 -105t-81.5 -72v-159h-159q-24 -51 -72 -81.5t-105 -30.5q-37 0 -68 12q12 -31 12 -68q0 -81 -57.5 -138.5t-138.5 -57.5t-138.5 57.5t-57.5 138.5q0 57 30.5 105t81.5 72v159h159q24 51 72 81.5t105 30.5q36 0 68 -12
q-12 32 -12 68q0 81 57.5 138.5t138.5 57.5zM728 563q48 10 80 48t32 89q0 58 -41 99t-99 41t-99 -41t-41 -99q0 -51 32 -89t80 -48v-87h-87q-10 48 -48 80t-89 32t-89 -32t-48 -80h-143v-143q-48 -10 -80 -48t-32 -89q0 -58 41 -99t99 -41t99 41t41 99q0 51 -32 89t-80 48
v87h87q10 -48 48 -80t89 -32t89 32t48 80h143v143zM448 504q23 0 39.5 -16.5t16.5 -39.5t-16.5 -39.5t-39.5 -16.5t-39.5 16.5t-16.5 39.5t16.5 39.5t39.5 16.5zM700 756q23 0 39.5 -16.5t16.5 -39.5t-16.5 -39.5t-39.5 -16.5t-39.5 16.5t-16.5 39.5t16.5 39.5t39.5 16.5z
M140 196q0 23 16.5 39.5t39.5 16.5t39.5 -16.5t16.5 -39.5t-16.5 -39.5t-39.5 -16.5t-39.5 16.5t-16.5 39.5z" />
<glyph unicode="&#xeb86;" horiz-adv-x="896" d="M840 756q23 0 39.5 -16.5t16.5 -39.5v-140q0 -23 -16.5 -39.5t-39.5 -16.5h-42v-84q0 -22 -21 -27l-301 -82v-34q48 -10 80 -48t32 -89q0 -58 -41 -99t-99 -41t-99 41t-41 99q0 51 32 89t80 48v36l-285 51q-23 5 -23 28v59q-48 10 -80 48t-32 89q0 58 41 99t99 41t99 -41
t41 -99q0 -51 -32 -89t-80 -48v-36l252 -45v274h-84q-35 0 -51 32q-15 31 7 59l112 140q18 21 44 21t44 -21l112 -140q22 -29 6 -59q-14 -32 -50 -32h-84v-275l266 72v63h-42q-23 0 -39.5 16.5t-16.5 39.5v140q0 23 16.5 39.5t39.5 16.5h140zM336 700h224l-112 140zM56 588
q0 -34 25 -59t59 -25t59 25t25 59t-25 59t-59 25t-59 -25t-25 -59zM532 140q0 34 -25 59t-59 25t-59 -25t-25 -59t25 -59t59 -25t59 25t25 59zM840 560v140h-140v-140h140z" />
<glyph unicode="&#xec00;" horiz-adv-x="896" d="M420 532h336v-28h-336v28zM420 448h336v-28h-336v28zM420 364h336v-28h-336v28zM420 280h336v-28h-336v28zM880 668q16 -16 16 -41v-459q0 -23 -16.5 -39.5t-39.5 -16.5h-224v-56q0 -23 -16.5 -39.5t-39.5 -16.5h-504q-23 0 -39.5 16.5t-16.5 39.5v672q0 23 16.5 39.5
t39.5 16.5h224v56q0 23 16.5 39.5t39.5 16.5h293q22 0 40 -16zM560 56v84h-252v84h-168v28h168v56h-168v28h168v56h-168v28h168v56h-168v28h168v224h-252v-672h504zM840 168v448h-224v224h-280v-672h504zM644 644h196l-196 196v-196z" />
<glyph unicode="&#xec01;" horiz-adv-x="896" d="M336 140v28h420v-28h-420zM756 252v-28h-420v28h420zM756 336v-28h-420v28h420zM896 599v-543q0 -23 -16.5 -39.5t-39.5 -16.5h-588q-23 0 -39.5 16.5t-16.5 39.5v392h56v-392h588v532h-252v252h-280v56h294q22 0 40 -16l238 -241q16 -18 16 -40zM616 616h224l-224 224
v-224zM252 504h-112v140h-140v112h140v140h112v-140h140v-112h-140v-140z" />
<glyph unicode="&#xec02;" horiz-adv-x="896" d="M392 756v-112h-392v112h392zM336 140v28h420v-28h-420zM756 252v-28h-420v28h420zM756 336v-28h-420v28h420zM896 599v-543q0 -23 -16.5 -39.5t-39.5 -16.5h-588q-23 0 -39.5 16.5t-16.5 39.5v532h56v-532h588v532h-252v252h-336v-28h-56v84h56h350q22 0 40 -16l238 -241
q16 -18 16 -40zM616 616h224l-224 224v-224z" />
<glyph unicode="&#xec04;" horiz-adv-x="896" d="M336 140v28h420v-28h-420zM756 252v-28h-420v28h420zM756 336v-28h-420v28h420zM896 599v-543q0 -23 -16.5 -39.5t-39.5 -16.5h-588q-23 0 -39.5 16.5t-16.5 39.5v476l56 -56v-420h588v532h-252v252h-196l-56 56h266q22 0 40 -16l238 -241q16 -18 16 -40zM616 616h224
l-224 224v-224zM356 601l-79 -79l-99 99l-99 -99l-79 79l99 99l-99 99l79 79l99 -99l99 99l79 -79l-99 -99z" />
<glyph unicode="&#xec05;" horiz-adv-x="896" d="M140 252v28h336v-28h-336zM140 140v28h336v-28h-336zM863 387q33 -33 33 -79t-33 -79t-79 -33t-79 33l-89 89v-262q0 -23 -16.5 -39.5t-39.5 -16.5h-504q-23 0 -39.5 16.5t-16.5 39.5v560q0 23 16.5 39.5t39.5 16.5h148q24 97 104 160.5t182 63.5q122 0 208 -86t86 -208
q0 -58 -23 -113zM560 56v275q-34 -9 -70 -9q-80 0 -147 42h-203v28h165q-41 36 -65 84h-100v28h88q-18 51 -18 98q0 9 1 14h-155v-560h504zM824 268q16 16 16 40t-16 40l-131 130q35 57 35 124q0 98 -70 168t-168 70t-168 -70t-70 -168t70 -168t168 -70q67 0 124 35
l130 -131q16 -16 40 -16t40 16zM490 784q75 0 128.5 -53.5t53.5 -128.5q0 -76 -53.5 -129t-128.5 -53q-76 0 -129 53t-53 129q0 75 53 128.5t129 53.5zM490 448q64 0 109 45t45 109t-45 109t-109 45t-109 -45t-45 -109t45 -109t109 -45z" />
<glyph unicode="&#xec71;" horiz-adv-x="896" d="M756 252h140v-112h-140v-140h-112v140h-140v112h140v140h112v-140zM884 538q18 -23 10 -49l-50 -181h-32v94l28 102h-644l-112 -448h504v-56h-532q-22 0 -40 16q-16 18 -16 40v746q0 39 27.5 66.5t66.5 27.5h164q21 0 37 -14l80 -70h325q22 0 40 -16q16 -18 16 -40v-196
h84q28 0 44 -22zM700 532v224h-346l-96 84h-164q-16 0 -27 -11t-11 -27v-742l113 451q5 21 27 21h504z" />
<glyph unicode="&#xec72;" horiz-adv-x="896" d="M884 538q18 -23 10 -49l-50 -181h-58l54 196h-644l-112 -448h633l8 28h58l-12 -43q-5 -18 -20 -29.5t-34 -11.5h-661q-22 0 -40 16q-16 18 -16 40v746q0 39 27.5 66.5t66.5 27.5h164q21 0 37 -14l80 -70h325q22 0 40 -16q16 -18 16 -40v-196h84q28 0 44 -22zM700 532v224
h-346l-96 84h-164q-16 0 -27 -11t-11 -27v-742l113 451q5 21 27 21h504zM504 252h392v-112h-392v112z" />
<glyph unicode="&#xec74;" horiz-adv-x="896" d="M866 386l-46 46l20 72h-644l-112 -448h400l56 -56h-484q-22 0 -40 16q-16 18 -16 40v746q0 39 27.5 66.5t66.5 27.5h164q21 0 37 -14l80 -70h325q22 0 40 -16q16 -18 16 -40v-196h84q28 0 44 -22q18 -23 10 -49zM700 532v224h-346l-96 84h-164q-16 0 -27 -11t-11 -27
v-742l113 451q5 21 27 21h504zM799 374l79 -79l-99 -99l99 -99l-79 -79l-99 99l-99 -99l-79 79l99 99l-99 99l79 79l99 -99z" />
<glyph unicode="&#xec76;" horiz-adv-x="896" d="M884 538q18 -23 10 -49l-123 -448q-5 -18 -20 -29.5t-34 -11.5h-661q-22 0 -40 16q-16 18 -16 40v746q0 39 27.5 66.5t66.5 27.5h164q21 0 37 -14l41 -36v-74l-78 68h-164q-16 0 -27 -11t-11 -27v-742l113 451q5 21 27 21h203l-147 168h140v196h112v-196h140l-147 -168
h203v224h-140v56h140q22 0 40 -16q16 -18 16 -40v-196h84q28 0 44 -22zM717 56l123 448h-644l-112 -448h633z" />
<glyph unicode="&#xec77;" horiz-adv-x="896" d="M884 538q18 -23 10 -49l-123 -448q-5 -18 -20 -29.5t-34 -11.5h-661q-22 0 -40 16q-16 18 -16 40v746q0 39 27.5 66.5t66.5 27.5h164q21 0 37 -14l38 -33l-37 -42l-38 33h-164q-16 0 -27 -11t-11 -27v-742l113 451q5 21 27 21h196v140h-140l196 224l196 -224h-140v-140
h196v224h-55l-49 56h104q22 0 40 -16q16 -18 16 -40v-196h84q28 0 44 -22zM717 56l123 448h-644l-112 -448h633z" />
<glyph unicode="&#xed01;" horiz-adv-x="896" d="M893 75q9 -26 -7 -51q-18 -24 -46 -24h-234q-41 0 -53 40l-31 100h-151l-30 -100q-5 -18 -20 -29t-33 -11h-232q-28 0 -46 24q-16 25 -7 51l283 784q6 17 20.5 27t32.5 10h218q18 0 32.5 -10t20.5 -27zM606 56h234l-283 784h-218l-283 -784h232l42 140h234zM438 560h18
l55 -196h-129z" />
<glyph unicode="&#xed10;" horiz-adv-x="896" d="M840 420q23 0 39.5 -16.5t16.5 -39.5v-182q0 -23 -16 -39.5t-40 -16.5t-40 16l-12 12q-146 -154 -340 -154q-207 0 -341 140l-11 -12q-13 -14 -40 -16q-24 0 -40 16.5t-16 39.5v196q0 23 16.5 39.5t39.5 16.5h196q23 0 39.5 -16.5t16.5 -40.5t-16 -39l-26 -25
q10 -10 21 -17t26.5 -14.5t22.5 -11.5v347q-56 51 -56 125q0 70 49 119t119 49t119 -49t49 -119q0 -74 -56 -125v-347q30 18 63 52l-19 16q-14 12 -16 39q0 24 16.5 40.5t39.5 16.5h196zM840 182v182h-196l56 -48q-87 -118 -196 -141v456q56 34 56 97q0 46 -33 79t-79 33
t-79 -33t-33 -79q0 -63 56 -97v-456q-128 27 -201 128l61 61h-196v-196l54 54q130 -166 338 -166q96 0 182.5 46.5t154.5 133.5zM448 784q23 0 39.5 -16.5t16.5 -39.5t-16.5 -39.5t-39.5 -16.5t-39.5 16.5t-16.5 39.5t16.5 39.5t39.5 16.5z" />
<glyph unicode="&#xed40;" horiz-adv-x="896" d="M616 560v-28h-336v28h336zM182 392q17 0 29.5 -12.5t12.5 -29.5t-12.5 -29.5t-29.5 -12.5t-29.5 12.5t-12.5 29.5t12.5 29.5t29.5 12.5zM294 392q17 0 29.5 -12.5t12.5 -29.5t-12.5 -29.5t-29.5 -12.5t-29.5 12.5t-12.5 29.5t12.5 29.5t29.5 12.5zM616 0h-364
q-23 0 -37 14q-26 -14 -61 -14q-23 0 -39.5 16.5t-16.5 39.5v28q0 19 12 34t30 20v58h-84q-23 0 -39.5 16.5t-16.5 39.5v196q0 23 16.5 39.5t39.5 16.5h84v336q0 23 16.5 39.5t39.5 16.5h293q22 0 40 -16l210 -212q17 -16 17 -41v-123h84q23 0 39.5 -16.5t16.5 -39.5v-196
q0 -23 -16.5 -39.5t-39.5 -16.5h-112v-58q18 -5 30 -20t12 -34v-28q0 -23 -16.5 -39.5t-39.5 -16.5q-35 0 -61 14q-16 -14 -37 -14zM504 840v-196h196zM196 840v-364h504v140h-224v224h-280zM224 126v98h-28v-98q0 -7 -2 -14.5t-12 -17.5t-28 -10v-28q37 0 53.5 23t16.5 47z
M280 56v168h-28v-168h28zM336 56v168h-28v-168h28zM392 56v168h-28v-168h28zM448 56v168h-28v-168h28zM504 56v168h-28v-168h28zM560 56v168h-28v-168h28zM56 252h616v196h-616v-196zM616 56v168h-28v-168h28zM714 56v28q-18 0 -28.5 10t-12 17.5t-1.5 14.5v98h-28v-98
q0 -24 16.5 -47t53.5 -23zM840 252v196h-140v-196h140z" />
<glyph unicode="&#xed41;" horiz-adv-x="896" d="M896 420q0 -23 -16.5 -39.5t-39.5 -16.5h-1l54 -149q3 -9 3 -19q0 -86 -55 -141t-141 -55h-504q-86 0 -141 55t-55 141q0 10 3 19l54 149h-1q-23 0 -39.5 16.5t-16.5 39.5v112q0 23 16.5 39.5t39.5 16.5h84v252q0 23 16.5 39.5t39.5 16.5h351q22 0 40 -16l153 -156
q16 -16 16 -40v-96h84q23 0 39.5 -16.5t16.5 -39.5v-112zM560 840v-140h140zM532 840h-336v-280h504v112h-168v168zM728 532h-560v-112h560v112zM56 420h84v112h-84v-112zM840 196l-70 196h-238q0 -10 -4.5 -16t-17.5 -8.5t-24.5 -3t-37.5 -0.5t-37.5 0.5t-24.5 3t-17.5 8.5
t-4.5 16h-238l-70 -196q0 -63 38.5 -101.5t101.5 -38.5h504q63 0 101.5 38.5t38.5 101.5zM756 420h84v112h-84v-112zM476 784v-28h-196v28h196zM476 700v-28h-196v28h196zM700 308q23 0 39.5 -8.5t16.5 -19.5q0 -12 -16.5 -20t-39.5 -8t-39.5 8t-16.5 20q0 11 16.5 19.5
t39.5 8.5zM588 280q0 -12 -16.5 -20t-39.5 -8t-39.5 8t-16.5 20q0 11 16.5 19.5t39.5 8.5t39.5 -8.5t16.5 -19.5zM448 224q23 0 39.5 -8.5t16.5 -19.5q0 -12 -16.5 -20t-39.5 -8t-39.5 8t-16.5 20q0 11 16.5 19.5t39.5 8.5zM616 224q23 0 39.5 -8.5t16.5 -19.5
q0 -12 -16.5 -20t-39.5 -8t-39.5 8t-16.5 20q0 11 16.5 19.5t39.5 8.5zM252 280q0 -12 -16.5 -20t-39.5 -8t-39.5 8t-16.5 20q0 11 16.5 19.5t39.5 8.5t39.5 -8.5t16.5 -19.5zM420 280q0 -12 -16.5 -20t-39.5 -8t-39.5 8t-16.5 20q0 11 16.5 19.5t39.5 8.5t39.5 -8.5
t16.5 -19.5zM280 224q23 0 39.5 -8.5t16.5 -19.5q0 -12 -16.5 -20t-39.5 -8t-39.5 8t-16.5 20q0 11 16.5 19.5t39.5 8.5z" />
<glyph unicode="&#xed50;" horiz-adv-x="896" d="M840 896q23 0 39.5 -16.5t16.5 -39.5v-784q0 -23 -16.5 -39.5t-39.5 -16.5h-784q-23 0 -39.5 16.5t-16.5 39.5v784q0 23 16.5 39.5t39.5 16.5h784zM168 56v112h-112v-112h112zM168 224v112h-112v-112h112zM168 392v112h-112v-112h112zM168 560v112h-112v-112h112z
M168 728v112h-112v-112h112zM840 56v112h-616v-112h616zM840 224v112h-616v-112h616zM840 392v112h-616v-112h616zM840 560v112h-616v-112h616zM840 728v112h-616v-112h616z" />
<glyph unicode="&#xee00;" horiz-adv-x="896" d="M616 312q26 7 43 22l13 10v-288q0 -23 -16.5 -39.5t-39.5 -16.5h-560q-23 0 -39.5 16.5t-16.5 39.5v560q0 23 16.5 39.5t39.5 16.5h232q-23 -24 -45 -56h-187v-560h560v256zM876 672q20 -15 20 -43q0 -26 -20 -43l-253 -209q-14 -13 -35 -13q-12 0 -24 5q-32 14 -32 51
v67q-56 -35 -56 -111v-96q0 -23 -16.5 -39.5t-39.5 -16.5h-140q-23 0 -39.5 16.5t-16.5 39.5v96q0 138 88.5 244t219.5 130v90q0 34 32 51q13 5 24 5q22 0 36 -13zM588 420l252 209l-252 211v-140q-129 -4 -218.5 -99t-89.5 -225v-96h140v96q0 76 47 128t121 56v-140z
M532 140v183q4 -3 8 -4q6 -3 20 -7v-200h-448v448h98q-2 -4 -7 -13.5t-7 -14.5h-56v-392h392z" />
<glyph unicode="&#xee01;" horiz-adv-x="896" d="M792 602l87 -86q26 -26 13 -61q-15 -35 -52 -35h-364v-364q0 -37 -35 -52q-9 -4 -21 -4q-22 0 -40 16l-86 87l-86 -87q-16 -16 -40 -16t-40 16l-112 112q-16 18 -16 40q0 23 17 40l87 86l-87 86q-27 25 -13 61q15 35 52 35h364v364q0 37 35 52q8 4 21 4q22 0 40 -16
l86 -87l86 87q18 16 40 16t40 -16l112 -112q16 -18 16 -40q0 -23 -17 -40zM420 56v364h-364l126 -126l-126 -126l112 -112l126 126zM476 476h364l-126 126l126 126l-112 112l-126 -126l-126 126v-364z" />
<glyph unicode="&#xee04;" horiz-adv-x="896" d="M861 416q35 -15 35 -52v-308q0 -23 -16.5 -39.5t-39.5 -16.5h-308q-37 0 -52 35q-14 35 12 61l67 67l-67 67q-16 16 -16 39q0 22 16 40l95 95q18 16 40 16q23 0 40 -17l66 -67l67 67q17 17 40 17q12 0 21 -4zM840 56v308l-107 -108l-106 108l-95 -95l107 -106l-107 -107
h308zM337 733l67 -67q16 -16 16 -39q0 -22 -16 -40l-95 -95q-18 -16 -40 -16q-23 0 -40 17l-66 67l-67 -67q-17 -17 -40 -17q-12 0 -21 4q-35 15 -35 52v308q0 23 16.5 39.5t39.5 16.5h308q23 0 39.5 -16.5t16.5 -39.5q0 -25 -18 -41zM269 532l95 95l-107 106l107 107h-308
v-308l107 108zM420 269q0 -23 -17 -40l-67 -66l67 -67q26 -26 13 -61q-15 -35 -52 -35h-308q-23 0 -39.5 16.5t-16.5 39.5v308q0 37 35 52q8 4 21 4q22 0 40 -16l67 -67l67 67q16 16 39 16q22 0 40 -16l95 -95q16 -18 16 -40zM256 163l108 106l-95 95l-106 -107l-107 107
v-308h308zM840 896q23 0 39.5 -16.5t16.5 -39.5v-308q0 -37 -35 -52q-9 -4 -21 -4q-22 0 -40 16l-67 67l-67 -67q-16 -16 -39 -16q-22 0 -40 16l-95 95q-16 18 -16 40q0 23 17 40l67 66l-67 67q-27 25 -13 61q15 35 52 35h308zM840 532v308h-308l108 -107l-108 -106l95 -95
l106 107z" />
<glyph unicode="&#xee05;" horiz-adv-x="896" d="M812 639l67 -67q26 -26 13 -61q-15 -35 -52 -35h-308q-23 0 -39.5 16.5t-16.5 39.5v308q0 37 35 52q8 4 21 4q22 0 40 -16l67 -67l67 67q16 16 39 16q22 0 40 -16l95 -95q16 -18 16 -40q0 -23 -17 -40zM532 532h308l-108 107l108 106l-95 95l-106 -107l-107 107v-308z
M385 892q35 -15 35 -52v-308q0 -23 -16.5 -39.5t-39.5 -16.5h-308q-37 0 -52 35q-14 35 12 61l67 67l-67 67q-16 16 -16 39q0 22 16 40l95 95q18 16 40 16q23 0 40 -17l66 -67l67 67q17 17 40 17q12 0 21 -4zM364 532v308l-107 -108l-106 108l-95 -95l107 -106l-107 -107
h308zM364 420q23 0 39.5 -16.5t16.5 -39.5v-308q0 -37 -35 -52q-9 -4 -21 -4q-22 0 -40 16l-67 67l-67 -67q-16 -16 -39 -16q-22 0 -40 16l-95 95q-16 18 -16 40q0 23 17 40l67 66l-67 67q-27 25 -13 61q15 35 52 35h308zM364 56v308h-308l108 -107l-108 -106l95 -95
l106 107zM880 190q16 -16 16 -39q0 -22 -16 -40l-95 -95q-18 -16 -40 -16q-23 0 -40 17l-66 67l-67 -67q-17 -17 -40 -17q-12 0 -21 4q-35 15 -35 52v308q0 23 16.5 39.5t39.5 16.5h308q37 0 52 -35q14 -35 -12 -61l-67 -67zM745 56l95 95l-107 106l107 107h-308v-308
l107 108z" />
<glyph unicode="&#xee10;" horiz-adv-x="896" d="M448 280q-47 0 -79.5 32t-32.5 80v392q0 48 32.5 80t79.5 32t79.5 -32t32.5 -80v-389q0 -48 -32.5 -81.5t-79.5 -33.5zM392 784v-392q0 -24 16 -40t40 -16t40 16t16 40v392q0 24 -16 40t-40 16t-40 -16t-16 -40zM672 835q104 -60 164 -164t60 -223q0 -185 -131.5 -316.5
t-316.5 -131.5t-316.5 131.5t-131.5 316.5q0 119 60 223t164 164q14 8 28 8t28 -8q28 -16 28 -48v-140q0 -23 -17 -40q-67 -65 -67 -159q0 -93 65.5 -158.5t158.5 -65.5q92 0 158 65.5t66 158.5q0 94 -67 159q-17 17 -17 40v140q0 32 28 48q14 8 28 8t28 -8zM448 56
q162 0 277 114.5t115 277.5q0 107 -53.5 197t-142.5 142v-140q84 -82 84 -199q0 -116 -82 -198t-198 -82t-198 82t-82 198q0 117 84 199v140q-89 -52 -142.5 -142t-53.5 -197q0 -163 114.5 -277.5t277.5 -114.5z" />
<glyph unicode="&#xee11;" horiz-adv-x="896" d="M448 896q185 0 316.5 -131.5t131.5 -316.5t-131.5 -316.5t-316.5 -131.5t-316.5 131.5t-131.5 316.5t131.5 316.5t316.5 131.5zM608 500l212 16q-21 116 -104.5 199.5t-199.5 104.5l-16 -212q38 -13 66.5 -41.5t41.5 -66.5zM380 820q-116 -21 -199.5 -104.5
t-104.5 -199.5l212 -16q13 38 41.5 66.5t66.5 41.5zM380 76l16 212q-38 13 -66.5 41.5t-41.5 66.5l-212 -16q21 -116 104.5 -199.5t199.5 -104.5zM308 448q0 -58 41 -99t99 -41t99 41t41 99t-41 99t-99 41t-99 -41t-41 -99zM516 76q116 21 199.5 104.5t104.5 199.5l-212 16
q-13 -38 -41.5 -66.5t-66.5 -41.5z" />
<glyph unicode="&#xef60;" horiz-adv-x="896" d="M853 722q43 -41 43 -104q0 -62 -43 -105t-105 -43q-30 0 -57 11l-277 -276q18 -40 9.5 -84.5t-40.5 -77.5q-43 -43 -105 -43t-105 43q-36 37 -42 88q-52 6 -88 42q-43 43 -43 105t43 105t105 43q29 0 57 -11l276 276q-11 27 -11 57q0 62 43 105t105 43q61 0 104 -43
q37 -37 43 -88q51 -6 88 -43zM813 553q27 27 27 65t-27 65t-65 27t-65 -27q27 27 27 65t-27 65t-65 27t-65 -27t-27 -65t27 -65l-340 -340q-27 27 -65 27t-65 -27t-27 -65t27 -65t65 -27t65 27q-27 -27 -27 -65t27 -65t65 -27t65 27t27 65t-27 65l340 340q27 -27 65 -27
t65 27z" />
<glyph unicode="&#xef61;" horiz-adv-x="896" d="M896 474q3 -117 -90 -213q-75 -77 -173 -86q-26 -4 -50 -16t-66 -43q-137 -116 -238 -116q-51 0 -83 27q-20 18 -18 44t22 42q140 108 140 173q1 19 -8 25q-2 1 -7 6q-10 11 -24 11q-38 0 -97 -48.5t-103 -103.5q-18 -21 -44 -21q-6 0 -16 2q-37 12 -40 49
q-14 158 125 292q26 33 42 67t20 51l3 18v4q11 98 81 171q84 87 197 87q99 0 166 -70q38 -39 57 -96q0 -1 0.5 -3.5t1.5 -3.5q0 -2 1 -8t3.5 -18.5t4.5 -24.5h2q87 -13 126 -50q63 -59 65 -148zM765 300q64 66 73.5 145.5t-46.5 136.5q-12 12 -35.5 20.5t-40.5 11.5l-18 2
v-84q0 -13 -13 -15q-1 -1 -2 -1q-12 0 -14 13q-7 44 -14 86.5t-11.5 68.5t-4.5 28q-15 44 -44 76q-51 52 -126 52q-89 0 -157 -70q-57 -60 -65 -140q-1 -9 -4 -24.5t-23 -60t-52 -84.5q-122 -116 -111 -250q6 7 15.5 18.5t39 41.5t57.5 53t65 41.5t67 18.5q37 0 64 -28
q5 -4 12 -11t15 -33.5t0.5 -57t-47 -81t-111.5 -105.5q14 -12 45 -12q81 0 203 104q48 34 78.5 50t65.5 21q81 6 139 69z" />
<glyph unicode="&#xf000;" horiz-adv-x="896" d="M448 896q185 0 316.5 -131.5t131.5 -316.5t-131.5 -316.5t-316.5 -131.5t-316.5 131.5t-131.5 316.5t131.5 316.5t316.5 131.5zM448 56q162 0 277 114.5t115 277.5q0 162 -115 277t-277 115q-163 0 -277.5 -115t-114.5 -277q0 -163 114.5 -277.5t277.5 -114.5zM320 596
l-57 57q-11 -9 -20 -20l57 -57q9 11 20 20zM273 536l-74 31q-8 -18 -11 -27l74 -31q3 9 11 27zM462 724h-14h-15v-81q3 0 8 0.5t7 0.5q3 0 7.5 -0.5t6.5 -0.5v81zM387 634l-31 74q-9 -3 -27 -11l31 -74q20 9 27 11zM708 540q-3 9 -11 27l-74 -31q8 -18 11 -27zM653 633
q-9 11 -20 20l-57 -57q11 -9 20 -20zM567 697q-18 8 -27 11l-31 -74q9 -3 27 -11zM518 294q0 46 -42 64v202q0 11 -8.5 19.5t-19.5 8.5q-12 0 -20 -8.5t-8 -19.5v-202q-42 -18 -42 -64q0 -29 20.5 -49.5t49.5 -20.5t49.5 20.5t20.5 49.5zM448 784q140 0 238 -98t98 -238
t-98 -238t-238 -98t-238 98t-98 238t98 238t238 98zM448 140q128 0 218 90t90 218t-90 218t-218 90t-218 -90t-90 -218t90 -218t218 -90z" />
<glyph unicode="&#xf001;" horiz-adv-x="896" d="M392 280v112h112v-112h-112zM112 504v112h112v-112h-112zM672 392v112h112v-112h-112zM840 616q23 0 39.5 -16.5t16.5 -39.5v-224q0 -23 -16.5 -39.5t-39.5 -16.5h-56v-280h-112v280h-56v-56q0 -23 -16.5 -39.5t-39.5 -16.5h-56v-168h-112v168h-56q-23 0 -39.5 16.5
t-16.5 39.5v168h-56v-392h-112v392h-56q-23 0 -39.5 16.5t-16.5 39.5v224q0 23 16.5 39.5t39.5 16.5h56v168h112v-168h56q23 0 39.5 -16.5t16.5 -39.5v-168h56v392h112v-392h56v56q0 23 16.5 39.5t39.5 16.5h56v280h112v-280h56zM56 448h224v224h-224v-224zM336 224h224v224
h-224v-224zM616 336h224v224h-224v-224z" />
<glyph unicode="&#xf002;" horiz-adv-x="896" d="M840 896q23 0 39.5 -16.5t16.5 -39.5v-784q0 -23 -16.5 -39.5t-39.5 -16.5h-784q-23 0 -39.5 16.5t-16.5 39.5v784q0 23 16.5 39.5t39.5 16.5h784zM840 56v784h-784v-784h784zM308 700h280v-504h-280v504zM560 448v224h-224v-224h224z" />
<glyph unicode="&#xf003;" horiz-adv-x="896" d="M840 896q23 0 39.5 -16.5t16.5 -39.5v-784q0 -23 -16.5 -39.5t-39.5 -16.5h-784q-23 0 -39.5 16.5t-16.5 39.5v784q0 23 16.5 39.5t39.5 16.5h784zM840 56v784h-784v-784h784zM308 700h280v-504h-280v504zM560 224v224h-224v-224h224z" />
<glyph unicode="&#xf011;" horiz-adv-x="896" d="M452 752q128 0 218 -90t90 -218q0 -85 -43 -158l-134 134l109 74h-180l113 150h-233l-14 -19l-83 83q72 44 157 44zM299 227l190 129l154 -154q-85 -66 -191 -66q-128 0 -218 90t-90 218q0 107 67 190l101 -102l-86 -121h153zM448 896q185 0 316.5 -131.5t131.5 -316.5
t-131.5 -316.5t-316.5 -131.5t-316.5 131.5t-131.5 316.5t131.5 316.5t316.5 131.5zM448 56q162 0 277 114.5t115 277.5q0 162 -115 277t-277 115q-163 0 -277.5 -115t-114.5 -277q0 -163 114.5 -277.5t277.5 -114.5z" />
<glyph unicode="&#xf030;" horiz-adv-x="896" d="M539 784q19 0 34 -15t15 -34v-91h-280v91q0 19 14.5 34t33.5 15h183zM532 700v28h-168v-28h168zM840 700q23 0 39.5 -16.5t16.5 -39.5v-280q0 -33 -28 -49v-259q0 -23 -16.5 -39.5t-39.5 -16.5h-728q-23 0 -39.5 16.5t-16.5 39.5v259q-28 16 -28 49v280q0 23 16.5 39.5
t39.5 16.5h140v35q0 67 47 114t113 47h183q67 0 114 -47t47 -114v-35h140zM812 56v280h-56v-84h-168v84h-280v-84h-168v84h-56v-280h728zM168 280h112v112h-112v-112zM616 280h112v112h-112v-112zM840 364v280h-196v91q0 43 -31 74t-74 31h-183q-43 0 -73.5 -31t-30.5 -74
v-91h-196v-280h84v56h168v-56h280v56h168v-56h84z" />
<glyph unicode="&#xf031;" horiz-adv-x="896" d="M884 190q13 -17 11.5 -38t-15.5 -36l-97 -100q-16 -16 -40 -16q-19 0 -34 12l-147 116q-13 10 -18 24l-41 107l-34 32l-240 -240q-37 -37 -89 -37t-89 37t-37 89t37 89l203 203q-18 10 -36 24q-3 3 -5 4l-165 160q-48 48 -48 115q0 68 48 114q24 24 52 35q29 12 63 12
q64 0 115 -51l102 -106q0 1 1 1l1 2q0 1 1 3.5t2 3.5q8 16 19 31q1 2 5 8q18 22 25 29q16 14 25 22q6 4 8 5q14 10 20 14l2 1q4 2 6 4q20 10 28 13h1l2 1q14 6 28 9q1 0 3.5 1t3.5 1l2 1q4 1 12 2.5t11 1.5h2q1 0 3.5 0.5t3.5 0.5q22 2 30 2h1q3 0 9 -0.5t9 -0.5h3h2
q4 -1 12 -1q21 -4 34 -7q32 -8 40 -40t-14 -54l-111 -110l13 -60l60 -12l110 110q18 16 40 16q4 0 14 -2q32 -8 40 -40q19 -70 0 -140t-70 -121q-18 -16 -31 -26q-1 -1 -3 -2t-3 -2q-17 -12 -31 -19q-1 -1 -2.5 -2t-2.5 -1q-2 -1 -14 -5.5t-18 -6.5q-1 -1 -2 -1l36 -14
q14 -6 25 -18zM252 501q43 -32 73 -32q1 0 3 0.5t3 0.5l69 69q-20 54 -14 114l-148 153q-34 34 -75 34q-46 0 -76 -30q-31 -31 -31 -75q0 -45 31 -76zM189 90l343 343q15 -7 28 -11q2 0 8 -2q13 -4 22 -5q2 0 4 -0.5t4 -0.5q10 -2 29 -2h1q10 0 28 2q4 0 6 1q14 1 28 6
q1 1 2.5 1t2.5 1q16 6 24 10l4 2q12 5 25 15q1 0 3 2t3 2q16 12 23 20q41 41 56 97.5t0 109.5l-132 -131l-126 25l-25 126l131 132q-18 4 -27 5q-4 1 -11 1q-3 0 -8.5 0.5t-8.5 0.5h-1q-8 0 -24 -2q-4 0 -7 -1l-18 -3q-1 0 -3.5 -1t-3.5 -1q-13 -3 -23 -7q-1 0 -1 -1
q-13 -5 -23 -11l-6 -3q-2 -2 -8 -5.5t-8 -5.5q-1 -1 -3 -2.5t-3 -1.5q-17 -15 -20 -18q-11 -11 -20 -23q0 -1 -2 -3t-2 -3q-9 -12 -15 -24q-1 -3 -3 -7q-5 -10 -8 -19q0 -2 -1 -5.5t-2 -5.5t-6 -23q-1 -3 -1 -7.5t-1 -6.5q0 -8 -1 -13v-14q2 -44 17 -79q0 -1 2 -5
q1 -1 1.5 -3.5t0.5 -3.5l-343 -343q-20 -20 -20 -49t20 -50q22 -20 50 -20q29 0 49 20zM743 56l97 100l-114 147l-118 45l-40 43q-16 3 -29 9l-51 -51l63 -58l45 -119z" />
<glyph unicode="&#xf032;" horiz-adv-x="896" d="M798 407q13 -8 33 -26q42 -42 57.5 -100t-0.5 -116q-8 -31 -39 -39q-10 -2 -14 -2q-22 0 -40 16l-81 82l-33 -7l-7 -33l82 -81q22 -22 14 -54q-8 -31 -39 -39q-16 -5 -29 -6q-4 -1 -11 -1h-2h-2q-5 -1 -14 -1h-4q-17 0 -33 3q-2 1 -5 1t-5 1q-16 4 -37 11q-1 0 -1 1l-2 1
q-15 6 -32 16q-2 1 -4 3t-4 3q-18 12 -31 25q-45 45 -59.5 107t5.5 121l-13 13l-13 -13q20 -59 5.5 -121t-59.5 -107q-65 -65 -158 -65q-28 0 -58 8q-31 8 -39 39q-8 32 14 54l82 81l-7 33l-33 7l-81 -82q-18 -16 -40 -16q-4 0 -14 2q-30 8 -40 39q-15 58 0.5 116t57.5 100
q65 65 158 65q34 0 70 -11l13 13l-13 13q-18 -5 -21 -5l-12 -3q-16 -2 -22 -2h-2q-3 -1 -9 -1h-2h-10l-2 1q-10 0 -26 2l-15 3q-16 4 -25 8q-4 1 -14 5q-3 1 -24 13l-2 1q-1 1 -4.5 2.5t-5.5 3.5q-12 8 -32 26q-42 42 -57.5 100t-0.5 115q10 32 40 40q10 2 14 2q22 0 40 -16
l81 -82l33 7l7 33l-82 81q-22 22 -14 54q8 31 39 39q13 4 29 6q3 1 11 1h2h2q5 1 13 1h1h4q18 0 34 -4q1 0 4 -0.5t5 -0.5q16 -4 37 -11q1 0 1 -1l2 -1q16 -6 31 -16l9 -6q18 -12 31 -25q45 -46 59.5 -107.5t-5.5 -120.5l13 -13l13 13q-20 59 -5.5 120.5t59.5 107.5
q65 65 158 65q28 0 58 -8q31 -8 39 -39q8 -32 -14 -54l-82 -81l7 -33l33 -7l81 82q18 16 40 16q4 0 14 -2q31 -8 39 -40q16 -57 0.5 -115t-57.5 -100q-65 -65 -158 -65q-35 0 -70 11l-13 -13l13 -14q8 3 22 7q5 0 11 2q14 2 23 2h2q2 1 8 1h2q6 0 9 -1h2q10 0 28 -2
q4 -1 14 -3q4 -1 25 -8q5 -1 13 -5q5 -2 25 -13l2 -1zM555 791q-41 -40 -48 -96.5t21 -104.5l-60 -60l62 -62l60 60q38 -22 83 -22q70 0 118 49q32 32 43.5 75t0.5 86l-103 -102l-99 19l-19 99l102 102q-21 6 -43 6q-70 0 -118 -49zM341 105q41 40 48 96.5t-21 104.5l60 60
l-62 62l-60 -60q-38 22 -83 22q-70 0 -118 -49q-33 -32 -44.5 -75.5t0.5 -85.5l103 102l98 -20l20 -98l-102 -103q23 -5 43 -5q70 0 118 49zM835 180q11 43 -0.5 86t-43.5 75q-8 10 -24 20q-6 4 -8 5q-3 2 -19 10q-2 0 -5.5 1.5t-4.5 2.5q-11 4 -19 5q-2 1 -5 2t-5 1
q-4 0 -11 1t-10 1h-9h-1h-8q-3 0 -8 -0.5t-8 -1.5q-2 0 -5 -1t-4 -1q-6 -1 -16 -5q-4 0 -8 -2q-13 -5 -23 -11l-79 80l-63 63l-80 79q28 48 21 104.5t-48 96.5q-9 10 -23 19q-2 2 -6 4q-6 4 -25 14h-1q-9 4 -27 8q-2 0 -4 1t-4 1q-18 2 -26 2h-2q-8 0 -12 -1h-10
q-7 -1 -21 -5l102 -102l-20 -99l-98 -19l-103 102q-11 -43 0.5 -86t43.5 -75q8 -10 24 -20q6 -4 8 -5q3 -2 19 -10q2 0 5.5 -2t4.5 -2q12 -4 19 -5q2 -1 5 -2t5 -1q3 0 10 -1t11 -1h9h1h8q3 1 8.5 1.5t8.5 0.5q1 1 4 1.5t4 0.5q4 1 17 5q3 0 7 2q13 5 23 11l142 -143l80 -79
q-28 -48 -21 -104.5t48 -96.5q9 -10 23 -19q1 -1 3 -2.5t3 -2.5q10 -7 25 -13h1q9 -4 27 -8q2 0 4.5 -1t3.5 -1q16 -2 26 -2h2q8 0 12 1h10q3 1 10 2.5t11 1.5l-102 103l20 98l98 20z" />
<glyph unicode="&#xf033;" horiz-adv-x="896" d="M830 381q43 -43 58.5 -101t-0.5 -116q-8 -32 -38 -39q-4 -2 -14 -2q-22 0 -40 16l-81 82l-33 -7l-7 -33l82 -81q22 -23 14 -55q-8 -30 -39 -38q-27 -7 -58 -7q-93 0 -159 64q-51 51 -62 125l-113 -113q-12 -10 -27 -15l-244 -59q-4 -2 -13 -2q-22 0 -40 16q-22 23 -14 53
l59 244q5 15 15 27l113 113q-71 11 -124 62q-42 43 -57.5 101t-0.5 116q10 32 38 39q5 2 15 2q22 0 40 -16l81 -82l33 7l7 33l-82 81q-24 24 -14 54q8 32 39 40q23 6 58 6q93 0 159 -64q51 -51 62 -124l132 133q57 55 133 55t133 -55q55 -55 55 -133t-55 -133l-133 -132
q70 -11 122 -62zM615 801l-16 -15l187 -187l15 16q39 38 39 93t-39 93q-37 39 -93 39q-54 0 -93 -39zM580 766l-174 -174l186 -186l174 174zM56 56l226 55l-171 171zM309 124l180 180l-185 185l-180 -180zM305 528l223 -223q-15 -26 -20 -61q-11 -81 47 -141q51 -49 119 -49
q22 0 43 6l-103 103l20 99l99 20l103 -103q12 42 0.5 85.5t-43.5 76.5q-49 49 -119 49l-21 -2q-33 -3 -62 -20l-223 223q7 11 13 30q5 15 7 32q10 82 -47 140q-51 49 -119 49q-22 0 -43 -6l103 -103l-20 -99l-99 -20l-103 103q-12 -41 -0.5 -85.5t43.5 -76.5q49 -49 119 -49
l22 2q35 5 61 20z" />
<glyph unicode="&#xf034;" horiz-adv-x="896" d="M884 187q13 -17 11.5 -38t-15.5 -36l-97 -97q-16 -16 -40 -16q-19 0 -34 12l-147 113q-16 13 -20 30l-27 95l-175 -174q-12 -10 -27 -15l-244 -59q-4 -2 -13 -2q-22 0 -40 16q-22 23 -14 53l59 244q5 15 15 27l125 125l-153 153q-48 48 -48 115q0 70 47 115q48 48 115 48
q68 0 116 -48l152 -153l145 146q57 55 133 55q77 0 132 -55t55 -133t-55 -133l-194 -194v-1l95 -26q17 -4 30 -19zM615 801l-16 -15l187 -187l15 16q39 38 39 93t-39 93q-37 39 -93 39q-54 0 -93 -39zM580 766l-136 -136q13 -29 13 -56q0 -7 -2 -23l133 -148l178 177z
M87 657l159 -159q12 -10 19 -14q2 -2 4 -2q5 -4 18 -9q17 -6 35 -6q2 0 6.5 0.5t6.5 0.5l93 93q1 4 1 13q0 7 -2 17q-2 12 -4 17q-6 14 -10 21q0 1 -1 1q-5 9 -15 19l-6 7l-153 152q-32 32 -76 32t-75 -31t-31 -76t31 -76zM56 56l226 55l-171 171zM309 124l184 184l-148 133
q-16 -2 -23 -2q-29 0 -56 12l-142 -142zM743 56l97 97l-114 147l-111 31l-178 199l-71 -70l147 -133l41 -37l11 -10l31 -110z" />
<glyph unicode="&#xf035;" horiz-adv-x="896" d="M850 421q46 -41 46 -104v-177q0 -58 -41 -99t-99 -41t-99 41t-41 99v177q0 60 41 99q1 1 2 2.5t2 2.5l10 182l-27 47v-34q0 -23 -16.5 -39.5t-39.5 -16.5h-112v-419q0 -60 -38 -100q-41 -41 -102 -41q-58 0 -99 41t-41 99v420h-140q-23 0 -39.5 16.5t-16.5 39.5v100
q0 30 24 46l88 62q77 54 91.5 63t28.5 9h356q23 0 39.5 -16.5t16.5 -39.5v-9l2 16q3 21 18.5 35t37.5 14h108q21 0 37 -14t18 -35l19 -145q2 -19 -7 -35l-36 -64zM420 141v447h-168v-448q0 -35 24.5 -59.5t59.5 -24.5q39 0 62 25q22 22 22 60zM588 616v224h-356l-176 -124
v-100h532zM702 840l-19 -145l45 -79l-11 -196h77l-10 196l44 79l-18 145h-108zM840 140v177q0 50 -44 74v1h-80q-10 -5 -20 -15q-24 -24 -24 -60v-177q0 -35 24.5 -59.5t59.5 -24.5q36 0 59 25q25 23 25 59z" />
<glyph unicode="&#xf036;" horiz-adv-x="896" d="M759 319q56 0 96 -39.5t41 -94.5q0 -53 -40.5 -90.5t-98.5 -38.5h-1h-4h-536q-15 -28 -48 -28h-8q-15 -28 -48 -28h-56q-23 0 -39.5 16.5t-16.5 39.5v84q0 22 16 40q18 16 40 16h25q-81 73 -81 179v296q0 91 65.5 157t158.5 68h112q162 0 284 -119.5t122 -278.5
q0 -71 -28 -136q34 -8 41 -43h4zM168 84v56h-112v-84h56v28h56zM756 112q34 1 59 21t25 52q-1 32 -24.5 55t-56.5 23h-59v45h-81q67 92 67 190q0 139 -107 240.5t-243 101.5h-112q-69 -2 -118.5 -51t-49.5 -118v-296q0 -71 50 -125t119 -54h475v38h59q21 0 35.5 -14.5
t15.5 -34.5q0 -20 -16 -32t-38 -13h-560v-28h560zM364 672q70 0 119 -49t49 -119t-49 -119t-119 -49t-119 49t-49 119t49 119t119 49zM364 392q46 0 79 33t33 79t-33 79t-79 33t-79 -33t-33 -79t33 -79t79 -33z" />
<glyph unicode="&#xf0d0;" horiz-adv-x="896" d="M476 364h84v-84h-84v84zM616 280v84h84v-84h-84zM252 140v84h392v-84h-392zM784 504v-84h-112v84h112zM336 364h84v-84h-84v84zM280 364v-84h-84v84h84zM840 644q23 0 39.5 -16.5t16.5 -39.5v-532q0 -23 -16.5 -39.5t-39.5 -16.5h-784q-23 0 -39.5 16.5t-16.5 39.5v532
q0 23 16.5 39.5t39.5 16.5h784zM840 56v532h-784v-532h784zM196 504v-84h-84v84h84zM336 504v-84h-84v84h84zM476 504v-84h-84v84h84zM616 504v-84h-84v84h84zM448 896l238 -196h-476z" />
<glyph unicode="&#xf0d1;" horiz-adv-x="896" d="M616 532v84h84v-84h-84zM336 616h84v-84h-84v84zM476 616h84v-84h-84v84zM252 392v84h392v-84h-392zM280 616v-84h-84v84h84zM840 896q23 0 39.5 -16.5t16.5 -39.5v-532q0 -23 -16.5 -39.5t-39.5 -16.5h-784q-23 0 -39.5 16.5t-16.5 39.5v532q0 23 16.5 39.5t39.5 16.5
h784zM840 308v532h-784v-532h784zM336 756v-84h-84v84h84zM196 756v-84h-84v84h84zM476 756v-84h-84v84h84zM616 756v-84h-84v84h84zM784 756v-84h-112v84h112zM448 0l-238 196h476z" />
<glyph unicode="&#xf100;" horiz-adv-x="896" d="M404 532q14 2 16 -14q2 -13 -13 -15q-28 -2 -49 -22t-21 -47q0 -14 -15 -14q-14 0 -14 14q0 38 28.5 66.5t67.5 31.5zM805 483q60 -52 81 -119.5t2.5 -129.5t-59 -115.5t-104 -86t-130.5 -32.5q-43 0 -86 15q-24 8 -62.5 24.5t-71 28t-65.5 15.5q-11 2 -38 5.5t-41.5 6
t-36.5 7.5t-40 12t-35 16q-72 41 -102 126.5t-9 169.5q4 17 12 34t14 28t20.5 29t19.5 23.5t25 26.5t23 24q22 23 36.5 50t29 67.5t22.5 58.5q19 41 50 69q57 60 156 60q88 0 145 -49q43 -30 74 -102q50 -122 77 -182q8 -18 23.5 -31t37 -26t32.5 -23zM595 56q74 0 139 47
t92 120q47 126 -58 218q-1 1 -27 19q-59 35 -80 79q-37 84 -61 144l-17 40q-23 56 -55 79l-2 1l-1 2q-41 35 -109 35q-75 0 -115 -42l-1 -1l-2 -2q-23 -22 -37 -52q-4 -10 -21 -52q-35 -95 -77 -139l-14 -13q-27 -28 -39.5 -42t-27 -38t-20.5 -47q-17 -69 7.5 -136t77.5 -97
q39 -22 140 -36q5 -1 15.5 -2t15.5 -2q57 -8 145 -46q42 -18 64 -26q35 -11 68 -11zM420 616q81 0 138.5 -57.5t57.5 -138.5t-57.5 -138.5t-138.5 -57.5t-138.5 57.5t-57.5 138.5t57.5 138.5t138.5 57.5zM420 252q70 0 119 49t49 119t-49 119t-119 49t-119 -49t-49 -119
t49 -119t119 -49z" />
<glyph unicode="&#xf101;" horiz-adv-x="896" d="M834 896q23 0 42.5 -20t19.5 -43v-550q0 -44 -24 -88t-54.5 -74t-70.5 -58t-60 -39.5t-36 -18.5q-12 -5 -24 -5t-37.5 11.5t-161.5 90t-401 238.5q-27 17 -27 48v91q0 19 11.5 34t29.5 20q10 3 17.5 15.5t7.5 29.5t-7.5 29.5t-17.5 15.5q-18 5 -29.5 20t-11.5 34v163
q0 23 17 40q16 16 39 16h778zM616 56v504q-11 4 -34 14.5t-59.5 27t-64.5 29.5q-19 -39 -63 -39q-29 0 -49.5 20.5t-20.5 49.5q0 14 6 26q-43 20 -137.5 63t-137.5 63v-137q29 -8 47.5 -35.5t18.5 -63.5t-18.5 -63.5t-47.5 -35.5v-91q473 -289 560 -332zM353 662
q0 -17 12.5 -29.5t29.5 -12.5q18 0 30 12.5t12 29.5t-12 29.5t-30 12.5q-17 0 -29.5 -12.5t-12.5 -29.5zM626 590q19 14 44.5 36.5t63 59t64.5 78.5t31 76h-762l280 -128q20 20 48 20q29 0 49.5 -20.5t20.5 -49.5v-3q135 -61 161 -69zM840 280v504q-30 -62 -94.5 -126.5
t-101.5 -90.5v-504q195 108 196 217zM247 516q29 0 49.5 -20.5t20.5 -49.5t-20.5 -49.5t-49.5 -20.5t-49.5 21t-20.5 49q0 29 20.5 49.5t49.5 20.5zM247 404q17 0 29.5 12.5t12.5 29.5t-12.5 29.5t-29.5 12.5t-29.5 -12.5t-12.5 -29.5t12.5 -29.5t29.5 -12.5zM476 387
q28 0 49 -20.5t21 -49.5t-20.5 -49.5t-49.5 -20.5t-49.5 20.5t-20.5 49.5t20.5 49.5t49.5 20.5zM476 275q17 0 29.5 12.5t12.5 29.5t-12.5 29.5t-29.5 12.5t-29.5 -12.5t-12.5 -29.5t12.5 -29.5t29.5 -12.5z" />
<glyph unicode="&#xf102;" horiz-adv-x="896" d="M844 642q22 -25 33.5 -51t17 -49t-1 -51t-12.5 -47.5t-26 -49.5t-32.5 -47t-41 -48.5t-42.5 -45.5l-47 -47q-47 -47 -64 -63.5t-58 -52.5t-65.5 -50t-59.5 -27t-67 -13q-68 0 -123 49q-29 -13 -62 -13q-64 0 -109 45.5t-45 109.5q0 34 13 63q-28 32 -40 66t-12.5 63.5
t14.5 65.5t30 62t47 64t53.5 60t59.5 61q51 51 79.5 77.5t72 60t82.5 48t80 14.5q66 0 123 -49q27 13 62 13q64 0 109 -45.5t45 -109.5q0 -34 -13 -63zM244 657q-43 -44 -67 -69.5t-54.5 -62.5t-42.5 -63.5t-20 -57.5t1.5 -59t33.5 -55l9 -9l510 514l-9 9q-40 36 -87 36
q-59 0 -119 -44t-155 -139zM193 92q40 0 69 29l510 514q29 29 29 70t-29 70t-69 29t-69 -29l-511 -514q-28 -30 -28 -70q0 -41 28.5 -70t69.5 -29zM652 246q38 39 57.5 59t49 53.5t42 54t26 49t12.5 50t-9.5 46.5t-28.5 48l-9 9l-510 -514l9 -9q40 -36 87 -36q25 0 53 11
t49.5 24t56.5 44t54 49.5t61 61.5zM280 308v-28h28v-28h-28v-28h-28v28h-28v28h28v28h28zM448 476v-28h28v-28h-28v-28h-28v28h-28v28h28v28h28zM616 644v-28h28v-28h-28v-28h-28v28h-28v28h28v28h28z" />
<glyph unicode="&#xf113;" horiz-adv-x="896" d="M568 729q10 -17 -1 -36q-13 -21 -25 -21h-188q-14 0 -25 20q-11 17 -1 34l29 64q11 22 26 22h130q15 0 26 -22zM354 700h188l-29 84h-130zM879 526q17 -31 17 -62q0 -34 -17 -63q17 -31 17 -63q0 -34 -17 -63q17 -31 17 -62q0 -67 -66.5 -116.5t-166.5 -73t-215 -23.5
t-215 23.5t-166.5 73t-66.5 116.5q0 31 17 62q-17 29 -17 63q0 32 17 63q-17 29 -17 63q0 31 17 62q-17 30 -17 63q0 63 62 114q1 1 2.5 2t2.5 1q16 78 128 134t253 56q144 0 255.5 -56t125.5 -134q1 0 2 -1l2 -1q63 -51 63 -115q0 -34 -17 -63zM121 688q-1 -21 14 -34
t32.5 -19t31.5 -22.5t13 -43.5q-28 -226 -28 -245q0 -28 20.5 -45.5t39.5 -17.5q18 0 35 17.5t17 45.5q0 15 -4.5 40t-10.5 50.5t-12 54t-8.5 52.5t-1 43.5t11 31t27.5 11.5h7q33 -6 68 -9q42 -3 22 -74q-22 -74 -22 -88q0 -25 15.5 -42.5t37.5 -17.5t37 17.5t15 42.5
q0 24 -28 114q-7 43 32 45q293 11 293 93q0 54 -98.5 103t-228.5 49q-129 0 -227 -49t-100 -103zM367 532q8 26 5 37h-1q-38 3 -70 9h-3q-4 0 -5 -1q-15 -19 12 -134q26 -4 39 -5q1 20 17 72q4 14 6 22zM97 659q-41 -33 -41 -70q0 -32 30.5 -61t85.5 -50q2 21 6 52.5t5 40.5
q1 16 -6 23t-27 17q-43 21 -53 48zM66 499q-10 -18 -10 -35q0 -61 102 -106q1 11 4 40t5 45q-63 23 -101 56zM448 56q162 0 277 46t115 111q0 16 -10 36q-54 -49 -159.5 -75.5t-222.5 -26.5t-222.5 26.5t-159.5 75.5q-10 -20 -10 -36q0 -65 114.5 -111t277.5 -46zM448 181
q106 0 196.5 21t143 57.5t52.5 78.5q0 18 -10 36q-54 -49 -159.5 -75.5t-222.5 -26.5q-67 0 -133 9q-10 -22 -30 -35.5t-41 -13.5q-31 0 -59.5 25.5t-29.5 64.5q-56 23 -89 52q-10 -18 -10 -36q0 -42 52.5 -78.5t142.5 -57.5t197 -21zM448 307q162 0 277 46t115 111
q0 17 -10 35q-49 -42 -138 -68.5t-192 -31.5q-10 -24 -30 -38.5t-44 -14.5q-26 0 -46.5 16t-29.5 41q-24 2 -37 4q12 -53 12 -83v-9q62 -8 123 -8zM507 434q143 9 238 53t95 102q0 37 -42 71q-35 -83 -315 -94q-4 0 -5 -1v-9q29 -95 29 -120v-2z" />
<glyph unicode="&#xf120;" horiz-adv-x="896" d="M875 476l15 -31q18 -37 -10 -65l-56 -56q-16 -16 -40 -16t-40 16l-3 4l-398 -316q-17 -12 -35 -12q-24 0 -40 16l-252 252q-15 15 -16 36.5t12 38.5l316 398l-4 3q-16 16 -16 40t16 40l56 56q18 16 40 16q13 0 25 -6l31 -15l31 15q12 6 25 6q22 0 40 -16l308 -308
q13 -13 15.5 -31t-5.5 -34zM308 56l114 90l-276 276l-90 -114zM444 164l134 106l-308 308l-106 -134zM600 287l114 91l-336 336l-93 -117zM840 420l-28 56l28 56l-308 308l-56 -28l-56 28l-56 -56l420 -420z" />
<glyph unicode="&#xf121;" horiz-adv-x="896" d="M871 750q25 -25 25 -59q0 -30 -22 -54q-23 -21 -53 -21q-8 0 -11 1l-77 -114q39 -135 -47 -221l-249 -249q-35 -33 -83 -33q-59 0 -104 45l-205 205q-41 41 -44.5 96t32.5 91l249 249q27 27 60 42q2 60 44 102q45 45 108 45q64 0 109 -45q7 -7 13 -16q-3 35 22 60
q22 22 53 22q34 0 59 -25zM290 614l-149 -148l325 -325l148 149zM397 73l49 49l-325 324l-49 -49q-19 -20 -15.5 -51t27.5 -56l206 -206q30 -28 64 -28q27 0 43 17zM672 512l98 146l-112 112l-68 -35q-3 32 -27 56q-30 28 -69 28q-38 0 -68 -28q-44 -44 -22 -102
q-47 -7 -83 -43l-12 -12l325 -325l12 12q24 24 35 49.5t8.5 55.5t-5.5 43t-12 43zM835 677q5 7 5 14q0 11 -9 19l-121 121q-8 9 -19 9q-7 0 -14 -5q-14 -16 3 -33l122 -121q8 -9 19 -9q7 0 14 5zM532 724q0 16 -11 27.5t-28 11.5q-16 0 -27 -11.5t-11 -27.5t11 -27t27 -11
t27.5 11t11.5 27z" />
<glyph unicode="&#xf122;" horiz-adv-x="896" d="M871 777q24 -24 25 -57.5t-22 -55.5q-15 -16 -38 -21l-1 -1l-140 -166q19 -102 -49 -170l-271 -271q-35 -35 -87 -35q-64 0 -110 48l-130 130q-48 46 -48 110q0 52 35 87l271 270q51 53 133 53q19 0 37 -3l166 140q1 0 1 1q5 22 21 38q22 22 54 22q33 0 60 -25zM155 415
l260 -260l150 150l-260 260zM335 75l60 60l-260 260l-60 -60q-22 -22 -18 -56.5t31 -60.5l130 -130q30 -32 70 -32q28 0 47 19zM634 491l157 187l-113 113l-187 -157q-27 8 -52 8q-57 0 -93 -37l-21 -20l260 -260l21 21q56 56 28 145zM834 703q7 7 6 16.5t-9 17.5l-93 94
q-10 8 -20 8t-14 -5q-7 -6 -6 -16t9 -18l93 -93q9 -9 20 -9q7 0 14 5z" />
<glyph unicode="&#xf123;" horiz-adv-x="896" d="M896 757v-28q0 -23 -16 -39l-39 -39q-16 -16 -39 -16h-5l-59 -59q22 -56 8.5 -114.5t-61.5 -106.5l-323 -322q-33 -33 -85 -33q-69 0 -117 48l-111 112q-41 40 -48 99.5t32 102.5l322 322q68 68 151 68q36 0 70 -14l60 60q-1 1 -1 4q0 24 17 39l38 39q16 16 39 16h28
q23 0 39 -16l84 -84q16 -16 16 -39zM345 596l-190 -190l251 -251l190 190zM323 72l64 64l-251 251l-64 -64q-21 -23 -15 -61t31 -63l111 -111q33 -33 78 -33q29 0 46 17zM671 587l98 98l-84 84l-98 -98q-38 25 -81 25q-61 0 -112 -51l-29 -30l251 -251l29 30q43 42 50 93
t-24 100zM841 729l-14 14l14 14l-84 84l-14 -14l-14 14l-38 -39l111 -111z" />
<glyph unicode="&#xf124;" horiz-adv-x="896" d="M840 896q23 0 39.5 -16.5t16.5 -39.5v-56q0 -23 -16.5 -39.5t-39.5 -16.5h-57l-51 -121l120 -119q16 -17 16 -40.5t-16 -39.5l-56 -56q-16 -16 -40 -16q-18 0 -31 9l-410 -333q-15 -12 -35 -12q-24 0 -40 16l-224 224q-15 16 -16 37t12 38l333 410q-24 38 7 71l56 56
q18 16 40 16t40 -16l116 -117l54 127q15 34 51 34h131zM280 56l426 346l-304 304l-346 -426zM756 392l56 56l-364 364l-56 -56zM646 693l43 -43l47 110l-37 56zM840 784v56h-123l37 -56h86z" />
<glyph unicode="&#xf125;" horiz-adv-x="896" d="M880 479l-434 -433q-48 -46 -109 -46q-57 0 -95 38l-204 204q-40 41 -38 100.5t46 103.5l433 434q18 16 40 16t40 -16l321 -322q16 -16 16 -39t-16 -40zM406 86l434 433l-321 321l-434 -434q-27 -27 -29 -63.5t22 -60.5l203 -204q22 -22 56 -22q41 0 69 30zM761 519
l-394 -394q-15 -13 -30 -13q-10 0 -16 5l-204 204q-7 6 -5 20.5t13 25.5l221 221h346zM252 420v-84h84v84h-84zM339 168l60 59l-60 60l-59 -60zM415 420l-23 -81l81 -23l23 80z" />
<glyph unicode="&#xf126;" horiz-adv-x="896" d="M546 754q13 -13 15 -31.5t-8 -33.5q-18 -12 -35 -12h-2q-8 1 -50 7q-11 14 -11 33q0 22 16 37q16 16 37 16q22 0 38 -16zM546 754q13 -13 15 -31.5t-8 -33.5q-18 -12 -35 -12h-2q-8 1 -50 7q-11 14 -11 33q0 22 16 37q16 16 37 16q22 0 38 -16zM546 754q13 -13 15 -31.5
t-8 -33.5q-18 -12 -35 -12h-2q-8 1 -50 7q-11 14 -11 33q0 22 16 37q16 16 37 16q22 0 38 -16zM880 740q16 -16 16 -40t-16 -40l-54 -53v-6q0 -31 -22 -55q-16 -16 -56 -21q-8 0 -11 -1q-4 -4 -4 -6q0 -4 1.5 -14t1.5 -13q2 -37 5 -78.5t-14.5 -95t-55.5 -92.5l-186 -185
q-40 -40 -99 -40q-81 0 -149 68l-169 169q-59 59 -67 130t39 118l185 186q50 50 117 67q8 57 48 97q47 49 118 49q57 0 109 -48l43 44q18 16 40 16t40 -16zM764 586q6 6 6 15q0 4 -3 7l-178 178q-42 42 -81 42q-46 0 -79 -33q-44 -44 -29 -105h-1q-75 0 -134 -59l-186 -185
q-30 -35 -20.5 -82t49.5 -87l169 -169q50 -52 109 -52q36 0 60 23l185 186q28 28 41 68t13 68t-4 69t-4 46q0 25 26 54q8 8 33 10.5t28 5.5zM784 644l56 56l-140 140l-56 -56z" />
<glyph unicode="&#xf140;" horiz-adv-x="896" d="M588 420v-280h-448v280h448zM588 532v-28h-448v28h448zM840 896q23 0 39.5 -16.5t16.5 -39.5v-784q0 -23 -16.5 -39.5t-39.5 -16.5h-784q-23 0 -39.5 16.5t-16.5 39.5v784q0 23 16.5 39.5t39.5 16.5h784zM672 56v560h-616v-560h616zM672 644v196h-616v-196h616zM840 56
v560h-140v-560h140zM840 644v196h-140v-196h140zM140 742q0 -17 12.5 -29.5t29.5 -12.5t29.5 12.5t12.5 29.5t-12.5 29.5t-29.5 12.5t-29.5 -12.5t-12.5 -29.5zM252 742q0 -17 12.5 -29.5t29.5 -12.5t29.5 12.5t12.5 29.5t-12.5 29.5t-29.5 12.5t-29.5 -12.5t-12.5 -29.5z
M392 742q0 -17 12.5 -29.5t29.5 -12.5t29.5 12.5t12.5 29.5t-12.5 29.5t-29.5 12.5t-29.5 -12.5t-12.5 -29.5zM504 742q0 -17 12.5 -29.5t29.5 -12.5t29.5 12.5t12.5 29.5t-12.5 29.5t-29.5 12.5t-29.5 -12.5t-12.5 -29.5z" />
<glyph unicode="&#xf160;" horiz-adv-x="896" d="M840 700q23 0 39.5 -16.5t16.5 -39.5q0 -5 -2 -13l-110 -588q-4 -19 -19.5 -30.5t-34.5 -11.5l-531 -1q-19 0 -34.5 12t-20.5 31l-142 588q-8 25 10 48q18 21 44 21h168v112q0 34 25 59t59 25h301q35 0 59.5 -25t24.5 -59v-112h147zM280 812v-112h357v112q0 11 -8.5 19.5
t-19.5 8.5h-301q-11 0 -19.5 -8.5t-8.5 -19.5zM199 56h315l-141 578l-2 10h-315zM401 644l134 -550l76 214l-95 224l112 112h-227zM554 56h163l-89 210zM737 88l103 556h-147v-154q0 -12 -8.5 -20t-19.5 -8q-12 0 -20 8t-8 20v117l-86 -85z" />
<glyph unicode="&#xf161;" horiz-adv-x="896" d="M896 840v-784q0 -23 -16.5 -39.5t-39.5 -16.5h-784q-23 0 -39.5 16.5t-16.5 39.5v784q0 35 30 49q11 7 26 7q18 0 31 -9l33 -23l33 23q15 9 31 9q17 0 32 -9l33 -23l33 22q13 10 31 10t31 -10l32 -21l32 21q13 10 31 10q19 0 32 -10l29 -20l27 19q16 11 33 11h28
q18 0 31 -10l28 -18l16 14q16 14 37 14h28q21 0 37 -14l16 -14l28 18q13 10 31 10q15 0 26 -7q30 -15 30 -49zM560 56v784l-59 -43l-62 43l-63 -43l-63 43l-64 -43l-65 43l-64 -43l-64 43v-784h504zM840 79v761l-63 -43l-49 43v-611zM714 201l-109 -145h217zM700 229v611
l-49 -43l-63 43v-761z" />
<glyph unicode="&#xf1f0;" horiz-adv-x="896" d="M308 336h-252q-37 0 -52 35q-14 35 12 61l17 16l-17 16q-16 16 -16 40t16 40l17 16l-17 16q-16 16 -16 40t16 40l17 16l-17 16q-16 16 -16 40t16 40l17 16l-17 16q-26 26 -12 61q15 35 52 35h370h1q1 0 6 -0.5t8 -0.5l1 -1q17 -2 34 -8.5t38 -21t33.5 -42.5t12.5 -66
v-112h280q23 0 39.5 -16.5t16.5 -39.5t-17 -40l-29 -30l29 -27q17 -17 17 -40q0 -24 -17 -41l-27 -25l27 -26q17 -15 17 -40t-17 -40l-27 -26l27 -25q17 -17 17 -40q0 -24 -17 -41l-27 -25l27 -26q27 -25 13 -61q-15 -35 -52 -35h-398q-67 0 -100.5 44.5t-33.5 95.5v196z
M413 616h91v168q-3 -31 -25.5 -52t-53.5 -21h-12q-21 0 -34.5 -13t-14.5 -33q0 -21 14 -34.5t35 -14.5zM336 672q1 32 22 50t55 18h14q20 0 34 15t15 36q0 20 -14.5 34t-34.5 15h-371l56 -56l-56 -56l56 -56l-56 -56l56 -56l-56 -56l56 -56l-56 -56h56h224v280zM840 451
l-69 65l69 72h-420q-16 0 -27.5 3t-16.5 7t-8 8t-4 7v3v-476q0 -3 0.5 -9t4.5 -20.5t11.5 -25.5t23.5 -20t38 -9h398l-69 66l69 66l-69 65l69 66l-69 66z" />
<glyph unicode="&#xf1f1;" horiz-adv-x="896" d="M896 644q0 -22 -16 -40l-26 -25l26 -26q16 -18 16 -40q0 -23 -16 -39l-26 -26l26 -26q16 -16 16 -39q0 -24 -16 -40l-26 -26l26 -25q16 -18 16 -40t-16 -40l-26 -25l26 -26q16 -18 16 -40q0 -23 -16 -39l-66 -66q-8 -8 -18 -12q-9 -4 -21 -4q-24 0 -40 16l-26 26l-25 -26
q-10 -8 -19 -12q-8 -4 -21 -4q-22 0 -40 16l-25 26l-26 -26q-16 -16 -40 -16q-23 0 -39 16l-26 26l-26 -26q-8 -8 -18 -12q-9 -4 -21 -4q-24 0 -40 16l-26 26l-25 -26q-10 -8 -19 -12q-8 -4 -21 -4q-22 0 -40 16l-25 26l-26 -26q-16 -16 -40 -16q-23 0 -39 16l-66 66
q-16 16 -16 39q0 22 16 40l26 26l-26 25q-16 18 -16 40t16 40l26 25l-26 26q-16 16 -16 40q0 23 16 39l26 26l-26 26q-16 16 -16 39q0 22 16 40l26 26l-26 25q-16 18 -16 40t16 40l26 25l-26 26q-16 18 -16 40q0 23 16 39l66 66q18 16 39 16q22 0 40 -16l26 -26l25 26
q10 8 19 12q12 4 21 4q22 0 40 -16l25 -26l26 26q7 8 18 12q14 4 22 4q23 0 39 -16l26 -26l26 26q18 16 39 16q22 0 40 -16l26 -26l25 26q10 8 19 12q12 4 21 4q22 0 40 -16l25 -26l26 26q16 16 40 16q23 0 39 -16l66 -66q16 -16 16 -39q0 -22 -16 -40l-26 -26l26 -25
q16 -18 16 -40zM840 644l-65 65l65 66l-65 65l-66 -65l-65 65l-65 -65l-66 65l-65 -65l-65 65l-66 -65l-65 65l-65 -65l-66 65l-65 -65l65 -66l-65 -65l65 -65l-65 -66l65 -65l-65 -65l65 -66l-65 -65l65 -65l-65 -66l65 -65l66 65l65 -65l65 65l66 -65l65 65l65 -65l66 65
l65 -65l65 65l66 -65l65 65l-65 66l65 65l-65 65l65 66l-65 65l65 65l-65 66z" />
<glyph unicode="&#xf1f2;" horiz-adv-x="896" d="M840 896q23 0 39.5 -16.5t16.5 -39.5v-784q0 -23 -16.5 -39.5t-39.5 -16.5h-784q-23 0 -39.5 16.5t-16.5 39.5v784q0 23 16.5 39.5t39.5 16.5h784zM336 840v-420h56v420h-56zM196 840v-420h56v420h-56zM56 840v-420h56v420h-56zM476 56v56h-420v-56h420zM476 196v56h-420
v-56h420zM476 336v56h-420v-56h420zM560 56v420h-56v-420h56zM700 56v420h-56v-420h56zM840 56v420h-56v-420h56zM840 504v56h-420v-56h420zM840 644v56h-420v-56h420zM840 784v56h-420v-56h420z" />
<glyph unicode="&#xf1f3;" horiz-adv-x="896" d="M896 722q0 -12 -3 -21t-14 -24.5t-42.5 -29t-80.5 -23.5v-353q140 -25 140 -98v-52q0 -10 -1 -16.5t-9.5 -20.5t-24.5 -23.5t-49 -22t-79 -20t-119.5 -13t-165.5 -5.5t-165.5 5.5t-119.5 13t-79 20t-49 22t-24.5 23.5t-9.5 20.5t-1 16.5v52q0 24 13.5 42t39 29t43.5 16.5
t44 10.5v353q-49 10 -80.5 23.5t-42.5 29t-14 24.5t-3 21v52q0 10 1 16.5t9.5 20.5t24.5 24t49 22.5t79 20t119.5 13t165.5 5.5t165.5 -5.5t119.5 -13t79 -20t49 -22.5t24.5 -24t9.5 -20.5t1 -16.5v-52zM840 173q0 26 -102 44q-4 -38 -100 -55q-83 -13 -190 -13
q-106 0 -189 13q-97 17 -101 55q-102 -18 -102 -44v-52q0 -27 115 -46t277 -19t277 19t115 46v52zM455 509q-133 0 -259 30q90 -73 196 -123q44 -2 62 -2q159 0 246 28v94q-84 -27 -245 -27zM196 572q130 -34 263 -34q154 0 241 28v78q-87 -17 -252 -17t-252 17v-72z
M700 412q-83 -25 -244 -27q116 -44 244 -58v85zM325 423q-6 4 -26 14.5t-30.5 17t-26 16.5t-27 19.5t-19.5 19.5v-62q30 -12 129 -25zM391 388q-113 6 -195 30v-94q130 -34 268 -34q91 0 187 16q-134 22 -260 82zM459 261q-131 0 -263 33v-72q0 -18 72.5 -31t179.5 -13
t179.5 13t72.5 31v66q-89 -27 -241 -27zM448 656q162 0 277 19.5t115 46.5v52q0 27 -115 46.5t-277 19.5t-277 -19.5t-115 -46.5v-52q0 -27 115 -46.5t277 -19.5zM532 768q0 7 -24.5 12.5t-59.5 5.5t-59 -5.5t-24 -12.5t24 -12.5t59 -5.5t59.5 5.5t24.5 12.5z" />
<glyph unicode="&#xf1f4;" horiz-adv-x="896" d="M882 28q14 0 14 -14t-14 -14h-174q-32 1 -55 23.5t-23 54.5q0 31 23.5 53.5t55.5 22.5h7q20 0 35 14.5t16 34.5q0 20 -14.5 34.5t-35.5 14.5v0h-55q-54 -57 -126 -89t-153 -32q-158 0 -270.5 112t-112.5 270t112.5 270.5t270.5 112.5t270 -112.5t112 -270.5
q0 -127 -76 -228h28q17 -1 32 -6.5t31 -25t16 -50.5q0 -32 -23.5 -54.5t-56.5 -22.5h-7q-20 0 -34.5 -14t-15.5 -34q0 -20 14.5 -34.5t34.5 -15.5h174zM698 599l-1 -1q-59 -86 -138 -159q81 31 150 89q-1 34 -11 71zM686 634q-18 44 -42 75q-138 -98 -285 -102
q19 -47 51 -85q146 10 266 97q1 2 4.5 7t5.5 8zM626 732q-35 38 -80 65q-113 -59 -216 -59q5 -59 19 -101q6 1 19 0t42 4.5t60.5 14t73.5 28.5t82 48zM332 836q-3 -32 -3 -69q92 4 183 46q-62 27 -129 27q-28 0 -51 -4zM302 830q-60 -16 -111 -53q-4 -136 79 -246
q47 -10 102 -10h2q-90 120 -72 309zM162 754q-62 -59 -89 -139q75 -51 155 -74q-62 96 -66 213zM56 513v-2q72 -55 143.5 -81t172.5 -26q60 0 119 14q75 61 138 137q-121 -63 -257 -63q-169 0 -307 94q-9 -43 -9 -73zM89 372q99 -64 215 -79q71 39 137 87q-37 -5 -69 -5
q-170 0 -313 98l5 -28q9 -40 25 -73zM119 321q35 -47 82 -78q28 12 63 29q-92 22 -145 49zM231 224q56 -29 115 -35q29 32 41 71q-5 -1 -15 -1q-21 0 -63 4q-36 -20 -78 -39zM534 223q10 32 15 65q-63 -21 -132 -27q-7 -37 -35 -74h1q81 0 151 36zM571 247q54 38 88 92
q-33 -20 -80 -39q0 -18 -8 -53zM372 288q174 0 315 106q18 45 21 96q-90 -70 -204 -99q-70 -56 -148 -102q3 0 8.5 -0.5t7.5 -0.5z" />
<glyph unicode="&#xf1f5;" horiz-adv-x="896" d="M880 175q16 -17 16 -40t-16 -39l-79 -79q-15 -17 -40 -17q-24 0 -39 17l-274 273l-273 -274q-16 -16 -40 -16q-23 0 -39 16l-79 79q-17 15 -17 40q0 24 17 39l274 274l-89 89q-8 7 -12 18q-25 60 -35 80q-2 0 -4 -2q-10 -3 -19 -3q-22 0 -40 16l-30 30q-12 12 -25.5 34
t-26 51t-10.5 60t23 52q23 23 58 23t77 -20.5t63 -42.5l228 -227l88 88q7 8 18 12q60 25 80 35q0 2 -2 4q-11 35 13 59l30 30q22 22 63 42t75 20q36 0 59 -23t23 -58t-20.5 -77t-42.5 -63l-227 -227zM242 576l107 -107l79 78l-246 246q-15 15 -47 31t-54 16q-12 0 -19 -7
q-14 -14 3 -55.5t37 -61.5l30 -30l5 58q0 14 10 14q9 0 33 -45.5t43 -90.5zM135 56l658 658q20 20 37.5 62.5t2.5 57.5q-6 6 -19 6q-22 0 -53 -15.5t-45 -30.5l-30 -30l58 -5q14 0 14 -9q0 -10 -45.5 -34t-90.5 -43l-46 -19l-520 -519zM761 56l79 79l-292 292l-79 -78z" />
<glyph unicode="&#xf1f6;" horiz-adv-x="896" d="M822 191l63 -83q12 -16 10.5 -37.5t-15.5 -35.5l-19 -19q-16 -16 -39 -16q-18 0 -34 11l-82 62q-1 1 -3 2.5t-3 2.5l-252 252l-251 -251q-4 -4 -6 -5l-83 -63q-16 -11 -34 -11q-23 0 -39 16l-19 19q-14 14 -16 35t11 38l62 82q1 1 2.5 3t2.5 3l252 252l-171 171
q-20 1 -36 16l-42 42q-21 2 -35 16l-30 30q-16 16 -16 39.5t16 39.5l78 78q18 16 40 16q21 0 39 -16l30 -30q14 -14 16 -35l42 -42q15 -16 16 -36l171 -171l171 171q1 20 16 36l42 42q2 21 16 35l30 30q18 16 39 16q22 0 40 -16l78 -78q16 -17 16 -40t-16 -39l-30 -30
q-14 -14 -35 -16l-42 -42q-16 -14 -36 -16l-171 -171l251 -251q4 -4 5 -6zM742 801l-67 -68l58 -58l68 67l10 -9l29 29l-78 78l-29 -29zM95 742l68 -67l58 58l-68 68l10 10l-29 29l-78 -78l29 -29zM193 664l195 -196l39 40l-195 195zM157 118l546 546l-39 39l-546 -546
l-62 -83l18 -18zM822 56l18 18l-62 83l-270 270l-39 -39l270 -270z" />
<glyph unicode="&#xf1f7;" horiz-adv-x="896" d="M868 735v-595q0 -9 -3 -18l-28 -84q-13 -38 -53 -38h-28q-26 0 -42 19q-16 -19 -42 -19h-140q-23 0 -39.5 16.5t-16.5 39.5v56q0 32 28 48v417q-10 -9 -30 -21q-28 -15 -59 -18l-21 -71q31 -49 48.5 -100.5t22 -91.5t0 -81.5t-11.5 -68t-19.5 -53.5t-17 -34t-9.5 -15
q-18 -23 -46 -23q-6 0 -9 1q-34 5 -44 39l-22 70l-21 -70q-10 -34 -45 -39q-3 -1 -9 -1q-29 0 -45 23q-6 8 -16 25t-25 62t-19.5 93t10.5 117t55 135q3 6 8 11l-22 72q-29 3 -58 18q-67 37 -90 114q-22 71 8 135.5t94 84.5q5 2 26 5q6 1 17 1q37 0 75 -19q33 -17 59 -50
q24 32 59 50q36 19 73 19q11 0 16 -1q11 -1 26 -5q41 -12 69 -45l4 13q5 17 20 27.5t33 10.5h27q27 0 42 -20q18 20 43 20h140q23 0 39.5 -16.5t16.5 -39.5v-56q0 -33 -28 -49zM211 56l60 198l-52 172q-35 -58 -48.5 -117.5t-8 -103t16 -78.5t21.5 -53zM511 686
q15 50 -4 93.5t-61 56.5q-7 3 -16 3q-3 1 -10 1q-24 0 -47 -12q-48 -26 -64 -81q-6 -19 -6 -48v-4q7 -76 -7 -139q-5 -15 -10 -25q-6 16 -9 25q-10 38 -2 139v5q0 25 -7 47q-16 53 -66 81q-22 12 -48 12q-7 0 -10 -1q-10 0 -17 -3q-42 -13 -61 -56.5t-4 -93.5q16 -55 64 -81
q21 -12 47 -12h10q10 2 15 4l163 -541q5 7 13 20.5t21.5 56.5t15.5 87.5t-16 110t-62 127.5l41 139q6 -2 16 -4h10q24 0 47 12q48 26 64 81zM560 756v-504h84v504l-28 84h-28zM672 56v56h-28v112h-84v-112h-28v-56h140zM812 140v504h-84v-504l28 -84h28zM840 784v56h-140
v-56h28v-112h84v112h28zM182 651q19 5 27 29t0 50q-9 33 -36 48q-8 5 -21 5h-4q-3 0 -5 -1q-19 -6 -27 -29.5t0 -50.5q9 -32 36 -47q10 -6 21 -6q2 0 3 1q4 0 6 1zM457 702q8 27 0 50.5t-27 29.5q-2 1 -6 1h-4q-12 0 -20 -5q-26 -14 -37 -48q-8 -26 0 -50t27 -29q2 -1 6 -1
q1 -1 4 -1q10 0 20 6q26 14 37 47z" />
<glyph unicode="&#xf1f8;" horiz-adv-x="896" d="M532 420q23 0 39.5 -16.5t16.5 -39.5t-16.5 -39.5t-39.5 -16.5t-39.5 16.5t-16.5 39.5t16.5 39.5t39.5 16.5zM364 588q23 0 39.5 -16.5t16.5 -39.5t-16.5 -39.5t-39.5 -16.5t-39.5 16.5t-16.5 39.5t16.5 39.5t39.5 16.5zM532 588q23 0 39.5 -16.5t16.5 -39.5t-16.5 -39.5
t-39.5 -16.5t-39.5 16.5t-16.5 39.5t16.5 39.5t39.5 16.5zM364 420q23 0 39.5 -16.5t16.5 -39.5t-16.5 -39.5t-39.5 -16.5t-39.5 16.5t-16.5 39.5t16.5 39.5t39.5 16.5zM448 896q185 0 316.5 -131.5t131.5 -316.5t-131.5 -316.5t-316.5 -131.5t-316.5 131.5t-131.5 316.5
t131.5 316.5t316.5 131.5zM448 56q162 0 277 114.5t115 277.5q0 162 -115 277t-277 115q-163 0 -277.5 -115t-114.5 -277q0 -163 114.5 -277.5t277.5 -114.5zM448 784q140 0 238 -98t98 -238t-98 -238t-238 -98t-238 98t-98 238t98 238t238 98zM448 140q128 0 218 90t90 218
t-90 218t-218 90t-218 -90t-90 -218t90 -218t218 -90z" />
<glyph unicode="&#xf1f9;" horiz-adv-x="896" d="M532 112h-168v112h168v-112zM378 756h140q16 16 38 33q10 9 40 30q24 16 43 25q27 14 47 21q11 5 48 16l12 3q12 2 23 4.5t15 2.5q16 3 50 5h3q22 0 38 -15.5t18 -38.5l3 -80q1 -23 -15 -40t-39 -18q-29 -1 -55.5 -6.5t-45.5 -13.5t-35 -17.5t-27 -19.5t-18.5 -17.5
t-12.5 -13.5l-4 -5v-555q0 -23 -16.5 -39.5t-39.5 -16.5h-280q-23 0 -39.5 16.5t-16.5 39.5v555l-4 5q-5 6 -12.5 13.5t-18.5 17.5t-27 19.5t-35.5 17.5t-46 13.5t-55.5 6.5q-23 1 -38.5 18t-14.5 40l3 80q1 22 17 38t39 16h2q34 -2 51 -5q4 0 15 -2.5t23 -4.5l12 -3
q32 -10 48 -16q27 -10 46 -21q19 -9 44 -25q30 -21 40 -30q22 -17 38 -33zM92 756l12 80q-15 2 -45 4l-3 -80q24 -2 36 -4zM161 738l29 75q-28 10 -43 14l-20 -78q15 -4 34 -11zM225 705l44 67q-22 14 -38 22l-37 -71q6 -3 31 -18zM281 659l56 57q-5 5 -32 30l-51 -63
q14 -11 27 -24zM504 588h-112v-140h-84v-392h280v392h-84v140zM525 700h-154l-63 -63v-133h56v112h168v-112h56v133zM615 659q13 13 27 24l-51 63q-4 -3 -10.5 -9t-12 -11t-10.5 -10zM671 705q25 15 31 18l-37 71q-16 -8 -38 -22zM735 738q22 8 34 11l-21 78q-14 -4 -42 -14
zM804 756q12 2 36 4l-3 80q-30 -2 -45 -4z" />
<glyph unicode="&#xf300;" horiz-adv-x="896" d="M560 756q59 0 85.5 -20.5t26.5 -63.5v-168h-267l49 50q17 -5 31 -5q39 0 67 27q19 19 24.5 45.5t-4.5 50.5l-57 -56l-48 5l-5 47l57 57q-17 5 -32 5q-39 0 -65 -26q-20 -19 -25.5 -46.5t4.5 -51.5l-103 -102h-74v168q0 43 25.5 63.5t86.5 20.5h224zM168 420
q23 0 39.5 -16.5t16.5 -39.5t-16.5 -39.5t-39.5 -16.5t-39.5 16.5t-16.5 39.5t16.5 39.5t39.5 16.5zM728 420q23 0 39.5 -16.5t16.5 -39.5t-16.5 -39.5t-39.5 -16.5t-39.5 16.5t-16.5 39.5t16.5 39.5t39.5 16.5zM812 535q84 -64 84 -199v-112q0 -23 -16.5 -39.5t-39.5 -16.5
v-63q0 -46 -32 -75.5t-80 -29.5t-80 29.5t-32 75.5v63h-336v-63q0 -46 -32 -75.5t-80 -29.5t-80 29.5t-32 75.5v63q-23 0 -39.5 16.5t-16.5 39.5v112q0 135 84 199v137q0 37 4 66t18 60t37.5 51.5t65.5 33.5t99 13h280q57 0 99 -13t65.5 -33.5t37.5 -51.5t18 -60t4 -66v-137
zM224 105v91h-112v-91q0 -24 16.5 -36.5t39.5 -12.5t39.5 12.5t16.5 36.5zM784 105v91h-112v-91q0 -24 16.5 -36.5t39.5 -12.5t39.5 12.5t16.5 36.5zM840 224v112q0 126 -84 168v168q0 90 -34 129t-134 39h-280q-100 0 -134 -39t-34 -129v-168q-84 -42 -84 -168v-112h784z
" />
<glyph unicode="&#xf301;" horiz-adv-x="896" d="M420 266q23 0 39.5 -16.5t16.5 -39.5t-16.5 -39.5t-39.5 -16.5t-39.5 16.5t-16.5 39.5t16.5 39.5t39.5 16.5zM686 700q29 0 49.5 -20.5t20.5 -49.5t-20.5 -49.5t-49.5 -20.5h-140q-29 0 -49.5 20.5t-20.5 49.5t20.5 49.5t49.5 20.5h140zM588 896q133 0 220.5 -67.5
t87.5 -170.5v-378q0 -23 -16.5 -39.5t-39.5 -16.5h-211q1 -5 1 -14q0 -87 -61.5 -148.5t-148.5 -61.5t-148.5 61.5t-61.5 148.5v14h-154q-23 0 -39.5 16.5t-16.5 39.5v56q0 23 16.5 39.5t39.5 16.5h28v266q0 104 87 171t221 67h196zM420 56q64 0 109 45t45 109t-45 109
t-109 45t-109 -45t-45 -109t45 -109t109 -45zM840 280v378q0 81 -73 131.5t-179 50.5h-196q-106 0 -179 -50.5t-73 -131.5v-322h-84v-56h196q21 50 66.5 81t101.5 31t101.5 -31t66.5 -81h252zM336 700q23 0 39.5 -16.5t16.5 -39.5t-16.5 -39.5t-39.5 -16.5h-28
q-23 0 -39.5 16.5t-16.5 39.5t16.5 39.5t39.5 16.5h28z" />
</font>
</defs>
</svg>
