<?xml version="1.0" standalone="no"?>
<!DOCTYPE svg PUBLIC "-//W3C//DTD SVG 1.1//EN" "http://www.w3.org/Graphics/SVG/1.1/DTD/svg11.dtd" >
<svg xmlns="http://www.w3.org/2000/svg" xmlns:xlink="http://www.w3.org/1999/xlink" version="1.1">
<metadata>
Created by FontForge 20190801 at Mon Dec 31 18:51:07 2018
 By Jimmy Wärting
Copyright (c) 2018 ParaType Inc., ParaType Ltd. All rights reserved.
</metadata>
<defs>
<font id="PTRootUI-Regular" horiz-adv-x="590" >
  <font-face 
    font-family="PT Root UI"
    font-weight="400"
    font-stretch="normal"
    units-per-em="1000"
    panose-1="2 11 3 3 2 2 2 2 2 4"
    ascent="772"
    descent="-228"
    x-height="500"
    cap-height="700"
    bbox="-37 -207 985 936"
    underline-thickness="50"
    underline-position="-300"
    unicode-range="U+0020-FB04"
  />
<missing-glyph horiz-adv-x="364" 
d="M33 0v666h265v-666h-265zM66 33h199v600h-199v-600z" />
    <glyph glyph-name=".notdef" horiz-adv-x="364" 
d="M33 0v666h265v-666h-265zM66 33h199v600h-199v-600z" />
    <glyph glyph-name="glyph1" horiz-adv-x="0" 
 />
    <glyph glyph-name="glyph2" horiz-adv-x="333" 
 />
    <glyph glyph-name="space" unicode=" " horiz-adv-x="250" 
 />
    <glyph glyph-name="exclam" unicode="!" horiz-adv-x="300" 
d="M150 -7q-24 0 -39.5 16t-15.5 39t15.5 39t39.5 16t39.5 -16t15.5 -39t-15.5 -39t-39.5 -16zM115 200v500h70v-500h-70z" />
    <glyph glyph-name="quotedbl" unicode="&#x22;" horiz-adv-x="400" 
d="M265 460v240h70v-240h-70zM65 460v240h70v-240h-70z" />
    <glyph glyph-name="numbersign" unicode="#" 
d="M310 0l37 210h-155l-37 -210h-64l37 210h-103l12 60h102l32 180h-103l11 60h103l34 190h64l-34 -190h155l34 190h64l-34 -190h100l-11 -60h-100l-32 -180h100l-11 -60h-100l-37 -210h-64zM235 450l-32 -180h155l32 180h-155z" />
    <glyph glyph-name="dollar" unicode="$" horiz-adv-x="610" 
d="M274 -100v95q-200 13 -214 220h72q7 -73 41 -110.5t101 -44.5v273q-37 10 -61.5 19t-54 25t-47 34.5t-29.5 48t-12 65.5q0 74 53 123.5t151 56.5v95h62v-94q188 -14 204 -201h-72q-9 62 -40 95t-92 39v-252q39 -11 63.5 -19.5t56.5 -25.5t50 -36.5t31 -50.5t13 -70
q0 -82 -54.5 -133t-159.5 -58v-94h-62zM478 185q0 52 -36.5 80.5t-105.5 49.5v-255q70 7 106 40.5t36 84.5zM142 525q0 -47 34 -73.5t98 -46.5v234q-65 -6 -98.5 -37t-33.5 -77z" />
    <glyph glyph-name="percent" unicode="%" horiz-adv-x="900" 
d="M210 343q-71 0 -115.5 45t-44.5 117v40q0 72 44.5 117t115.5 45t115.5 -45t44.5 -117v-40q0 -72 -44.5 -117t-115.5 -45zM210 401q42 0 69 28.5t27 75.5v40q0 47 -27 75.5t-69 28.5t-69 -28.5t-27 -75.5v-40q0 -47 27 -75.5t69 -28.5zM690 -7q-71 0 -115.5 45t-44.5 117
v40q0 72 44.5 117t115.5 45t115.5 -45t44.5 -117v-40q0 -72 -44.5 -117t-115.5 -45zM690 51q42 0 69 28.5t27 75.5v40q0 47 -27 75.5t-69 28.5t-69 -28.5t-27 -75.5v-40q0 -47 27 -75.5t69 -28.5zM210 0l406 700h74l-406 -700h-74z" />
    <glyph glyph-name="ampersand" unicode="&#x26;" horiz-adv-x="640" 
d="M551 0l-76 78q-80 -85 -200 -85q-97 0 -156 53.5t-59 136.5q0 56 26.5 101.5t97.5 96.5q-55 60 -73 98t-18 83q0 63 44 104t118 41q72 0 116 -41t44 -104q0 -49 -26 -92.5t-105 -98.5l182 -189q31 65 31 148h68q0 -114 -50 -199l125 -131h-89zM275 55q93 0 155 71
l-201 208q-60 -43 -80.5 -76.5t-20.5 -74.5q0 -57 39.5 -92.5t107.5 -35.5zM161 562q0 -35 15.5 -63.5t62.5 -79.5q69 47 88.5 77t19.5 66t-25.5 59.5t-66.5 23.5q-43 0 -68.5 -23.5t-25.5 -59.5z" />
    <glyph glyph-name="quotesingle" unicode="'" horiz-adv-x="200" 
d="M65 460v240h70v-240h-70z" />
    <glyph glyph-name="parenleft" unicode="(" horiz-adv-x="400" 
d="M90 250q0 78 19 153.5t46.5 126.5t55 91.5t46.5 59.5l19 19h84q-8 -7 -21.5 -20t-47.5 -57.5t-60 -93t-47.5 -125t-21.5 -154.5t20.5 -153.5t49.5 -126.5t58 -91.5t50 -59.5l20 -19h-86q-7 7 -19.5 20t-44.5 57.5t-56 93t-44 125t-20 154.5z" />
    <glyph glyph-name="parenright" unicode=")" horiz-adv-x="400" 
d="M310 250q0 -78 -19 -153.5t-46.5 -126.5t-55 -91.5t-46.5 -59.5l-19 -19h-84q8 7 21.5 20t47.5 57.5t60 93t47.5 125t21.5 154.5t-20.5 153.5t-49.5 126.5t-58 91.5t-50 59.5l-20 19h86q7 -7 19.5 -20t44.5 -57.5t56 -93t44 -125t20 -154.5z" />
    <glyph glyph-name="asterisk" unicode="*" horiz-adv-x="390" 
d="M25 523v48h129l-64 113l40 23l64 -113l65 113l41 -23l-65 -113h130v-48h-129l64 -112l-41 -24l-64 113l-65 -113l-40 24l64 112h-129z" />
    <glyph glyph-name="plus" unicode="+" 
d="M75 328v64h185v188h70v-188h185v-64h-185v-188h-70v188h-185z" />
    <glyph glyph-name="comma" unicode="," horiz-adv-x="250" 
d="M45 -150l50 235h80l-75 -235h-55z" />
    <glyph glyph-name="hyphen" unicode="-" horiz-adv-x="400" 
d="M50 228v64h300v-64h-300z" />
    <glyph glyph-name="period" unicode="." horiz-adv-x="250" 
d="M125 -7q-24 0 -39.5 16t-15.5 39t15.5 39t39.5 16t39.5 -16t15.5 -39t-15.5 -39t-39.5 -16z" />
    <glyph glyph-name="slash" unicode="/" horiz-adv-x="450" 
d="M25 -200l328 900h72l-328 -900h-72z" />
    <glyph glyph-name="zero" unicode="0" horiz-adv-x="610" 
d="M305 -7q-230 0 -230 325v64q0 325 230 325t230 -325v-64q0 -325 -230 -325zM305 59q78 0 118 59t40 200v64q0 141 -40.5 200t-117.5 59q-78 0 -118 -59t-40 -200v-64q0 -141 40.5 -200t117.5 -59z" />
    <glyph glyph-name="one" unicode="1" horiz-adv-x="350" 
d="M30 519v78l150 103h70v-700h-70v621z" />
    <glyph glyph-name="two" unicode="2" horiz-adv-x="550" 
d="M45 0v64l248 246q73 73 101.5 113t28.5 82q0 60 -42 98t-111 38t-111 -38t-42 -98h-72q0 88 62 145t163 57t163 -57t62 -145q0 -54 -36 -107.5t-113 -128.5l-211 -205h360v-64h-450z" />
    <glyph glyph-name="three" unicode="3" horiz-adv-x="580" 
d="M285 -7q-104 0 -164.5 59t-65.5 163h72q5 -75 45.5 -115.5t112.5 -40.5q76 0 117 37t41 99q0 60 -40 96.5t-109 36.5h-94v64h94q62 0 98 34.5t36 89.5q0 57 -37.5 91t-105.5 34q-62 0 -99 -36t-44 -100h-72q5 92 62 147t153 55q101 0 158 -52.5t57 -138.5
q0 -51 -24.5 -92t-70.5 -63q53 -22 81.5 -66t28.5 -100q0 -91 -61 -146.5t-169 -55.5z" />
    <glyph glyph-name="four" unicode="4" horiz-adv-x="565" 
d="M25 168v64l328 468h87v-468h95v-64h-95v-168h-70v168h-345zM102 232h268v387z" />
    <glyph glyph-name="five" unicode="5" horiz-adv-x="565" 
d="M75 320l30 380h365v-64h-301l-19 -232q55 57 145 57q97 0 158.5 -64.5t61.5 -169.5t-63.5 -169.5t-166.5 -64.5q-88 0 -149.5 44t-80.5 125h74q36 -103 156 -103q72 0 115 45t43 123q0 79 -42.5 123.5t-115.5 44.5q-47 0 -84 -21.5t-57 -53.5h-69z" />
    <glyph glyph-name="six" unicode="6" horiz-adv-x="595" 
d="M305 -7q-109 0 -169.5 73t-60.5 222v64q0 185 62.5 270t172.5 85q76 0 127 -43t67 -109h-74q-35 85 -120 85q-78 0 -120.5 -58t-46.5 -197q57 82 167 82q92 0 153.5 -63.5t61.5 -161.5v-24q0 -99 -62 -162t-158 -63zM305 401q-71 0 -113.5 -39.5t-44.5 -103.5v-30
q0 -80 42.5 -124.5t115.5 -44.5q66 0 107 43t41 116v24q0 73 -41 116t-107 43z" />
    <glyph glyph-name="seven" unicode="7" horiz-adv-x="480" 
d="M20 636v64h440v-64l-261 -636h-74l262 636h-367z" />
    <glyph glyph-name="eight" unicode="8" 
d="M295 -7q-108 0 -169 54.5t-61 142.5q0 61 32.5 106t90.5 69q-103 47 -103 157q0 78 59 131.5t151 53.5q94 0 152 -52t58 -133q0 -108 -105 -156q59 -25 92 -70t33 -106q0 -85 -62.5 -141t-167.5 -56zM295 59q72 0 115 38t43 93q0 62 -45.5 101.5t-112.5 44.5
q-70 -5 -114 -43.5t-44 -102.5q0 -55 43 -93t115 -38zM295 394q58 6 98 38t40 90q0 49 -38 84t-100 35t-100 -35t-38 -84q0 -55 41 -88.5t97 -39.5z" />
    <glyph glyph-name="nine" unicode="9" horiz-adv-x="595" 
d="M290 -7q-80 0 -131.5 42.5t-67.5 109.5h74q35 -85 125 -85q75 0 116 58t45 196q-57 -81 -166 -81q-92 0 -153.5 63.5t-61.5 161.5v24q0 99 62 162t158 63q109 0 169.5 -73t60.5 -222v-64q0 -184 -62 -269.5t-168 -85.5zM290 299q70 0 113 39t45 103v31q0 80 -42.5 124.5
t-115.5 44.5q-66 0 -107 -43t-41 -116v-24q0 -73 41 -116t107 -43z" />
    <glyph glyph-name="colon" unicode=":" horiz-adv-x="250" 
d="M125 397q-24 0 -39.5 16t-15.5 39t15.5 39t39.5 16t39.5 -16t15.5 -39t-15.5 -39t-39.5 -16zM125 -7q-24 0 -39.5 16t-15.5 39t15.5 39t39.5 16t39.5 -16t15.5 -39t-15.5 -39t-39.5 -16z" />
    <glyph glyph-name="semicolon" unicode=";" horiz-adv-x="250" 
d="M35 -150l50 235h80l-75 -235h-55zM125 397q-24 0 -39.5 16t-15.5 39t15.5 39t39.5 16t39.5 -16t15.5 -39t-15.5 -39t-39.5 -16z" />
    <glyph glyph-name="less" unicode="&#x3c;" 
d="M515 528l-364 -168l364 -166v-74l-440 203v74l440 203v-72z" />
    <glyph glyph-name="equal" unicode="=" 
d="M75 428v64h440v-64h-440zM75 228v64h440v-64h-440z" />
    <glyph glyph-name="greater" unicode="&#x3e;" 
d="M75 192l364 168l-364 166v74l440 -203v-74l-440 -203v72z" />
    <glyph glyph-name="question" unicode="?" horiz-adv-x="500" 
d="M210 190q0 62 18.5 105.5t44.5 66.5t52 42.5t44.5 47.5t18.5 68q0 55 -37.5 88t-105.5 33q-65 0 -102 -34.5t-41 -96.5h-72q4 91 60.5 144t154.5 53q102 0 158.5 -51t56.5 -136q0 -51 -18.5 -86.5t-45 -56.5t-53 -42.5t-45 -57.5t-18.5 -87h-70zM245 -7q-24 0 -39.5 16
t-15.5 39t15.5 39t39.5 16t39.5 -16t15.5 -39t-15.5 -39t-39.5 -16z" />
    <glyph glyph-name="at" unicode="@" horiz-adv-x="1050" 
d="M525 -207q-126 0 -232 61t-167 166t-61 230q0 190 134 323.5t326 133.5q203 0 331.5 -118t128.5 -289q0 -131 -66 -206.5t-166 -75.5q-53 0 -86.5 23t-42.5 63q-62 -86 -168 -86q-71 0 -114 45.5t-43 123.5q0 22 12 85q16 92 77 151t144 59q96 0 134 -70l11 63h66
l-53 -302q-3 -13 -3 -25q0 -68 66 -68t115 60t49 160q0 148 -108 246.5t-284 98.5q-166 0 -279 -114t-113 -281q0 -168 112.5 -281.5t279.5 -113.5q132 0 230 40v-66q-89 -36 -230 -36zM476 80q60 0 101.5 40t54.5 108t13 85q0 48 -31 77.5t-82 29.5q-59 0 -100.5 -40
t-53.5 -108q-11 -62 -11 -85q0 -50 28 -78.5t81 -28.5z" />
    <glyph glyph-name="A" unicode="A" horiz-adv-x="650" 
d="M551 0l-75 203h-305l-74 -203h-72l260 700h80l260 -700h-74zM266 460l-71 -193h258l-71 193l-58 160z" />
    <glyph glyph-name="B" unicode="B" horiz-adv-x="620" 
d="M90 0v700h215q235 0 235 -186q0 -106 -96 -150q116 -43 116 -168q0 -196 -235 -196h-235zM325 328h-165v-264h165q86 0 124.5 33t38.5 99t-38.5 99t-124.5 33zM305 636h-145v-244h145q163 0 163 122t-163 122z" />
    <glyph glyph-name="C" unicode="C" horiz-adv-x="670" 
d="M350 -7q-126 0 -205.5 87t-79.5 238v64q0 150 79.5 237.5t205.5 87.5q106 0 177.5 -59t87.5 -143h-76q-16 57 -66 96.5t-123 39.5q-94 0 -153.5 -68t-59.5 -191v-64q0 -122 59.5 -190.5t153.5 -68.5q73 0 123 43.5t66 112.5h76q-16 -96 -87 -159t-178 -63z" />
    <glyph glyph-name="D" unicode="D" horiz-adv-x="680" 
d="M90 0v700h210q150 0 232.5 -83t82.5 -235v-64q0 -151 -83 -234.5t-232 -83.5h-210zM300 636h-140v-572h140q118 0 180.5 64.5t62.5 189.5v64q0 124 -63 189t-180 65z" />
    <glyph glyph-name="E" unicode="E" horiz-adv-x="560" 
d="M90 0v700h420v-64h-350v-244h290v-64h-290v-264h350v-64h-420z" />
    <glyph glyph-name="F" unicode="F" horiz-adv-x="540" 
d="M90 0v700h420v-64h-350v-244h290v-64h-290v-328h-70z" />
    <glyph glyph-name="G" unicode="G" horiz-adv-x="680" 
d="M340 279v64h275v-33q0 -151 -73 -234t-192 -83q-128 0 -206.5 86.5t-78.5 238.5v64q0 151 79.5 238t205.5 87q105 0 174 -58t85 -144h-74q-16 59 -64 97.5t-121 38.5q-95 0 -154 -68.5t-59 -190.5v-64q0 -121 60 -190t153 -69q90 0 141.5 54.5t58.5 165.5h-210z" />
    <glyph glyph-name="H" unicode="H" horiz-adv-x="710" 
d="M550 0v328h-390v-328h-70v700h70v-308h390v308h70v-700h-70z" />
    <glyph glyph-name="I" unicode="I" horiz-adv-x="270" 
d="M100 0v700h70v-700h-70z" />
    <glyph glyph-name="J" unicode="J" horiz-adv-x="535" 
d="M240 -7q-93 0 -147.5 58.5t-62.5 163.5h70q4 -76 40.5 -116t99.5 -40q140 0 140 191v450h70v-450q0 -127 -56 -192t-154 -65z" />
    <glyph glyph-name="K" unicode="K" horiz-adv-x="635" 
d="M514 0l-250 339l-104 -118v-221h-70v700h70v-390l334 390h86l-268 -310l288 -390h-86z" />
    <glyph glyph-name="L" unicode="L" horiz-adv-x="515" 
d="M90 0v700h70v-636h330v-64h-400z" />
    <glyph glyph-name="M" unicode="M" horiz-adv-x="810" 
d="M370 205l-165 315l-45 97v-617h-70v700h94l222 -424l222 424h92v-700h-70v617l-45 -97l-165 -315h-70z" />
    <glyph glyph-name="N" unicode="N" horiz-adv-x="710" 
d="M522 0l-306 520l-56 103v-623h-70v700h98l306 -520l56 -103v623h70v-700h-98z" />
    <glyph glyph-name="O" unicode="O" horiz-adv-x="710" 
d="M355 -7q-129 0 -209.5 87.5t-80.5 237.5v64q0 149 81 237t209 88q129 0 209.5 -87.5t80.5 -237.5v-64q0 -149 -81 -237t-209 -88zM355 59q96 0 157 69t61 190v64q0 120 -61.5 189.5t-156.5 69.5q-96 0 -157 -69t-61 -190v-64q0 -120 61.5 -189.5t156.5 -69.5z" />
    <glyph glyph-name="P" unicode="P" horiz-adv-x="600" 
d="M90 0v700h220q250 0 250 -217q0 -104 -62.5 -160.5t-187.5 -56.5h-150v-266h-70zM310 636h-150v-306h150q178 0 178 153q0 76 -43 114.5t-135 38.5z" />
    <glyph glyph-name="Q" unicode="Q" horiz-adv-x="710" 
d="M355 -7q-129 0 -209.5 87.5t-80.5 237.5v64q0 149 81 237t209 88q129 0 209.5 -87.5t80.5 -237.5v-64q0 -159 -93 -249l93 -119h-82l-63 80q-65 -37 -145 -37zM355 59q57 0 103 25l-103 131h82l71 -91q65 70 65 194v64q0 120 -61.5 189.5t-156.5 69.5q-96 0 -157 -69
t-61 -190v-64q0 -120 61.5 -189.5t156.5 -69.5z" />
    <glyph glyph-name="R" unicode="R" horiz-adv-x="620" 
d="M502 0l-151 288q-26 -2 -41 -2h-150v-286h-70v700h220q125 0 187.5 -54t62.5 -153q0 -150 -140 -193l160 -300h-78zM310 636h-150v-286h150q90 0 134 37.5t44 105.5t-44 105.5t-134 37.5z" />
    <glyph glyph-name="S" unicode="S" horiz-adv-x="610" 
d="M305 -7q-230 0 -245 222h74q8 -80 49 -118t122 -38q85 0 129 35t44 91q0 45 -30 74.5t-75.5 43t-98.5 30.5t-98.5 35t-75.5 58t-30 99q0 80 61.5 131t173.5 51q219 0 235 -202h-74q-9 69 -46.5 102.5t-114.5 33.5q-80 0 -121.5 -32t-41.5 -84q0 -37 22.5 -62t58.5 -39.5
t79.5 -26t87 -26.5t79.5 -36t58.5 -59t22.5 -91q0 -88 -62.5 -140t-182.5 -52z" />
    <glyph glyph-name="T" unicode="T" horiz-adv-x="580" 
d="M25 636v64h530v-64h-230v-636h-70v636h-230z" />
    <glyph glyph-name="U" unicode="U" horiz-adv-x="690" 
d="M345 -7q-120 0 -190 74t-70 208v425h70v-425q0 -103 51.5 -159.5t138.5 -56.5q89 0 139.5 55.5t50.5 160.5v425h70v-425q0 -133 -70.5 -207.5t-189.5 -74.5z" />
    <glyph glyph-name="V" unicode="V" horiz-adv-x="660" 
d="M300 0l-270 700h76l235 -618l217 618h72l-250 -700h-80z" />
    <glyph glyph-name="W" unicode="W" horiz-adv-x="970" 
d="M655 0l-171 617l-159 -617h-90l-195 700h72l168 -617l160 617h90l170 -618l160 618h70l-185 -700h-90z" />
    <glyph glyph-name="X" unicode="X" horiz-adv-x="650" 
d="M529 0l-206 306l-204 -306h-84l246 363l-226 337h85l186 -277l186 277h83l-226 -333l246 -367h-86z" />
    <glyph glyph-name="Y" unicode="Y" horiz-adv-x="650" 
d="M295 0v255l-265 445h78l222 -374l214 374h76l-255 -445v-255h-70z" />
    <glyph glyph-name="Z" unicode="Z" horiz-adv-x="585" 
d="M60 636v64h480v-64l-411 -572h411v-64h-490v64l411 572h-401z" />
    <glyph glyph-name="bracketleft" unicode="[" horiz-adv-x="400" 
d="M120 -200v900h230v-64h-160v-772h160v-64h-230z" />
    <glyph glyph-name="backslash" unicode="\" horiz-adv-x="450" 
d="M351 -200l-326 900h74l326 -900h-74z" />
    <glyph glyph-name="bracketright" unicode="]" horiz-adv-x="400" 
d="M280 700v-900h-230v64h160v772h-160v64h230z" />
    <glyph glyph-name="asciicircum" unicode="^" 
d="M432 400l-141 240l-135 -240h-76l170 300h80l180 -300h-78z" />
    <glyph glyph-name="underscore" unicode="_" 
d="M0 -132v64h590v-64h-590z" />
    <glyph glyph-name="grave" unicode="`" horiz-adv-x="250" 
d="M155 560l-130 150h82l118 -150h-70z" />
    <glyph glyph-name="a" unicode="a" horiz-adv-x="520" 
d="M205 -7q-74 0 -114.5 38.5t-40.5 106.5q0 157 210 157h114v45q0 55 -27 80t-87 25q-106 0 -114 -80h-71q4 64 51 103t134 39q88 0 134 -43.5t46 -123.5v-340h-51l-10 94q-26 -47 -72 -74t-102 -27zM210 55q68 0 116 46.5t48 110.5v23h-114q-142 0 -142 -97q0 -39 24 -61
t68 -22z" />
    <glyph glyph-name="b" unicode="b" horiz-adv-x="560" 
d="M309 -7q-114 0 -165 91l-8 -84h-51v700h66v-273q51 80 158 80q89 0 142.5 -61t53.5 -174v-44q0 -112 -54 -173.5t-142 -61.5zM294 55q66 0 104.5 44t38.5 129v44q0 84 -38.5 128.5t-104.5 44.5q-62 0 -101.5 -43.5t-41.5 -121.5v-52q0 -82 40 -127.5t103 -45.5z" />
    <glyph glyph-name="c" unicode="c" horiz-adv-x="505" 
d="M270 -7q-97 0 -156 62.5t-59 172.5v44q0 109 59 172t156 63q79 0 129 -39.5t66 -102.5h-70q-35 80 -125 80q-65 0 -106 -46t-41 -127v-44q0 -81 41 -127t106 -46q93 0 125 90h70q-16 -69 -65.5 -110.5t-129.5 -41.5z" />
    <glyph glyph-name="d" unicode="d" horiz-adv-x="560" 
d="M251 -7q-89 0 -142.5 61t-53.5 174v44q0 112 54 173.5t142 61.5q107 0 158 -80v273h66v-700h-51l-9 84q-49 -91 -164 -91zM266 55q63 0 103 45.5t40 127.5v52q-2 78 -41.5 121.5t-101.5 43.5q-66 0 -104.5 -44t-38.5 -129v-44q0 -84 38.5 -128.5t104.5 -44.5z" />
    <glyph glyph-name="e" unicode="e" horiz-adv-x="540" 
d="M270 -7q-100 0 -157.5 61.5t-57.5 173.5v44q0 111 58 173t157 62t157 -62t58 -173v-41h-362v-3q0 -84 39.5 -128.5t107.5 -44.5q107 0 142 91h68q-16 -69 -69 -111t-141 -42zM270 445q-65 0 -104 -40.5t-43 -115.5h293q-4 76 -42.5 116t-103.5 40z" />
    <glyph glyph-name="f" unicode="f" horiz-adv-x="335" 
d="M30 440v60h90v68q0 64 34 98t98 34h78v-60h-70q-74 0 -74 -80v-60h124v-60h-124v-440h-66v440h-90z" />
    <glyph glyph-name="g" unicode="g" horiz-adv-x="560" 
d="M251 13q-89 0 -142.5 59t-53.5 166v44q0 105 54.5 165t141.5 60q115 0 165 -89l8 82h51v-500q0 -99 -53 -153t-149 -54q-177 0 -193 152h66q8 -45 37 -67.5t90 -22.5q69 0 102.5 35.5t33.5 109.5v91q-51 -78 -158 -78zM266 75q62 0 101.5 42t41.5 113v59q-2 73 -41 114.5
t-102 41.5q-66 0 -104.5 -42.5t-38.5 -120.5v-44q0 -77 39 -120t104 -43z" />
    <glyph glyph-name="h" unicode="h" horiz-adv-x="575" 
d="M85 0v700h66v-276q50 83 159 83q87 0 136 -53.5t49 -153.5v-300h-66v300q0 72 -33.5 108.5t-95.5 36.5q-65 0 -106 -38.5t-43 -100.5v-306h-66z" />
    <glyph glyph-name="i" unicode="i" horiz-adv-x="256" 
d="M95 0v500h66v-500h-66zM128 588q-20 0 -33.5 14t-13.5 33t13.5 33t33.5 14t33.5 -14t13.5 -33t-13.5 -33t-33.5 -14z" />
    <glyph glyph-name="j" unicode="j" horiz-adv-x="256" 
d="M-19 -200v60h34q42 0 61 25t19 85v530h66v-530q0 -92 -35 -131t-111 -39h-34zM128 588q-20 0 -33.5 14t-13.5 33t13.5 33t33.5 14t33.5 -14t13.5 -33t-13.5 -33t-33.5 -14z" />
    <glyph glyph-name="k" unicode="k" horiz-adv-x="510" 
d="M403 0l-164 233l-88 -104v-129h-66v700h66v-481l232 281h82l-182 -219l202 -281h-82z" />
    <glyph glyph-name="l" unicode="l" horiz-adv-x="285" 
d="M215 0q-63 0 -96.5 34t-33.5 98v568h66v-560q0 -80 72 -80h32v-60h-40z" />
    <glyph glyph-name="m" unicode="m" horiz-adv-x="875" 
d="M85 0v500h51l8 -82q50 89 155 89q113 0 155 -100q23 48 66.5 74t100.5 26q79 0 126.5 -53.5t47.5 -153.5v-300h-66v300q0 71 -33 108t-90 37q-55 0 -93 -39t-40 -100v-6v-300h-66v300q0 71 -33 108t-90 37q-55 0 -93 -39t-40 -100v-306h-66z" />
    <glyph glyph-name="n" unicode="n" horiz-adv-x="575" 
d="M85 0v500h51l8 -82q52 89 166 89q87 0 136 -53.5t49 -153.5v-300h-66v300q0 72 -33.5 108.5t-95.5 36.5q-66 0 -106.5 -38t-42.5 -101v-306h-66z" />
    <glyph glyph-name="o" unicode="o" horiz-adv-x="550" 
d="M275 -7q-101 0 -160.5 62.5t-59.5 172.5v44q0 109 60 172t160 63q101 0 160.5 -62.5t59.5 -172.5v-44q0 -109 -60 -172t-160 -63zM275 55q69 0 110.5 45.5t41.5 127.5v44q0 81 -42 127t-110 46q-69 0 -110.5 -45.5t-41.5 -127.5v-44q0 -81 42 -127t110 -46z" />
    <glyph glyph-name="p" unicode="p" horiz-adv-x="560" 
d="M309 -7q-108 0 -158 80v-273h-66v700h51l8 -84q51 91 165 91q89 0 142.5 -61t53.5 -174v-44q0 -112 -54 -173.5t-142 -61.5zM294 55q66 0 104.5 44t38.5 129v44q0 84 -38.5 128.5t-104.5 44.5q-62 0 -101.5 -43.5t-41.5 -121.5v-52q0 -82 39.5 -127.5t103.5 -45.5z" />
    <glyph glyph-name="q" unicode="q" horiz-adv-x="560" 
d="M251 -7q-89 0 -142.5 61t-53.5 174v44q0 112 54 173.5t142 61.5q115 0 164 -91l9 84h51v-700h-66v273q-50 -80 -158 -80zM266 55q64 0 103.5 45.5t39.5 127.5v44q0 82 -40 127.5t-103 45.5q-66 0 -104.5 -44t-38.5 -129v-44q0 -84 38.5 -128.5t104.5 -44.5z" />
    <glyph glyph-name="r" unicode="r" horiz-adv-x="380" 
d="M85 0v500h51l8 -82q50 89 161 89h50v-62h-50q-69 0 -110.5 -38t-43.5 -101v-306h-66z" />
    <glyph glyph-name="s" unicode="s" horiz-adv-x="490" 
d="M245 -7q-174 0 -190 152h68q8 -48 35 -69t87 -21q66 0 94 20t28 60q0 37 -31 57.5t-75.5 30t-89 21.5t-75.5 43t-31 83q0 61 46 99t134 38q81 0 126.5 -38t53.5 -104h-68q-8 40 -33.5 60t-78.5 20q-112 0 -112 -75q0 -28 22.5 -46t56 -25t72.5 -17.5t72.5 -23.5t56 -44.5
t22.5 -78.5q0 -65 -47.5 -103.5t-142.5 -38.5z" />
    <glyph glyph-name="t" unicode="t" horiz-adv-x="360" 
d="M25 440v60h90v140h66v-140h134v-60h-134v-300q0 -80 74 -80h70v-60h-78q-65 0 -98.5 34t-33.5 98v308h-90z" />
    <glyph glyph-name="u" unicode="u" horiz-adv-x="565" 
d="M260 -7q-83 0 -131.5 53.5t-48.5 153.5v300h66v-300q0 -71 33 -108t91 -37q64 0 104 40.5t40 104.5v300h66v-500h-51l-8 82q-52 -89 -161 -89z" />
    <glyph glyph-name="v" unicode="v" horiz-adv-x="510" 
d="M220 0l-195 500h74l162 -425l154 425h70l-185 -500h-80z" />
    <glyph glyph-name="w" unicode="w" horiz-adv-x="770" 
d="M515 0l-130 422l-120 -422h-80l-150 500h70l121 -417l119 417h80l128 -417l114 417h68l-140 -500h-80z" />
    <glyph glyph-name="x" unicode="x" horiz-adv-x="500" 
d="M395 0l-146 209l-146 -209h-78l183 257l-171 243h78l136 -194l136 194h76l-171 -241l183 -259h-80z" />
    <glyph glyph-name="y" unicode="y" horiz-adv-x="520" 
d="M155 -200l77 200l-207 500h74l169 -418l157 418h70l-270 -700h-70z" />
    <glyph glyph-name="z" unicode="z" horiz-adv-x="455" 
d="M50 440v60h370v-60l-304 -380h304v-60h-380v60l304 380h-294z" />
    <glyph glyph-name="braceleft" unicode="{" horiz-adv-x="400" 
d="M360 700v-64h-46q-114 0 -114 -120v-130q0 -51 -15 -84t-58 -52q43 -19 58 -52.5t15 -83.5v-130q0 -120 114 -120h46v-64h-46q-184 0 -184 184v130q0 94 -80 105v62q80 11 80 105v130q0 184 184 184h46z" />
    <glyph glyph-name="bar" unicode="|" horiz-adv-x="300" 
d="M115 -200v900h70v-900h-70z" />
    <glyph glyph-name="braceright" unicode="}" horiz-adv-x="400" 
d="M40 -200v64h46q114 0 114 120v130q0 51 15 84t58 52q-43 19 -58 52.5t-15 83.5v130q0 120 -114 120h-46v64h46q184 0 184 -184v-130q0 -94 80 -105v-62q-80 -11 -80 -105v-130q0 -184 -184 -184h-46z" />
    <glyph glyph-name="asciitilde" unicode="~" 
d="M403 270q-36 0 -69 18t-53 39t-45.5 39t-48.5 18q-30 0 -48.5 -19.5t-18.5 -54.5h-70q0 62 38.5 101t98.5 39q36 0 69 -18t53 -39t45.5 -39t48.5 -18q30 0 48.5 20t18.5 54h70q0 -62 -38.5 -101t-98.5 -39z" />
    <glyph glyph-name="uni00A0" unicode="&#xa0;" horiz-adv-x="250" 
 />
    <glyph glyph-name="exclamdown" unicode="&#xa1;" horiz-adv-x="300" 
d="M150 507q24 0 39.5 -16t15.5 -39t-15.5 -39t-39.5 -16t-39.5 16t-15.5 39t15.5 39t39.5 16zM185 300v-500h-70v500h70z" />
    <glyph glyph-name="cent" unicode="&#xa2;" horiz-adv-x="505" 
d="M239 -100v95q-85 10 -134.5 71.5t-49.5 161.5v44q0 99 50 160.5t134 72.5v95h62v-95q66 -8 108 -46t56 -94h-70q-35 80 -125 80q-65 0 -106 -46t-41 -127v-44q0 -81 41 -127t106 -46q93 0 125 90h70q-14 -62 -55.5 -102t-108.5 -48v-95h-62z" />
    <glyph glyph-name="sterling" unicode="&#xa3;" horiz-adv-x="580" 
d="M55 301v58h90v151q0 85 56 141t139 56q86 0 138.5 -55t56.5 -147h-70q-4 66 -36.5 101t-88.5 35q-55 0 -90 -36t-35 -95v-151h185v-58h-185v-51q0 -77 -15.5 -117.5t-52.5 -68.5h388v-64h-480v64q49 34 69.5 71t20.5 115v51h-90z" />
    <glyph glyph-name="currency" unicode="&#xa4;" 
d="M492 115l-85 85q-51 -35 -112 -35q-64 0 -114 36l-86 -86l-45 45l86 86q-36 50 -36 114q0 61 35 112l-85 85l48 48l85 -85q49 35 112 35q62 0 113 -37l87 87l45 -45l-87 -87q37 -51 37 -113q0 -63 -35 -112l85 -85zM295 229q52 0 89 38.5t37 92.5t-37 92.5t-89 38.5
t-89 -38.5t-37 -92.5t37 -92.5t89 -38.5z" />
    <glyph glyph-name="yen" unicode="&#xa5;" horiz-adv-x="650" 
d="M95 271v58h158l-223 371h78l222 -371l214 371h76l-214 -371h159v-58h-200v-82h200v-58h-200v-131h-70v131h-200v58h200v82h-200z" />
    <glyph glyph-name="brokenbar" unicode="&#xa6;" horiz-adv-x="300" 
d="M115 -200v370h70v-370h-70zM115 330v370h70v-370h-70z" />
    <glyph glyph-name="section" unicode="&#xa7;" horiz-adv-x="480" 
d="M240 707q71 0 116 -40t53 -103h-74q-5 34 -29.5 55t-65.5 21q-47 0 -72 -22t-25 -59t29.5 -65.5t71.5 -49.5t84.5 -44.5t72 -64.5t29.5 -95q0 -93 -101 -155q90 -56 90 -138q0 -68 -48 -111t-131 -43q-76 0 -123.5 42.5t-55.5 110.5h74q5 -38 32.5 -62t72.5 -24
q51 0 79 24t28 63q0 35 -30.5 61.5t-74 47t-87.5 44.5t-74.5 64.5t-30.5 95.5q0 95 106 157q-85 57 -85 142q0 65 45.5 106.5t123.5 41.5zM122 260q0 -21 9 -40t19 -30.5t34.5 -27t36.5 -21.5l44 -22q49 29 71 56t22 65q0 25 -9 44.5t-32 37.5t-37 26.5t-49 26.5
q-3 2 -4.5 2.5t-4 2t-4.5 2.5q-50 -29 -73 -56t-23 -66z" />
    <glyph glyph-name="dieresis" unicode="&#xa8;" horiz-adv-x="340" 
d="M72 588q-20 0 -33.5 14t-13.5 33t13.5 33t33.5 14t33.5 -14t13.5 -33t-13.5 -33t-33.5 -14zM268 588q-20 0 -33.5 14t-13.5 33t13.5 33t33.5 14t33.5 -14t13.5 -33t-13.5 -33t-33.5 -14z" />
    <glyph glyph-name="copyright" unicode="&#xa9;" horiz-adv-x="850" 
d="M425 -7q-151 0 -255 104t-104 253q0 148 105 252.5t254 104.5q151 0 255 -104t104 -253q0 -148 -105 -252.5t-254 -104.5zM425 54q124 0 209.5 85.5t85.5 210.5q0 124 -85.5 210t-209.5 86t-209.5 -86t-85.5 -210t85.5 -210t209.5 -86zM425 143q-80 0 -127 50t-47 140v34
q0 89 47.5 139.5t126.5 50.5q68 0 111.5 -34t52.5 -81h-66q-10 23 -35 40t-63 17q-52 0 -81.5 -33.5t-29.5 -98.5v-34q0 -63 30.5 -97.5t80.5 -34.5q82 0 101 67h63q-9 -52 -53 -88.5t-111 -36.5z" />
    <glyph glyph-name="ordfeminine" unicode="&#xaa;" horiz-adv-x="350" 
d="M140 373q-54 0 -82 25.5t-28 69.5q0 50 35 76.5t116 26.5h69v22q0 34 -16 49t-54 15q-62 0 -71 -44h-61q4 43 37 68.5t95 25.5q130 0 130 -114v-213h-48l-7 54q-36 -61 -115 -61zM149 423q45 0 73 26.5t28 66.5v13h-69q-88 0 -88 -55q0 -51 56 -51z" />
    <glyph glyph-name="guillemotleft" unicode="&#xab;" horiz-adv-x="505" 
d="M250 258l122 202h73l-121 -198l121 -202h-76zM45 258l122 202h73l-121 -198l121 -202h-76z" />
    <glyph glyph-name="logicalnot" unicode="&#xac;" 
d="M75 328v64h440v-250h-69v186h-371z" />
    <glyph glyph-name="uni00AD" unicode="&#xad;" horiz-adv-x="400" 
d="M50 228v64h300v-64h-300z" />
    <glyph glyph-name="registered" unicode="&#xae;" horiz-adv-x="650" 
d="M325 143q-118 0 -201 82.5t-83 199.5t83 199.5t201 82.5t201 -82.5t83 -199.5t-83 -199.5t-201 -82.5zM325 194q94 0 161.5 68t67.5 163t-67.5 163t-161.5 68t-161.5 -68t-67.5 -163t67.5 -163t161.5 -68zM388 275l-50 106h-58v-106h-53v300h104q116 0 116 -97
q0 -71 -62 -90l58 -113h-55zM331 527h-51v-98h51q61 0 61 49t-61 49z" />
    <glyph glyph-name="macron" unicode="&#xaf;" horiz-adv-x="300" 
d="M15 607v56h270v-56h-270z" />
    <glyph glyph-name="degree" unicode="&#xb0;" horiz-adv-x="360" 
d="M180 401q-64 0 -109.5 45t-45.5 108t45.5 108t109.5 45t109.5 -45t45.5 -108t-45.5 -108t-109.5 -45zM180 459q38 0 66 27.5t28 67.5t-28 67.5t-66 27.5t-66 -27.5t-28 -67.5t28 -67.5t66 -27.5z" />
    <glyph glyph-name="plusminus" unicode="&#xb1;" 
d="M75 375v64h185v192h70v-192h185v-64h-185v-142h-70v142h-185zM75 89v64h440v-64h-440z" />
    <glyph glyph-name="uni00B2" unicode="&#xb2;" horiz-adv-x="355" 
d="M26 380v56l151 146q48 46 63 72t15 54q0 32 -21.5 51t-60.5 19t-60.5 -19t-21.5 -51h-64q0 56 40 92.5t106 36.5t106 -36.5t40 -92.5q0 -41 -22 -78t-77 -89l-111 -105h211v-56h-294z" />
    <glyph glyph-name="uni00B3" unicode="&#xb3;" horiz-adv-x="370" 
d="M180 373q-147 0 -155 144h64q9 -85 91 -85q43 0 67 21t24 55q0 32 -24.5 53t-65.5 21h-59v56h59q38 0 59.5 19.5t21.5 50.5q0 32 -21 51t-61 19q-74 0 -82 -71h-64q4 60 42 95t104 35q67 0 106.5 -35t39.5 -88q0 -73 -64 -101q73 -33 73 -107q0 -61 -40.5 -97t-114.5 -36
z" />
    <glyph glyph-name="acute" unicode="&#xb4;" horiz-adv-x="250" 
d="M25 560l118 150h82l-130 -150h-70z" />
    <glyph glyph-name="mu" unicode="&#xb5;" horiz-adv-x="570" 
d="M265 -7q-70 0 -114 44v-237h-66v700h66v-300q0 -71 33 -108t91 -37q64 0 104 40.5t40 104.5v300h66v-500h-51l-8 82q-52 -89 -161 -89z" />
    <glyph glyph-name="paragraph" unicode="&#xb6;" horiz-adv-x="660" 
d="M472 -200v836h-157v-836h-70v463q-79 13 -132 74.5t-53 142.5q0 91 64.5 155.5t155.5 64.5h350v-64h-89v-836h-69z" />
    <glyph glyph-name="periodcentered" unicode="&#xb7;" horiz-adv-x="250" 
d="M125 205q-24 0 -39.5 16t-15.5 39t15.5 39t39.5 16t39.5 -16t15.5 -39t-15.5 -39t-39.5 -16z" />
    <glyph glyph-name="cedilla" unicode="&#xb8;" horiz-adv-x="190" 
d="M49 -82l22 91h52l-12 -49q64 -12 64 -76q0 -37 -24.5 -60.5t-65.5 -23.5h-70v50h65q37 0 37 34t-37 34h-31z" />
    <glyph glyph-name="uni00B9" unicode="&#xb9;" horiz-adv-x="260" 
d="M20 687v69l119 74h61v-450h-61v382z" />
    <glyph glyph-name="ordmasculine" unicode="&#xba;" horiz-adv-x="360" 
d="M180 373q-68 0 -109 41.5t-41 109.5v32q0 68 41 109.5t109 41.5t109 -41.5t41 -109.5v-32q0 -68 -41 -109.5t-109 -41.5zM180 431q39 0 62.5 24.5t23.5 68.5v32q0 44 -23.5 68.5t-62.5 24.5t-62.5 -24.5t-23.5 -68.5v-32q0 -44 23.5 -68.5t62.5 -24.5z" />
    <glyph glyph-name="guillemotright" unicode="&#xbb;" horiz-adv-x="505" 
d="M460 262l-122 -202h-73l121 198l-121 202h76zM255 262l-122 -202h-73l121 198l-121 202h76z" />
    <glyph glyph-name="onequarter" unicode="&#xbc;" horiz-adv-x="850" 
d="M185 0l406 700h74l-406 -700h-74zM50 564v69l110 67h60v-400h-60v332zM490 88v54l175 258h83v-258h52v-54h-52v-88h-60v88h-198zM554 142h134v196z" />
    <glyph glyph-name="onehalf" unicode="&#xbd;" horiz-adv-x="880" 
d="M185 0l406 700h74l-406 -700h-74zM50 564v69l110 67h60v-400h-60v332zM550 0v55l139 120q48 41 63 64t15 49q0 61 -77 61t-77 -61h-63q0 55 36 87t104 32t104 -32t36 -87q0 -39 -22 -73.5t-77 -80.5l-95 -79h194v-55h-280z" />
    <glyph glyph-name="threequarters" unicode="&#xbe;" horiz-adv-x="900" 
d="M235 0l406 700h74l-406 -700h-74zM540 88v54l175 258h83v-258h52v-54h-52v-88h-60v88h-198zM604 142h134v196zM200 293q-71 0 -108.5 34t-41.5 95h63q8 -71 87 -71q87 0 87 64q0 28 -21.5 45.5t-64.5 17.5h-56v55h56q77 0 77 58t-78 58q-70 0 -79 -61h-62q4 56 39 87.5
t102 31.5t104 -31.5t37 -80.5q0 -59 -58 -86q67 -28 67 -98q0 -54 -38.5 -86t-111.5 -32z" />
    <glyph glyph-name="questiondown" unicode="&#xbf;" horiz-adv-x="500" 
d="M290 310q0 -62 -18.5 -105.5t-44.5 -66.5t-52 -42.5t-44.5 -47.5t-18.5 -68q0 -55 37.5 -88t105.5 -33q65 0 102 34.5t41 96.5h72q-4 -91 -60.5 -144t-154.5 -53q-102 0 -158.5 51t-56.5 136q0 51 18.5 86.5t45 56.5t53 42.5t45 57.5t18.5 87h70zM255 507q24 0 39.5 -16
t15.5 -39t-15.5 -39t-39.5 -16t-39.5 16t-15.5 39t15.5 39t39.5 16z" />
    <glyph glyph-name="Agrave" unicode="&#xc0;" horiz-adv-x="650" 
d="M551 0l-75 203h-305l-74 -203h-72l260 700h80l260 -700h-74zM266 460l-71 -193h258l-71 193l-58 160zM289 760l-128 150h86l114 -150h-72z" />
    <glyph glyph-name="Aacute" unicode="&#xc1;" horiz-adv-x="650" 
d="M551 0l-75 203h-305l-74 -203h-72l260 700h80l260 -700h-74zM266 460l-71 -193h258l-71 193l-58 160zM289 760l114 150h86l-128 -150h-72z" />
    <glyph glyph-name="Acircumflex" unicode="&#xc2;" horiz-adv-x="650" 
d="M551 0l-75 203h-305l-74 -203h-72l260 700h80l260 -700h-74zM266 460l-71 -193h258l-71 193l-58 160zM408 760l-83 97l-83 -97h-72l114 150h82l114 -150h-72z" />
    <glyph glyph-name="Atilde" unicode="&#xc3;" horiz-adv-x="650" 
d="M551 0l-75 203h-305l-74 -203h-72l260 700h80l260 -700h-74zM266 460l-71 -193h258l-71 193l-58 160zM395 770q-32 0 -57 17.5t-45 35t-38 17.5q-45 0 -45 -55h-50q0 57 25 86t70 29q32 0 57 -17.5t45 -35t38 -17.5q45 0 45 55h50q0 -57 -25 -86t-70 -29z" />
    <glyph glyph-name="Adieresis" unicode="&#xc4;" horiz-adv-x="650" 
d="M551 0l-75 203h-305l-74 -203h-72l260 700h80l260 -700h-74zM266 460l-71 -193h258l-71 193l-58 160zM217 788q-19 0 -33 14t-14 33t14 33t33 14t33 -14t14 -33t-14 -33t-33 -14zM433 788q-19 0 -33 14t-14 33t14 33t33 14t33 -14t14 -33t-14 -33t-33 -14z" />
    <glyph glyph-name="Aring" unicode="&#xc5;" horiz-adv-x="650" 
d="M551 0l-75 203h-305l-74 -203h-72l260 700h80l260 -700h-74zM266 460l-71 -193h258l-71 193l-58 160zM325 734q-45 0 -75 29.5t-30 71.5t30 71.5t75 29.5t75 -29.5t30 -71.5t-30 -71.5t-75 -29.5zM325 786q22 0 35.5 13.5t13.5 35.5t-13.5 35.5t-35.5 13.5t-35.5 -13.5
t-13.5 -35.5t13.5 -35.5t35.5 -13.5z" />
    <glyph glyph-name="AE" unicode="&#xc6;" horiz-adv-x="930" 
d="M20 0l410 700h450v-64h-350v-244h290v-64h-290v-264h350v-64h-420v203h-247l-117 -203h-76zM250 267h210v360z" />
    <glyph glyph-name="Ccedilla" unicode="&#xc7;" horiz-adv-x="670" 
d="M304 -82l18 77q-115 9 -186 95t-71 228v64q0 150 79.5 237.5t205.5 87.5q106 0 177.5 -59t87.5 -143h-76q-16 57 -66 96.5t-123 39.5q-94 0 -153.5 -68t-59.5 -191v-64q0 -122 59.5 -190.5t153.5 -68.5q73 0 123 43.5t66 112.5h76q-15 -90 -79.5 -152t-161.5 -69l-8 -34
q64 -12 64 -76q0 -37 -24.5 -60.5t-65.5 -23.5h-70v50h66q36 0 36 34q0 32 -31 34h-37z" />
    <glyph glyph-name="Egrave" unicode="&#xc8;" horiz-adv-x="560" 
d="M90 0v700h420v-64h-350v-244h290v-64h-290v-264h350v-64h-420zM264 760l-128 150h86l114 -150h-72z" />
    <glyph glyph-name="Eacute" unicode="&#xc9;" horiz-adv-x="560" 
d="M90 0v700h420v-64h-350v-244h290v-64h-290v-264h350v-64h-420zM264 760l114 150h86l-128 -150h-72z" />
    <glyph glyph-name="Ecircumflex" unicode="&#xca;" horiz-adv-x="560" 
d="M90 0v700h420v-64h-350v-244h290v-64h-290v-264h350v-64h-420zM383 760l-83 97l-83 -97h-72l114 150h82l114 -150h-72z" />
    <glyph glyph-name="Edieresis" unicode="&#xcb;" horiz-adv-x="560" 
d="M90 0v700h420v-64h-350v-244h290v-64h-290v-264h350v-64h-420zM192 788q-20 0 -33.5 14t-13.5 33t13.5 33t33.5 14t33.5 -14t13.5 -33t-13.5 -33t-33.5 -14zM408 788q-20 0 -33.5 14t-13.5 33t13.5 33t33.5 14t33.5 -14t13.5 -33t-13.5 -33t-33.5 -14z" />
    <glyph glyph-name="Igrave" unicode="&#xcc;" horiz-adv-x="270" 
d="M100 0v700h70v-700h-70zM99 760l-128 150h86l114 -150h-72z" />
    <glyph glyph-name="Iacute" unicode="&#xcd;" horiz-adv-x="270" 
d="M100 0v700h70v-700h-70zM99 760l114 150h86l-128 -150h-72z" />
    <glyph glyph-name="Icircumflex" unicode="&#xce;" horiz-adv-x="270" 
d="M100 0v700h70v-700h-70zM218 760l-83 97l-83 -97h-72l114 150h82l114 -150h-72z" />
    <glyph glyph-name="Idieresis" unicode="&#xcf;" horiz-adv-x="270" 
d="M100 0v700h70v-700h-70zM27 788q-19 0 -33 14t-14 33t14 33t33 14t33 -14t14 -33t-14 -33t-33 -14zM243 788q-19 0 -33 14t-14 33t14 33t33 14t33 -14t14 -33t-14 -33t-33 -14z" />
    <glyph glyph-name="Eth" unicode="&#xd0;" horiz-adv-x="705" 
d="M25 323v54h90v323h210q150 0 232.5 -83t82.5 -235v-64q0 -151 -83 -234.5t-232 -83.5h-210v323h-90zM325 636h-140v-259h190v-54h-190v-259h140q118 0 180.5 64.5t62.5 189.5v64q0 124 -63 189t-180 65z" />
    <glyph glyph-name="Ntilde" unicode="&#xd1;" horiz-adv-x="710" 
d="M522 0l-306 520l-56 103v-623h-70v700h98l306 -520l56 -103v623h70v-700h-98zM425 770q-32 0 -57 17.5t-45 35t-38 17.5q-45 0 -45 -55h-50q0 57 25 86t70 29q32 0 57 -17.5t45 -35t38 -17.5q45 0 45 55h50q0 -57 -25 -86t-70 -29z" />
    <glyph glyph-name="Ograve" unicode="&#xd2;" horiz-adv-x="710" 
d="M355 -7q-129 0 -209.5 87.5t-80.5 237.5v64q0 149 81 237t209 88q129 0 209.5 -87.5t80.5 -237.5v-64q0 -149 -81 -237t-209 -88zM355 59q96 0 157 69t61 190v64q0 120 -61.5 189.5t-156.5 69.5q-96 0 -157 -69t-61 -190v-64q0 -120 61.5 -189.5t156.5 -69.5zM319 760
l-128 150h86l114 -150h-72z" />
    <glyph glyph-name="Oacute" unicode="&#xd3;" horiz-adv-x="710" 
d="M355 -7q-129 0 -209.5 87.5t-80.5 237.5v64q0 149 81 237t209 88q129 0 209.5 -87.5t80.5 -237.5v-64q0 -149 -81 -237t-209 -88zM355 59q96 0 157 69t61 190v64q0 120 -61.5 189.5t-156.5 69.5q-96 0 -157 -69t-61 -190v-64q0 -120 61.5 -189.5t156.5 -69.5zM319 760
l114 150h86l-128 -150h-72z" />
    <glyph glyph-name="Ocircumflex" unicode="&#xd4;" horiz-adv-x="710" 
d="M355 -7q-129 0 -209.5 87.5t-80.5 237.5v64q0 149 81 237t209 88q129 0 209.5 -87.5t80.5 -237.5v-64q0 -149 -81 -237t-209 -88zM355 59q96 0 157 69t61 190v64q0 120 -61.5 189.5t-156.5 69.5q-96 0 -157 -69t-61 -190v-64q0 -120 61.5 -189.5t156.5 -69.5zM438 760
l-83 97l-83 -97h-72l114 150h82l114 -150h-72z" />
    <glyph glyph-name="Otilde" unicode="&#xd5;" horiz-adv-x="710" 
d="M355 -7q-129 0 -209.5 87.5t-80.5 237.5v64q0 149 81 237t209 88q129 0 209.5 -87.5t80.5 -237.5v-64q0 -149 -81 -237t-209 -88zM355 59q96 0 157 69t61 190v64q0 120 -61.5 189.5t-156.5 69.5q-96 0 -157 -69t-61 -190v-64q0 -120 61.5 -189.5t156.5 -69.5zM425 770
q-32 0 -57 17.5t-45 35t-38 17.5q-45 0 -45 -55h-50q0 57 25 86t70 29q32 0 57 -17.5t45 -35t38 -17.5q45 0 45 55h50q0 -57 -25 -86t-70 -29z" />
    <glyph glyph-name="Odieresis" unicode="&#xd6;" horiz-adv-x="710" 
d="M355 -7q-129 0 -209.5 87.5t-80.5 237.5v64q0 149 81 237t209 88q129 0 209.5 -87.5t80.5 -237.5v-64q0 -149 -81 -237t-209 -88zM355 59q96 0 157 69t61 190v64q0 120 -61.5 189.5t-156.5 69.5q-96 0 -157 -69t-61 -190v-64q0 -120 61.5 -189.5t156.5 -69.5zM247 788
q-19 0 -33 14t-14 33t14 33t33 14t33 -14t14 -33t-14 -33t-33 -14zM463 788q-19 0 -33 14t-14 33t14 33t33 14t33 -14t14 -33t-14 -33t-33 -14z" />
    <glyph glyph-name="multiply" unicode="&#xd7;" 
d="M157 175l-47 47l138 138l-138 138l47 47l138 -138l138 138l47 -47l-138 -138l138 -138l-47 -47l-138 138z" />
    <glyph glyph-name="Oslash" unicode="&#xd8;" horiz-adv-x="710" 
d="M107 -7l-42 34l61 77q-61 84 -61 214v64q0 149 81 237t209 88q115 0 192 -71l56 71l42 -34l-62 -78q62 -86 62 -213v-64q0 -149 -81 -237t-209 -88q-117 0 -193 70zM137 318q0 -91 36 -154l330 416q-59 61 -148 61q-96 0 -157 -69t-61 -190v-64zM355 59q96 0 157 69
t61 190v64q0 88 -37 154l-329 -417q58 -60 148 -60z" />
    <glyph glyph-name="Ugrave" unicode="&#xd9;" horiz-adv-x="690" 
d="M345 -7q-120 0 -190 74t-70 208v425h70v-425q0 -103 51.5 -159.5t138.5 -56.5q89 0 139.5 55.5t50.5 160.5v425h70v-425q0 -133 -70.5 -207.5t-189.5 -74.5zM309 760l-128 150h86l114 -150h-72z" />
    <glyph glyph-name="Uacute" unicode="&#xda;" horiz-adv-x="690" 
d="M345 -7q-120 0 -190 74t-70 208v425h70v-425q0 -103 51.5 -159.5t138.5 -56.5q89 0 139.5 55.5t50.5 160.5v425h70v-425q0 -133 -70.5 -207.5t-189.5 -74.5zM309 760l114 150h86l-128 -150h-72z" />
    <glyph glyph-name="Ucircumflex" unicode="&#xdb;" horiz-adv-x="690" 
d="M345 -7q-120 0 -190 74t-70 208v425h70v-425q0 -103 51.5 -159.5t138.5 -56.5q89 0 139.5 55.5t50.5 160.5v425h70v-425q0 -133 -70.5 -207.5t-189.5 -74.5zM428 760l-83 97l-83 -97h-72l114 150h82l114 -150h-72z" />
    <glyph glyph-name="Udieresis" unicode="&#xdc;" horiz-adv-x="690" 
d="M345 -7q-120 0 -190 74t-70 208v425h70v-425q0 -103 51.5 -159.5t138.5 -56.5q89 0 139.5 55.5t50.5 160.5v425h70v-425q0 -133 -70.5 -207.5t-189.5 -74.5zM237 788q-19 0 -33 14t-14 33t14 33t33 14t33 -14t14 -33t-14 -33t-33 -14zM453 788q-19 0 -33 14t-14 33t14 33
t33 14t33 -14t14 -33t-14 -33t-33 -14z" />
    <glyph glyph-name="Yacute" unicode="&#xdd;" horiz-adv-x="650" 
d="M295 0v255l-265 445h78l222 -374l214 374h76l-255 -445v-255h-70zM290 760l114 150h86l-128 -150h-72z" />
    <glyph glyph-name="Thorn" unicode="&#xde;" horiz-adv-x="600" 
d="M90 0v700h70v-123h150q250 0 250 -217q0 -104 -62.5 -160.5t-187.5 -56.5h-150v-143h-70zM310 513h-150v-306h150q178 0 178 153q0 76 -43 114.5t-135 38.5z" />
    <glyph glyph-name="germandbls" unicode="&#xdf;" horiz-adv-x="560" 
d="M85 0v495q0 97 56 154.5t149 57.5q88 0 141.5 -51.5t53.5 -132.5q0 -47 -23.5 -85.5t-64.5 -61.5q108 -38 108 -154v-44q0 -84 -51.5 -131t-148.5 -47h-65v60h65q63 0 97.5 32t34.5 86v44q0 54 -34.5 86t-97.5 32h-65v60h50q57 0 92 34t35 89q0 54 -35 88t-92 34
q-64 0 -101.5 -40t-37.5 -110v-495h-66z" />
    <glyph glyph-name="agrave" unicode="&#xe0;" horiz-adv-x="520" 
d="M205 -7q-74 0 -114.5 38.5t-40.5 106.5q0 157 210 157h114v45q0 55 -27 80t-87 25q-106 0 -114 -80h-71q4 64 51 103t134 39q88 0 134 -43.5t46 -123.5v-340h-51l-10 94q-26 -47 -72 -74t-102 -27zM210 55q68 0 116 46.5t48 110.5v23h-114q-142 0 -142 -97q0 -39 24 -61
t68 -22zM220 560l-130 150h82l118 -150h-70z" />
    <glyph glyph-name="aacute" unicode="&#xe1;" horiz-adv-x="520" 
d="M205 -7q-74 0 -114.5 38.5t-40.5 106.5q0 157 210 157h114v45q0 55 -27 80t-87 25q-106 0 -114 -80h-71q4 64 51 103t134 39q88 0 134 -43.5t46 -123.5v-340h-51l-10 94q-26 -47 -72 -74t-102 -27zM210 55q68 0 116 46.5t48 110.5v23h-114q-142 0 -142 -97q0 -39 24 -61
t68 -22zM220 560l118 150h82l-130 -150h-70z" />
    <glyph glyph-name="acircumflex" unicode="&#xe2;" horiz-adv-x="520" 
d="M205 -7q-74 0 -114.5 38.5t-40.5 106.5q0 157 210 157h114v45q0 55 -27 80t-87 25q-106 0 -114 -80h-71q4 64 51 103t134 39q88 0 134 -43.5t46 -123.5v-340h-51l-10 94q-26 -47 -72 -74t-102 -27zM210 55q68 0 116 46.5t48 110.5v23h-114q-142 0 -142 -97q0 -39 24 -61
t68 -22zM342 560l-87 99l-87 -99h-68l118 150h74l118 -150h-68z" />
    <glyph glyph-name="atilde" unicode="&#xe3;" horiz-adv-x="520" 
d="M205 -7q-74 0 -114.5 38.5t-40.5 106.5q0 157 210 157h114v45q0 55 -27 80t-87 25q-106 0 -114 -80h-71q4 64 51 103t134 39q88 0 134 -43.5t46 -123.5v-340h-51l-10 94q-26 -47 -72 -74t-102 -27zM210 55q68 0 116 46.5t48 110.5v23h-114q-142 0 -142 -97q0 -39 24 -61
t68 -22zM320 570q-29 0 -53 18t-42.5 36t-34.5 18q-40 0 -40 -57h-50q0 57 24.5 86t65.5 29q29 0 53 -18t42.5 -36t34.5 -18q40 0 40 57h50q0 -57 -24.5 -86t-65.5 -29z" />
    <glyph glyph-name="adieresis" unicode="&#xe4;" horiz-adv-x="520" 
d="M205 -7q-74 0 -114.5 38.5t-40.5 106.5q0 157 210 157h114v45q0 55 -27 80t-87 25q-106 0 -114 -80h-71q4 64 51 103t134 39q88 0 134 -43.5t46 -123.5v-340h-51l-10 94q-26 -47 -72 -74t-102 -27zM210 55q68 0 116 46.5t48 110.5v23h-114q-142 0 -142 -97q0 -39 24 -61
t68 -22zM157 588q-19 0 -33 14t-14 33t14 33t33 14t33 -14t14 -33t-14 -33t-33 -14zM353 588q-19 0 -33 14t-14 33t14 33t33 14t33 -14t14 -33t-14 -33t-33 -14z" />
    <glyph glyph-name="aring" unicode="&#xe5;" horiz-adv-x="520" 
d="M205 -7q-74 0 -114.5 38.5t-40.5 106.5q0 157 210 157h114v45q0 55 -27 80t-87 25q-106 0 -114 -80h-71q4 64 51 103t134 39q88 0 134 -43.5t46 -123.5v-340h-51l-10 94q-26 -47 -72 -74t-102 -27zM210 55q68 0 116 46.5t48 110.5v23h-114q-142 0 -142 -97q0 -39 24 -61
t68 -22zM255 534q-45 0 -75 29.5t-30 71.5t30 71.5t75 29.5t75 -29.5t30 -71.5t-30 -71.5t-75 -29.5zM255 582q23 0 38 15t15 38t-15 38t-38 15t-38 -15t-15 -38t15 -38t38 -15z" />
    <glyph glyph-name="ae" unicode="&#xe6;" horiz-adv-x="855" 
d="M210 -7q-78 0 -119 38.5t-41 106.5q0 151 216 151h108v51q0 55 -27 80t-87 25q-106 0 -114 -80h-71q4 64 51 103t134 39q119 0 158 -85q57 85 169 85q97 0 155 -62t58 -173v-41h-360v-3q0 -85 39 -129t108 -44q105 0 140 91h68q-16 -69 -68.5 -111t-139.5 -42
q-135 0 -186 115q-25 -54 -75 -84.5t-116 -30.5zM589 445q-64 0 -104.5 -40.5t-44.5 -115.5h291q-4 76 -42 116t-100 40zM210 55q67 0 114 44t50 109v23h-108q-82 0 -115 -24t-33 -69q0 -39 24 -61t68 -22z" />
    <glyph glyph-name="ccedilla" unicode="&#xe7;" horiz-adv-x="505" 
d="M224 -82l18 77q-86 8 -136.5 70t-50.5 163v44q0 109 59 172t156 63q79 0 129 -39.5t66 -102.5h-70q-35 80 -125 80q-65 0 -106 -46t-41 -127v-44q0 -81 41 -127t106 -46q93 0 125 90h70q-15 -64 -58 -104t-113 -47l-8 -34q64 -12 64 -76q0 -37 -24.5 -60.5t-65.5 -23.5
h-70v50h65q37 0 37 34t-37 34h-31z" />
    <glyph glyph-name="egrave" unicode="&#xe8;" horiz-adv-x="540" 
d="M270 -7q-100 0 -157.5 61.5t-57.5 173.5v44q0 111 58 173t157 62t157 -62t58 -173v-41h-362v-3q0 -84 39.5 -128.5t107.5 -44.5q107 0 142 91h68q-16 -69 -69 -111t-141 -42zM270 445q-65 0 -104 -40.5t-43 -115.5h293q-4 76 -42.5 116t-103.5 40zM235 560l-130 150h82
l118 -150h-70z" />
    <glyph glyph-name="eacute" unicode="&#xe9;" horiz-adv-x="540" 
d="M270 -7q-100 0 -157.5 61.5t-57.5 173.5v44q0 111 58 173t157 62t157 -62t58 -173v-41h-362v-3q0 -84 39.5 -128.5t107.5 -44.5q107 0 142 91h68q-16 -69 -69 -111t-141 -42zM270 445q-65 0 -104 -40.5t-43 -115.5h293q-4 76 -42.5 116t-103.5 40zM235 560l118 150h82
l-130 -150h-70z" />
    <glyph glyph-name="ecircumflex" unicode="&#xea;" horiz-adv-x="540" 
d="M270 -7q-100 0 -157.5 61.5t-57.5 173.5v44q0 111 58 173t157 62t157 -62t58 -173v-41h-362v-3q0 -84 39.5 -128.5t107.5 -44.5q107 0 142 91h68q-16 -69 -69 -111t-141 -42zM270 445q-65 0 -104 -40.5t-43 -115.5h293q-4 76 -42.5 116t-103.5 40zM357 560l-87 99
l-87 -99h-68l118 150h74l118 -150h-68z" />
    <glyph glyph-name="edieresis" unicode="&#xeb;" horiz-adv-x="540" 
d="M270 -7q-100 0 -157.5 61.5t-57.5 173.5v44q0 111 58 173t157 62t157 -62t58 -173v-41h-362v-3q0 -84 39.5 -128.5t107.5 -44.5q107 0 142 91h68q-16 -69 -69 -111t-141 -42zM270 445q-65 0 -104 -40.5t-43 -115.5h293q-4 76 -42.5 116t-103.5 40zM172 588
q-20 0 -33.5 14t-13.5 33t13.5 33t33.5 14t33.5 -14t13.5 -33t-13.5 -33t-33.5 -14zM368 588q-20 0 -33.5 14t-13.5 33t13.5 33t33.5 14t33.5 -14t13.5 -33t-13.5 -33t-33.5 -14z" />
    <glyph glyph-name="igrave" unicode="&#xec;" horiz-adv-x="256" 
d="M95 0v500h66v-500h-66zM93 560l-130 150h82l118 -150h-70z" />
    <glyph glyph-name="iacute" unicode="&#xed;" horiz-adv-x="256" 
d="M95 0v500h66v-500h-66zM93 560l118 150h82l-130 -150h-70z" />
    <glyph glyph-name="icircumflex" unicode="&#xee;" horiz-adv-x="256" 
d="M95 0v500h66v-500h-66zM215 560l-87 99l-87 -99h-68l118 150h74l118 -150h-68z" />
    <glyph glyph-name="idieresis" unicode="&#xef;" horiz-adv-x="256" 
d="M95 0v500h66v-500h-66zM30 588q-20 0 -33.5 14t-13.5 33t13.5 33t33.5 14t33.5 -14t13.5 -33t-13.5 -33t-33.5 -14zM226 588q-20 0 -33.5 14t-13.5 33t13.5 33t33.5 14t33.5 -14t13.5 -33t-13.5 -33t-33.5 -14z" />
    <glyph glyph-name="eth" unicode="&#xf0;" horiz-adv-x="545" 
d="M165 530v50l71 39q-41 38 -92 81h87q3 -3 58 -52l96 52v-50l-64 -35q164 -170 164 -353v-44q0 -101 -60.5 -163t-154.5 -62q-95 0 -155 62t-60 163v44q0 100 58.5 162.5t144.5 62.5q68 0 117 -37q-39 68 -107 136zM270 55q66 0 106.5 43.5t40.5 119.5v51q-2 73 -42 114.5
t-105 41.5q-66 0 -106.5 -43.5t-40.5 -119.5v-44q0 -75 40.5 -119t106.5 -44z" />
    <glyph glyph-name="ntilde" unicode="&#xf1;" horiz-adv-x="575" 
d="M85 0v500h51l8 -82q52 89 166 89q87 0 136 -53.5t49 -153.5v-300h-66v300q0 72 -33.5 108.5t-95.5 36.5q-66 0 -106.5 -38t-42.5 -101v-306h-66zM355 570q-29 0 -53 18t-42.5 36t-34.5 18q-40 0 -40 -57h-50q0 57 24.5 86t65.5 29q29 0 53 -18t42.5 -36t34.5 -18
q40 0 40 57h50q0 -57 -24.5 -86t-65.5 -29z" />
    <glyph glyph-name="ograve" unicode="&#xf2;" horiz-adv-x="550" 
d="M275 -7q-101 0 -160.5 62.5t-59.5 172.5v44q0 109 60 172t160 63q101 0 160.5 -62.5t59.5 -172.5v-44q0 -109 -60 -172t-160 -63zM275 55q69 0 110.5 45.5t41.5 127.5v44q0 81 -42 127t-110 46q-69 0 -110.5 -45.5t-41.5 -127.5v-44q0 -81 42 -127t110 -46zM240 560
l-130 150h82l118 -150h-70z" />
    <glyph glyph-name="oacute" unicode="&#xf3;" horiz-adv-x="550" 
d="M275 -7q-101 0 -160.5 62.5t-59.5 172.5v44q0 109 60 172t160 63q101 0 160.5 -62.5t59.5 -172.5v-44q0 -109 -60 -172t-160 -63zM275 55q69 0 110.5 45.5t41.5 127.5v44q0 81 -42 127t-110 46q-69 0 -110.5 -45.5t-41.5 -127.5v-44q0 -81 42 -127t110 -46zM240 560
l118 150h82l-130 -150h-70z" />
    <glyph glyph-name="ocircumflex" unicode="&#xf4;" horiz-adv-x="550" 
d="M275 -7q-101 0 -160.5 62.5t-59.5 172.5v44q0 109 60 172t160 63q101 0 160.5 -62.5t59.5 -172.5v-44q0 -109 -60 -172t-160 -63zM275 55q69 0 110.5 45.5t41.5 127.5v44q0 81 -42 127t-110 46q-69 0 -110.5 -45.5t-41.5 -127.5v-44q0 -81 42 -127t110 -46zM362 560
l-87 99l-87 -99h-68l118 150h74l118 -150h-68z" />
    <glyph glyph-name="otilde" unicode="&#xf5;" horiz-adv-x="550" 
d="M275 -7q-101 0 -160.5 62.5t-59.5 172.5v44q0 109 60 172t160 63q101 0 160.5 -62.5t59.5 -172.5v-44q0 -109 -60 -172t-160 -63zM275 55q69 0 110.5 45.5t41.5 127.5v44q0 81 -42 127t-110 46q-69 0 -110.5 -45.5t-41.5 -127.5v-44q0 -81 42 -127t110 -46zM340 570
q-29 0 -53 18t-42.5 36t-34.5 18q-40 0 -40 -57h-50q0 57 24.5 86t65.5 29q29 0 53 -18t42.5 -36t34.5 -18q40 0 40 57h50q0 -57 -24.5 -86t-65.5 -29z" />
    <glyph glyph-name="odieresis" unicode="&#xf6;" horiz-adv-x="550" 
d="M275 -7q-101 0 -160.5 62.5t-59.5 172.5v44q0 109 60 172t160 63q101 0 160.5 -62.5t59.5 -172.5v-44q0 -109 -60 -172t-160 -63zM275 55q69 0 110.5 45.5t41.5 127.5v44q0 81 -42 127t-110 46q-69 0 -110.5 -45.5t-41.5 -127.5v-44q0 -81 42 -127t110 -46zM177 588
q-19 0 -33 14t-14 33t14 33t33 14t33 -14t14 -33t-14 -33t-33 -14zM373 588q-19 0 -33 14t-14 33t14 33t33 14t33 -14t14 -33t-14 -33t-33 -14z" />
    <glyph glyph-name="divide" unicode="&#xf7;" 
d="M75 328v64h440v-64h-440zM295 495q-24 0 -39.5 16t-15.5 39t15.5 39t39.5 16t39.5 -16t15.5 -39t-15.5 -39t-39.5 -16zM295 115q-24 0 -39.5 16t-15.5 39t15.5 39t39.5 16t39.5 -16t15.5 -39t-15.5 -39t-39.5 -16z" />
    <glyph glyph-name="oslash" unicode="&#xf8;" horiz-adv-x="550" 
d="M93 -7l-38 32l43 52q-43 58 -43 151v44q0 109 60 172t160 63q84 0 142 -47l40 47l38 -32l-43 -52q43 -62 43 -151v-44q0 -109 -60 -172t-160 -63q-87 0 -143 47zM275 55q69 0 110.5 45.5t41.5 127.5v44q0 54 -21 96l-232 -278q40 -35 101 -35zM123 228q0 -57 20 -97
l232 278q-39 36 -100 36q-69 0 -110.5 -45.5t-41.5 -127.5v-44z" />
    <glyph glyph-name="ugrave" unicode="&#xf9;" horiz-adv-x="565" 
d="M260 -7q-83 0 -131.5 53.5t-48.5 153.5v300h66v-300q0 -71 33 -108t91 -37q64 0 104 40.5t40 104.5v300h66v-500h-51l-8 82q-52 -89 -161 -89zM245 560l-130 150h82l118 -150h-70z" />
    <glyph glyph-name="uacute" unicode="&#xfa;" horiz-adv-x="565" 
d="M260 -7q-83 0 -131.5 53.5t-48.5 153.5v300h66v-300q0 -71 33 -108t91 -37q64 0 104 40.5t40 104.5v300h66v-500h-51l-8 82q-52 -89 -161 -89zM245 560l118 150h82l-130 -150h-70z" />
    <glyph glyph-name="ucircumflex" unicode="&#xfb;" horiz-adv-x="565" 
d="M260 -7q-83 0 -131.5 53.5t-48.5 153.5v300h66v-300q0 -71 33 -108t91 -37q64 0 104 40.5t40 104.5v300h66v-500h-51l-8 82q-52 -89 -161 -89zM367 560l-87 99l-87 -99h-68l118 150h74l118 -150h-68z" />
    <glyph glyph-name="udieresis" unicode="&#xfc;" horiz-adv-x="565" 
d="M260 -7q-83 0 -131.5 53.5t-48.5 153.5v300h66v-300q0 -71 33 -108t91 -37q64 0 104 40.5t40 104.5v300h66v-500h-51l-8 82q-52 -89 -161 -89zM183 588q-19 0 -33 14t-14 33t14 33t33 14t33 -14t14 -33t-14 -33t-33 -14zM379 588q-19 0 -33 14t-14 33t14 33t33 14t33 -14
t14 -33t-14 -33t-33 -14z" />
    <glyph glyph-name="yacute" unicode="&#xfd;" horiz-adv-x="520" 
d="M155 -200l77 200l-207 500h74l169 -418l157 418h70l-270 -700h-70zM227 560l118 150h82l-130 -150h-70z" />
    <glyph glyph-name="thorn" unicode="&#xfe;" horiz-adv-x="560" 
d="M309 -7q-108 0 -158 80v-273h-66v900h66v-273q51 80 158 80q89 0 142.5 -61t53.5 -174v-44q0 -112 -54 -173.5t-142 -61.5zM294 55q66 0 104.5 44t38.5 129v44q0 84 -38.5 128.5t-104.5 44.5q-62 0 -101.5 -43.5t-41.5 -121.5v-60q2 -78 41 -121.5t102 -43.5z" />
    <glyph glyph-name="ydieresis" unicode="&#xff;" horiz-adv-x="520" 
d="M155 -200l77 200l-207 500h74l169 -418l157 418h70l-270 -700h-70zM164 588q-20 0 -33.5 14t-13.5 33t13.5 33t33.5 14t33.5 -14t13.5 -33t-13.5 -33t-33.5 -14zM360 588q-20 0 -33.5 14t-13.5 33t13.5 33t33.5 14t33.5 -14t13.5 -33t-13.5 -33t-33.5 -14z" />
    <glyph glyph-name="OE" unicode="&#x152;" horiz-adv-x="960" 
d="M500 0v27q-61 -34 -140 -34q-132 0 -213.5 87t-81.5 238v64q0 149 82 237t214 88q75 0 139 -34v27h420v-64h-350v-244h290v-64h-290v-264h350v-64h-420zM360 59q78 0 140 44v494q-65 44 -139 44q-100 0 -162 -69t-62 -190v-64q0 -120 62.5 -189.5t160.5 -69.5z" />
    <glyph glyph-name="oe" unicode="&#x153;" horiz-adv-x="910" 
d="M641 -7q-129 0 -181 104q-27 -50 -75.5 -77t-109.5 -27q-100 0 -160 63t-60 172v44q0 109 60 172t160 63q129 0 185 -104q52 104 181 104q98 0 156 -62t58 -173v-41h-360v-3q0 -85 39 -129t107 -44q106 0 141 91h68q-16 -69 -69 -111t-140 -42zM275 55q69 0 110.5 45.5
t41.5 127.5v44q0 82 -41.5 127.5t-110.5 45.5t-110.5 -45.5t-41.5 -127.5v-44q0 -82 41.5 -127.5t110.5 -45.5zM641 445q-64 0 -103 -41t-43 -115h291q-4 76 -42.5 116t-102.5 40z" />
    <glyph glyph-name="Ydieresis" unicode="&#x178;" horiz-adv-x="650" 
d="M295 0v255l-265 445h78l222 -374l214 374h76l-255 -445v-255h-70zM218 788q-20 0 -33.5 14t-13.5 33t13.5 33t33.5 14t33.5 -14t13.5 -33t-13.5 -33t-33.5 -14zM434 788q-20 0 -33.5 14t-13.5 33t13.5 33t33.5 14t33.5 -14t13.5 -33t-13.5 -33t-33.5 -14z" />
    <glyph glyph-name="circumflex" unicode="&#x2c6;" horiz-adv-x="360" 
d="M267 560l-87 99l-87 -99h-68l118 150h74l118 -150h-68z" />
    <glyph glyph-name="tilde" unicode="&#x2dc;" horiz-adv-x="340" 
d="M235 570q-29 0 -53 18t-42.5 36t-34.5 18q-40 0 -40 -57h-50q0 57 24.5 86t65.5 29q29 0 53 -18t42.5 -36t34.5 -18q40 0 40 57h50q0 -57 -24.5 -86t-65.5 -29z" />
    <glyph glyph-name="uni2000" unicode="&#x2000;" horiz-adv-x="468" 
 />
    <glyph glyph-name="uni2001" unicode="&#x2001;" horiz-adv-x="936" 
 />
    <glyph glyph-name="uni2002" unicode="&#x2002;" horiz-adv-x="468" 
 />
    <glyph glyph-name="uni2003" unicode="&#x2003;" horiz-adv-x="936" 
 />
    <glyph glyph-name="uni2004" unicode="&#x2004;" horiz-adv-x="312" 
 />
    <glyph glyph-name="uni2005" unicode="&#x2005;" horiz-adv-x="234" 
 />
    <glyph glyph-name="uni2006" unicode="&#x2006;" horiz-adv-x="156" 
 />
    <glyph glyph-name="uni2007" unicode="&#x2007;" horiz-adv-x="156" 
 />
    <glyph glyph-name="uni2008" unicode="&#x2008;" horiz-adv-x="117" 
 />
    <glyph glyph-name="uni2009" unicode="&#x2009;" horiz-adv-x="187" 
 />
    <glyph glyph-name="uni200A" unicode="&#x200a;" horiz-adv-x="52" 
 />
    <glyph glyph-name="uni2010" unicode="&#x2010;" horiz-adv-x="400" 
d="M50 228v64h300v-64h-300z" />
    <glyph glyph-name="uni2011" unicode="&#x2011;" horiz-adv-x="400" 
d="M50 228v64h300v-64h-300z" />
    <glyph glyph-name="figuredash" unicode="&#x2012;" horiz-adv-x="400" 
d="M50 228v64h300v-64h-300z" />
    <glyph glyph-name="endash" unicode="&#x2013;" 
d="M50 228v64h490v-64h-490z" />
    <glyph glyph-name="emdash" unicode="&#x2014;" horiz-adv-x="700" 
d="M50 228v64h600v-64h-600z" />
    <glyph glyph-name="quoteleft" unicode="&#x2018;" horiz-adv-x="250" 
d="M190 700l-50 -235h-80l75 235h55z" />
    <glyph glyph-name="quoteright" unicode="&#x2019;" horiz-adv-x="250" 
d="M60 465l50 235h80l-75 -235h-55z" />
    <glyph glyph-name="quotesinglbase" unicode="&#x201a;" horiz-adv-x="250" 
d="M45 -150l50 235h80l-75 -235h-55z" />
    <glyph glyph-name="quotedblleft" unicode="&#x201c;" horiz-adv-x="420" 
d="M360 700l-50 -235h-80l75 235h55zM190 700l-50 -235h-80l75 235h55z" />
    <glyph glyph-name="quotedblright" unicode="&#x201d;" horiz-adv-x="420" 
d="M230 465l50 235h80l-75 -235h-55zM60 465l50 235h80l-75 -235h-55z" />
    <glyph glyph-name="quotedblbase" unicode="&#x201e;" horiz-adv-x="420" 
d="M215 -150l50 235h80l-75 -235h-55zM45 -150l50 235h80l-75 -235h-55z" />
    <glyph glyph-name="bullet" unicode="&#x2022;" horiz-adv-x="450" 
d="M225 145q-47 0 -81 34t-34 81t34 81t81 34t81 -34t34 -81t-34 -81t-81 -34z" />
    <glyph glyph-name="ellipsis" unicode="&#x2026;" horiz-adv-x="860" 
d="M125 -7q-24 0 -39.5 16t-15.5 39t15.5 39t39.5 16t39.5 -16t15.5 -39t-15.5 -39t-39.5 -16zM430 -7q-24 0 -39.5 16t-15.5 39t15.5 39t39.5 16t39.5 -16t15.5 -39t-15.5 -39t-39.5 -16zM735 -7q-24 0 -39.5 16t-15.5 39t15.5 39t39.5 16t39.5 -16t15.5 -39t-15.5 -39
t-39.5 -16z" />
    <glyph glyph-name="uni202F" unicode="&#x202f;" horiz-adv-x="187" 
 />
    <glyph glyph-name="guilsinglleft" unicode="&#x2039;" horiz-adv-x="300" 
d="M45 258l122 202h73l-121 -198l121 -202h-76z" />
    <glyph glyph-name="guilsinglright" unicode="&#x203a;" horiz-adv-x="300" 
d="M255 262l-122 -202h-73l121 198l-121 202h76z" />
    <glyph glyph-name="uni205F" unicode="&#x205f;" horiz-adv-x="234" 
 />
    <glyph glyph-name="Euro" unicode="&#x20ac;" horiz-adv-x="620" 
d="M15 396l17 58h97q16 121 88 183.5t188 62.5h180l-19 -64h-161q-177 0 -204 -182h313l-16 -58h-301v-14v-64v-14h274l-17 -58h-252q27 -182 203 -182h170v-64h-170q-118 0 -189 61.5t-87 184.5h-114l17 58h93v14v64v14h-110z" />
    <glyph glyph-name="trademark" unicode="&#x2122;" horiz-adv-x="850" 
d="M586 423l-79 160l-18 40v-323h-60v400h78l109 -219l114 219h75v-400h-60v323l-18 -40l-79 -160h-62zM45 645v55h322v-55h-131v-345h-60v345h-131z" />
    <glyph glyph-name="uni25FC" unicode="&#x25fc;" horiz-adv-x="500" 
d="M0 500h500v-500h-500v500z" />
    <glyph glyph-name="uniFB01" unicode="&#xfb01;" horiz-adv-x="585" 
d="M434 0v440h-248v-440h-66v440h-90v60h90v68q0 64 34 98t98 34h158v-60h-150q-74 0 -74 -80v-60h314v-500h-66z" />
    <glyph glyph-name="uniFB02" unicode="&#xfb02;" horiz-adv-x="625" 
d="M555 0q-63 0 -96.5 34t-33.5 98v508h-165q-74 0 -74 -80v-60h119v-60h-119v-440h-66v440h-90v60h90v68q0 64 34 98t98 34h239v-560q0 -80 72 -80h32v-60h-40z" />
    <glyph glyph-name="uniFB03" unicode="&#xfb03;" horiz-adv-x="900" 
d="M435 0v440h-249v-440h-66v440h-90v60h90v68q0 64 34 98t98 34h68v-60h-60q-74 0 -74 -80v-60h249v68q0 64 33.5 98t98.5 34h158v-60h-150q-74 0 -74 -80v-60h314v-500h-66v440h-248v-440h-66z" />
    <glyph glyph-name="uniFB04" unicode="&#xfb04;" horiz-adv-x="940" 
d="M435 0v440h-249v-440h-66v440h-90v60h90v68q0 64 34 98t98 34h68v-60h-60q-74 0 -74 -80v-60h249v68q0 64 33.5 98t98.5 34h239v-560q0 -80 72 -80h32v-60h-40q-63 0 -96.5 34t-33.5 98v508h-165q-74 0 -74 -80v-60h119v-60h-119v-440h-66z" />
    </font>
</defs>
</svg>
