<?xml version="1.0" standalone="no"?>
<!DOCTYPE svg PUBLIC "-//W3C//DTD SVG 1.1//EN" "http://www.w3.org/Graphics/SVG/1.1/DTD/svg11.dtd" >
<svg xmlns="http://www.w3.org/2000/svg" xmlns:xlink="http://www.w3.org/1999/xlink" version="1.1">
<metadata>
Created by FontForge 20190801 at Mon Dec 31 18:50:31 2018
 By Jimmy Wärting
Copyright (c) 2018 ParaType Inc., ParaType Ltd. All rights reserved.
</metadata>
<defs>
<font id="PTRootUI-Light" horiz-adv-x="590" >
  <font-face 
    font-family="PT Root UI Light"
    font-weight="300"
    font-stretch="normal"
    units-per-em="1000"
    panose-1="2 11 2 3 2 2 2 2 2 4"
    ascent="772"
    descent="-228"
    x-height="500"
    cap-height="700"
    bbox="-27 -206 985 932"
    underline-thickness="50"
    underline-position="-300"
    unicode-range="U+0020-FB04"
  />
<missing-glyph horiz-adv-x="364" 
d="M33 0v666h265v-666h-265zM66 33h199v600h-199v-600z" />
    <glyph glyph-name=".notdef" horiz-adv-x="364" 
d="M33 0v666h265v-666h-265zM66 33h199v600h-199v-600z" />
    <glyph glyph-name="glyph1" horiz-adv-x="0" 
 />
    <glyph glyph-name="glyph2" horiz-adv-x="333" 
 />
    <glyph glyph-name="space" unicode=" " horiz-adv-x="250" 
 />
    <glyph glyph-name="exclam" unicode="!" horiz-adv-x="300" 
d="M150 -6q-17 0 -28.5 11.5t-11.5 28.5t11.5 28.5t28.5 11.5t28.5 -11.5t11.5 -28.5t-11.5 -28.5t-28.5 -11.5zM127 200v500h46v-500h-46z" />
    <glyph glyph-name="quotedbl" unicode="&#x22;" horiz-adv-x="400" 
d="M277 470v230h46v-230h-46zM77 470v230h46v-230h-46z" />
    <glyph glyph-name="numbersign" unicode="#" 
d="M318 0l39 220h-171l-39 -220h-44l39 220h-107l8 40h106l36 200h-107l7 40h107l36 200h44l-36 -200h171l36 200h44l-36 -200h104l-7 -40h-104l-36 -200h104l-7 -40h-104l-39 -220h-44zM229 460l-36 -200h171l36 200h-171z" />
    <glyph glyph-name="dollar" unicode="$" horiz-adv-x="610" 
d="M283 -100v95q-98 5 -152 59t-61 151h50q14 -155 163 -166v303q-48 14 -76.5 26t-61.5 33.5t-49 53.5t-16 75q0 74 52.5 122t150.5 53v95h44v-95q92 -5 143.5 -55t59.5 -135h-50q-16 136 -153 146v-283q40 -12 63.5 -20.5t56 -25.5t50 -35.5t30.5 -48.5t13 -68
q0 -81 -54 -131t-159 -54v-95h-44zM492 180q0 61 -42.5 92.5t-122.5 56.5v-291q81 5 123 43t42 99zM128 530q0 -57 40 -87t115 -52v270q-76 -5 -115.5 -40.5t-39.5 -90.5z" />
    <glyph glyph-name="percent" unicode="%" horiz-adv-x="900" 
d="M215 344q-69 0 -112 44.5t-43 116.5v40q0 72 43 116.5t112 44.5t112 -44.5t43 -116.5v-40q0 -72 -43 -116.5t-112 -44.5zM215 386q49 0 80 32.5t31 86.5v40q0 54 -31 86.5t-80 32.5t-80 -32.5t-31 -86.5v-40q0 -54 31 -86.5t80 -32.5zM685 -6q-69 0 -112 44.5t-43 116.5
v40q0 72 43 116.5t112 44.5t112 -44.5t43 -116.5v-40q0 -72 -43 -116.5t-112 -44.5zM685 36q49 0 80 32.5t31 86.5v40q0 54 -31 86.5t-80 32.5t-80 -32.5t-31 -86.5v-40q0 -54 31 -86.5t80 -32.5zM220 0l412 700h48l-412 -700h-48z" />
    <glyph glyph-name="ampersand" unicode="&#x26;" horiz-adv-x="640" 
d="M572 0l-89 90q-79 -96 -208 -96q-91 0 -148 52.5t-57 133.5q0 58 28.5 102.5t101.5 96.5q-59 61 -79.5 100.5t-20.5 85.5q0 62 42 101.5t113 39.5q68 0 109 -39.5t41 -101.5q0 -48 -28 -91t-110 -101l208 -214q39 75 39 171h46q0 -120 -52 -205l122 -125h-58zM275 36
q109 0 176 87l-221 225q-67 -46 -90.5 -83t-23.5 -85q0 -62 44.5 -103t114.5 -41zM146 565q0 -38 17.5 -70.5t72.5 -90.5q77 54 100 87.5t23 73.5q0 43 -29 71t-75 28q-50 0 -79.5 -28t-29.5 -71z" />
    <glyph glyph-name="quotesingle" unicode="'" horiz-adv-x="200" 
d="M77 470v230h46v-230h-46z" />
    <glyph glyph-name="parenleft" unicode="(" horiz-adv-x="400" 
d="M100 250q0 78 20 153.5t48 126.5t56 91.5t48 59.5l20 19h58q-8 -7 -21.5 -20t-48.5 -57.5t-61.5 -93t-48.5 -125t-22 -154.5q0 -57 11 -113t29 -99t39.5 -82.5t43 -67t39.5 -48t29 -30.5l11 -10h-60q-8 7 -20.5 20t-45.5 57.5t-58 93t-45.5 125t-20.5 154.5z" />
    <glyph glyph-name="parenright" unicode=")" horiz-adv-x="400" 
d="M300 250q0 -78 -20 -153.5t-48 -126.5t-56 -91.5t-48 -59.5l-20 -19h-58q8 7 21.5 20t48.5 57.5t61.5 93t48.5 125t22 154.5q0 57 -11 113t-29 99t-39.5 82.5t-43 67t-39.5 48t-29 30.5l-11 10h60q8 -7 20.5 -20t45.5 -57.5t58 -93t45.5 -125t20.5 -154.5z" />
    <glyph glyph-name="asterisk" unicode="*" horiz-adv-x="390" 
d="M35 539v34h131l-66 115l30 18l66 -116l67 116l29 -18l-66 -115h129v-34h-129l66 -115l-29 -18l-67 115l-66 -115l-30 18l66 115h-131z" />
    <glyph glyph-name="plus" unicode="+" 
d="M80 339v42h192v194h46v-194h192v-42h-192v-194h-46v194h-192z" />
    <glyph glyph-name="comma" unicode="," horiz-adv-x="250" 
d="M55 -150l54 215h56l-71 -215h-39z" />
    <glyph glyph-name="hyphen" unicode="-" horiz-adv-x="400" 
d="M55 239v42h290v-42h-290z" />
    <glyph glyph-name="period" unicode="." horiz-adv-x="250" 
d="M125 -6q-17 0 -28.5 11.5t-11.5 28.5t11.5 28.5t28.5 11.5t28.5 -11.5t11.5 -28.5t-11.5 -28.5t-28.5 -11.5z" />
    <glyph glyph-name="slash" unicode="/" horiz-adv-x="450" 
d="M35 -200l332 900h48l-332 -900h-48z" />
    <glyph glyph-name="zero" unicode="0" horiz-adv-x="610" 
d="M305 -6q-220 0 -220 321v70q0 321 220 321q106 0 163 -76t57 -245v-70q0 -321 -220 -321zM305 38q84 0 128 63.5t44 213.5v70q0 149 -44.5 213t-127.5 64q-84 0 -128 -63.5t-44 -213.5v-70q0 -149 44.5 -213t127.5 -64z" />
    <glyph glyph-name="one" unicode="1" horiz-adv-x="350" 
d="M40 544v52l154 104h46v-700h-46v647z" />
    <glyph glyph-name="two" unicode="2" horiz-adv-x="550" 
d="M50 0v44l259 258q71 71 99.5 115.5t28.5 97.5q0 60 -47 102.5t-120 42.5q-72 0 -119.5 -42.5t-47.5 -102.5h-48q0 80 60.5 135.5t154.5 55.5t154.5 -55.5t60.5 -135.5q0 -61 -33 -113t-109 -128l-232 -230h379v-44h-440z" />
    <glyph glyph-name="three" unicode="3" horiz-adv-x="580" 
d="M285 -6q-97 0 -155.5 57t-64.5 154h48q5 -78 50.5 -122.5t121.5 -44.5q81 0 126.5 41.5t45.5 110.5q0 65 -44.5 107t-117.5 42h-95v42h95q64 0 105.5 40t41.5 100q0 65 -41.5 103t-115.5 38q-68 0 -111.5 -40.5t-50.5 -106.5h-48q6 85 63 138t147 53q95 0 150 -50.5
t55 -134.5q0 -54 -29 -96.5t-80 -63.5q58 -20 91 -65.5t33 -105.5q0 -88 -59 -142t-161 -54z" />
    <glyph glyph-name="four" unicode="4" horiz-adv-x="565" 
d="M30 179v42l346 479h52v-479h102v-42h-102v-179h-46v179h-352zM82 221h300v420z" />
    <glyph glyph-name="five" unicode="5" horiz-adv-x="565" 
d="M90 320l30 380h340v-42h-298l-22 -274q56 66 155 66q92 0 151 -62.5t59 -165.5q0 -101 -61.5 -164.5t-158.5 -63.5q-83 0 -141 40t-79 115h48q38 -111 172 -111q76 0 124 50.5t48 133.5q0 84 -46.5 134t-120.5 50q-53 0 -94 -25.5t-60 -60.5h-46z" />
    <glyph glyph-name="six" unicode="6" horiz-adv-x="595" 
d="M305 -6q-102 0 -161 71t-59 220v70q0 351 225 351q72 0 119.5 -40t65.5 -106h-48q-35 102 -137 102q-172 0 -180 -295q26 47 71.5 73t103.5 26q95 0 152.5 -60t57.5 -161v-30q0 -98 -60.5 -159.5t-149.5 -61.5zM305 422q-75 0 -122.5 -44.5t-49.5 -115.5v-37
q0 -88 47.5 -137.5t124.5 -49.5q71 0 116.5 48.5t45.5 128.5v30q0 80 -45.5 128.5t-116.5 48.5z" />
    <glyph glyph-name="seven" unicode="7" horiz-adv-x="480" 
d="M25 658v42h430v-42l-276 -658h-49l276 658h-381z" />
    <glyph glyph-name="eight" unicode="8" 
d="M295 -6q-100 0 -160 54.5t-60 138.5q0 63 36.5 110t100.5 69q-54 20 -85.5 61.5t-31.5 98.5q0 75 57 127.5t143 52.5q88 0 144 -51.5t56 -128.5q0 -56 -31.5 -97.5t-86.5 -62.5q64 -21 101 -68t37 -111q0 -82 -60.5 -137.5t-159.5 -55.5zM295 38q76 0 124 43.5t48 105.5
q0 67 -48.5 110.5t-123.5 48.5q-77 -5 -124.5 -48t-47.5 -111q0 -63 47.5 -106t124.5 -43zM295 384q65 5 108.5 43t43.5 99q0 56 -43 96t-109 40t-109 -40t-43 -96q0 -59 44 -98t108 -44z" />
    <glyph glyph-name="nine" unicode="9" horiz-adv-x="595" 
d="M285 -6q-72 0 -119.5 40t-65.5 106h48q35 -102 137 -102q172 0 180 294q-26 -46 -72 -72t-103 -26q-95 0 -152.5 60t-57.5 161v30q0 98 60.5 159.5t149.5 61.5q102 0 161 -71t59 -220v-70q0 -351 -225 -351zM290 278q77 0 124.5 46.5t47.5 120.5v30q0 88 -47.5 137.5
t-124.5 49.5q-71 0 -116.5 -48.5t-45.5 -128.5v-30q0 -80 45.5 -128.5t116.5 -48.5z" />
    <glyph glyph-name="colon" unicode=":" horiz-adv-x="250" 
d="M125 426q-17 0 -28.5 11.5t-11.5 28.5t11.5 28.5t28.5 11.5t28.5 -11.5t11.5 -28.5t-11.5 -28.5t-28.5 -11.5zM125 -6q-17 0 -28.5 11.5t-11.5 28.5t11.5 28.5t28.5 11.5t28.5 -11.5t11.5 -28.5t-11.5 -28.5t-28.5 -11.5z" />
    <glyph glyph-name="semicolon" unicode=";" horiz-adv-x="250" 
d="M43 -150l54 215h56l-71 -215h-39zM125 426q-17 0 -28.5 11.5t-11.5 28.5t11.5 28.5t28.5 11.5t28.5 -11.5t11.5 -28.5t-11.5 -28.5t-28.5 -11.5z" />
    <glyph glyph-name="less" unicode="&#x3c;" 
d="M510 532l-381 -171l381 -171v-50l-430 195v50l430 195v-48z" />
    <glyph glyph-name="equal" unicode="=" 
d="M80 439v42h430v-42h-430zM80 239v42h430v-42h-430z" />
    <glyph glyph-name="greater" unicode="&#x3e;" 
d="M80 188l381 171l-381 171v50l430 -195v-50l-430 -195v48z" />
    <glyph glyph-name="question" unicode="?" horiz-adv-x="500" 
d="M222 174q0 48 10 85.5t26.5 61t36 42t39.5 34t36.5 32t26.5 41t10 55.5q0 62 -42 98.5t-120 36.5q-74 0 -116 -39t-46 -106h-48q4 88 59.5 139.5t150.5 51.5q100 0 155 -49.5t55 -131.5q0 -50 -19.5 -85t-46.5 -56.5t-54.5 -45t-47 -64.5t-19.5 -100h-46zM245 -6
q-17 0 -28.5 11.5t-11.5 28.5t11.5 28.5t28.5 11.5t28.5 -11.5t11.5 -28.5t-11.5 -28.5t-28.5 -11.5z" />
    <glyph glyph-name="at" unicode="@" horiz-adv-x="1050" 
d="M525 -206q-194 0 -327 132t-133 324q0 190 134 323t326 133q204 0 332 -117.5t128 -288.5q0 -129 -66 -205t-161 -76q-55 0 -87 27t-37 75q-62 -102 -177 -102q-68 0 -110 43.5t-42 119.5q0 13 13 93q16 91 75.5 148.5t141.5 57.5q106 0 139 -90l15 84h44l-53 -297
q-3 -16 -3 -33q0 -84 81 -84q72 0 126.5 65.5t54.5 173.5q0 156 -114.5 260.5t-299.5 104.5q-174 0 -294 -120t-120 -295q0 -176 118.5 -295t295.5 -119q133 0 230 41v-46q-93 -37 -230 -37zM469 61q67 0 114 44.5t61 119.5q13 74 13 93q0 55 -34 88t-89 33
q-64 0 -110.5 -45t-59.5 -119q-13 -69 -13 -93q0 -57 31 -89t87 -32z" />
    <glyph glyph-name="A" unicode="A" horiz-adv-x="650" 
d="M565 0l-79 214h-324l-79 -214h-48l260 700h60l260 -700h-50zM259 476l-82 -220h293l-146 397z" />
    <glyph glyph-name="B" unicode="B" horiz-adv-x="620" 
d="M100 0v700h210q110 0 165 -47.5t55 -133.5q0 -114 -107 -156q127 -36 127 -172q0 -93 -54.5 -142t-165.5 -49h-230zM330 339h-184v-296h184q172 0 172 148t-172 148zM310 657h-164v-276h164q86 0 129 36.5t43 101.5t-43 101.5t-129 36.5z" />
    <glyph glyph-name="C" unicode="C" horiz-adv-x="670" 
d="M350 -6q-122 0 -198.5 85.5t-76.5 235.5v70q0 150 76.5 235.5t198.5 85.5q100 0 169.5 -56.5t85.5 -134.5h-50q-16 60 -70.5 103t-134.5 43q-101 0 -164 -72.5t-63 -203.5v-70q0 -131 63 -203.5t164 -72.5q81 0 135 46.5t70 119.5h50q-16 -92 -84 -151.5t-171 -59.5z" />
    <glyph glyph-name="D" unicode="D" horiz-adv-x="680" 
d="M100 0v700h200q146 0 225.5 -81.5t79.5 -234.5v-68q0 -152 -80 -234t-225 -82h-200zM300 658h-154v-616h154q125 0 191 69.5t66 204.5v68q0 135 -66.5 204.5t-190.5 69.5z" />
    <glyph glyph-name="E" unicode="E" horiz-adv-x="560" 
d="M100 0v700h405v-42h-359v-277h299v-42h-299v-297h359v-42h-405z" />
    <glyph glyph-name="F" unicode="F" horiz-adv-x="540" 
d="M100 0v700h405v-42h-359v-277h299v-42h-299v-339h-46z" />
    <glyph glyph-name="G" unicode="G" horiz-adv-x="680" 
d="M340 289v42h265v-21q0 -153 -69.5 -234.5t-185.5 -81.5q-122 0 -198.5 85.5t-76.5 235.5v70q0 150 76.5 235.5t198.5 85.5q98 0 164.5 -55.5t82.5 -135.5h-48q-16 61 -69 104t-130 43q-101 0 -164 -73t-63 -204v-70q0 -131 63 -204t164 -73q95 0 150.5 62t59.5 189h-220z
" />
    <glyph glyph-name="H" unicode="H" horiz-adv-x="710" 
d="M564 0v339h-418v-339h-46v700h46v-319h418v319h46v-700h-46z" />
    <glyph glyph-name="I" unicode="I" horiz-adv-x="270" 
d="M112 0v700h46v-700h-46z" />
    <glyph glyph-name="J" unicode="J" horiz-adv-x="535" 
d="M240 -6q-88 0 -140.5 54.5t-59.5 156.5h46q4 -82 44.5 -124.5t109.5 -42.5q154 0 154 212v450h46v-450q0 -130 -52.5 -193t-147.5 -63z" />
    <glyph glyph-name="K" unicode="K" horiz-adv-x="635" 
d="M530 0l-266 356l-118 -132v-224h-46v700h46v-412l364 412h60l-274 -310l294 -390h-60z" />
    <glyph glyph-name="L" unicode="L" horiz-adv-x="515" 
d="M100 0v700h46v-658h339v-42h-385z" />
    <glyph glyph-name="M" unicode="M" horiz-adv-x="810" 
d="M382 215l-186 335l-50 91v-641h-46v700h64l242 -435l242 435h62v-700h-46v641l-50 -91l-186 -335h-46z" />
    <glyph glyph-name="N" unicode="N" horiz-adv-x="710" 
d="M546 0l-342 550l-58 99v-649h-46v700h64l342 -550l58 -99v649h46v-700h-64z" />
    <glyph glyph-name="O" unicode="O" horiz-adv-x="710" 
d="M355 -6q-122 0 -201 87t-79 234v70q0 146 79.5 233.5t200.5 87.5q122 0 201 -87t79 -234v-70q0 -146 -79.5 -233.5t-200.5 -87.5zM355 38q101 0 166.5 74.5t65.5 202.5v70q0 127 -66 202t-166 75q-101 0 -166.5 -74.5t-65.5 -202.5v-70q0 -127 66 -202t166 -75z" />
    <glyph glyph-name="P" unicode="P" horiz-adv-x="600" 
d="M100 0v700h210q119 0 179.5 -55.5t60.5 -156.5q0 -100 -61.5 -156t-178.5 -56h-164v-276h-46zM310 658h-164v-340h164q95 0 143.5 44t48.5 126q0 170 -192 170z" />
    <glyph glyph-name="Q" unicode="Q" horiz-adv-x="710" 
d="M355 -6q-122 0 -201 87t-79 234v70q0 146 79.5 233.5t200.5 87.5q122 0 201 -87t79 -234v-70q0 -161 -96 -250l96 -115h-55l-74 89q-67 -45 -151 -45zM355 38q69 0 122 36l-112 136h55l90 -109q77 77 77 214v70q0 127 -66 202t-166 75q-101 0 -166.5 -74.5t-65.5 -202.5
v-70q0 -127 66 -202t166 -75z" />
    <glyph glyph-name="R" unicode="R" horiz-adv-x="620" 
d="M518 0l-159 301q-22 -3 -49 -3h-164v-298h-46v700h210q118 0 179 -53.5t61 -147.5q0 -71 -37 -120t-107 -69l164 -310h-52zM310 658h-164v-318h164q92 0 142 43.5t50 115.5q0 75 -49 117t-143 42z" />
    <glyph glyph-name="S" unicode="S" horiz-adv-x="610" 
d="M305 -6q-108 0 -167.5 54.5t-67.5 156.5h50q15 -167 185 -167q93 0 140 38.5t47 103.5q0 42 -22.5 72t-59 46.5t-80.5 29.5t-88 28t-80.5 34.5t-59 55t-22.5 84.5q0 78 58.5 127t166.5 49q103 0 160 -50.5t65 -140.5h-50q-18 147 -175 147q-87 0 -132 -36.5t-45 -95.5
q0 -40 22.5 -68.5t59 -44t80.5 -28.5t88 -28t80.5 -35t59 -57.5t22.5 -88.5q0 -85 -59.5 -135.5t-175.5 -50.5z" />
    <glyph glyph-name="T" unicode="T" horiz-adv-x="580" 
d="M30 658v42h520v-42h-238v-658h-44v658h-238z" />
    <glyph glyph-name="U" unicode="U" horiz-adv-x="690" 
d="M345 -6q-116 0 -183 72t-67 204v430h46v-430q0 -112 54.5 -172t149.5 -60q96 0 150 59.5t54 172.5v430h46v-430q0 -131 -67 -203.5t-183 -72.5z" />
    <glyph glyph-name="V" unicode="V" horiz-adv-x="660" 
d="M310 0l-270 700h52l248 -649l230 649h50l-250 -700h-60z" />
    <glyph glyph-name="W" unicode="W" horiz-adv-x="970" 
d="M670 0l-185 639l-175 -639h-60l-200 700h48l182 -639l175 639h60l185 -641l174 641h46l-190 -700h-60z" />
    <glyph glyph-name="X" unicode="X" horiz-adv-x="650" 
d="M548 0l-224 328l-223 -328h-56l251 364l-231 336h56l204 -299l205 299h55l-231 -334l251 -366h-57z" />
    <glyph glyph-name="Y" unicode="Y" horiz-adv-x="650" 
d="M307 0v265l-267 435h54l236 -387l228 387h52l-257 -435v-265h-46z" />
    <glyph glyph-name="Z" unicode="Z" horiz-adv-x="585" 
d="M65 658v42h470v-42l-429 -616h429v-42h-480v42l429 616h-419z" />
    <glyph glyph-name="bracketleft" unicode="[" horiz-adv-x="400" 
d="M130 -200v900h210v-42h-164v-816h164v-42h-210z" />
    <glyph glyph-name="backslash" unicode="\" horiz-adv-x="450" 
d="M365 -200l-330 900h50l330 -900h-50z" />
    <glyph glyph-name="bracketright" unicode="]" horiz-adv-x="400" 
d="M270 700v-900h-210v42h164v816h-164v42h210z" />
    <glyph glyph-name="asciicircum" unicode="^" 
d="M448 400l-158 261l-150 -261h-50l175 300h50l185 -300h-52z" />
    <glyph glyph-name="underscore" unicode="_" 
d="M0 -121v42h590v-42h-590z" />
    <glyph glyph-name="grave" unicode="`" horiz-adv-x="250" 
d="M165 560l-130 150h60l120 -150h-50z" />
    <glyph glyph-name="a" unicode="a" horiz-adv-x="520" 
d="M210 -6q-71 0 -110.5 37.5t-39.5 102.5q0 151 200 151h126v55q0 64 -30.5 94t-95.5 30q-118 0 -126 -94h-44q4 63 47 99.5t123 36.5q170 0 170 -166v-340h-36l-6 105q-26 -52 -73 -81.5t-105 -29.5zM210 36q71 0 122 49.5t54 121.5v38h-126q-154 0 -154 -111
q0 -45 27.5 -71.5t76.5 -26.5z" />
    <glyph glyph-name="b" unicode="b" horiz-adv-x="560" 
d="M299 -6q-114 0 -163 99l-5 -93h-36v700h44v-289q51 95 162 95q88 0 141 -60t53 -171v-50q0 -111 -53.5 -171t-142.5 -60zM294 36q70 0 112.5 49t42.5 140v50q0 91 -42.5 140t-112.5 49q-66 0 -109.5 -48t-45.5 -132v-59q0 -88 44 -138.5t111 -50.5z" />
    <glyph glyph-name="c" unicode="c" horiz-adv-x="505" 
d="M270 -6q-91 0 -148 62t-57 169v50q0 107 57 169t148 62q72 0 120.5 -39t64.5 -97h-48q-38 94 -137 94q-70 0 -114.5 -50t-44.5 -139v-50q0 -89 44.5 -139t114.5 -50q103 0 137 104h48q-16 -66 -63.5 -106t-121.5 -40z" />
    <glyph glyph-name="d" unicode="d" horiz-adv-x="560" 
d="M261 -6q-89 0 -142.5 60t-53.5 171v50q0 111 53 171t141 60q112 0 162 -94v288h44v-700h-36l-5 93q-50 -99 -163 -99zM266 36q67 0 111 50.5t44 138.5v59q-3 84 -46 132t-109 48q-70 0 -112.5 -49t-42.5 -140v-50q0 -91 42.5 -140t112.5 -49z" />
    <glyph glyph-name="e" unicode="e" horiz-adv-x="540" 
d="M270 -6q-93 0 -149 61t-56 170v50q0 109 56 170t149 61t149 -61t56 -170v-35h-364v-15q0 -91 43.5 -140t115.5 -49q66 0 100.5 26t50.5 78h46q-34 -146 -197 -146zM270 464q-71 0 -114.5 -48t-44.5 -136h318q-1 88 -44.5 136t-114.5 48z" />
    <glyph glyph-name="f" unicode="f" horiz-adv-x="335" 
d="M40 460v40h90v80q0 120 120 120h70v-42h-65q-42 0 -61.5 -20t-19.5 -63v-75h126v-40h-126v-460h-44v460h-90z" />
    <glyph glyph-name="g" unicode="g" horiz-adv-x="560" 
d="M259 14q-87 0 -140.5 58.5t-53.5 162.5v50q0 104 53.5 162.5t142.5 58.5q112 0 163 -97l5 91h36v-500q0 -97 -50.5 -151.5t-141.5 -54.5q-84 0 -129.5 38.5t-53.5 107.5h44q16 -104 139 -104q73 0 110.5 42t37.5 122v105q-52 -91 -162 -91zM266 56q65 0 108.5 46.5
t46.5 124.5v58q0 82 -44 130.5t-112 48.5q-69 0 -111.5 -47.5t-42.5 -131.5v-50q0 -84 42.5 -131.5t112.5 -47.5z" />
    <glyph glyph-name="h" unicode="h" horiz-adv-x="575" 
d="M95 0v700h44v-283q52 89 168 89q83 0 130.5 -52t47.5 -149v-305h-44v305q0 78 -37 118.5t-104 40.5q-69 0 -114 -42.5t-47 -109.5v-312h-44z" />
    <glyph glyph-name="i" unicode="i" horiz-adv-x="256" 
d="M106 0v500h44v-500h-44zM128 600q-15 0 -25 10t-10 25t10 25t25 10t25 -10t10 -25t-10 -25t-25 -10z" />
    <glyph glyph-name="j" unicode="j" horiz-adv-x="256" 
d="M-10 -200v42h36q42 0 61 25t19 88v545h44v-545q0 -84 -29.5 -119.5t-94.5 -35.5h-36zM128 600q-15 0 -25 10t-10 25t10 25t25 10t25 -10t10 -25t-10 -25t-25 -10z" />
    <glyph glyph-name="k" unicode="k" horiz-adv-x="510" 
d="M421 0l-186 250l-96 -110v-140h-44v700h44v-500l262 300h54l-192 -220l212 -280h-54z" />
    <glyph glyph-name="l" unicode="l" horiz-adv-x="285" 
d="M209 0q-114 0 -114 119v581h44v-576q0 -82 75 -82h31v-42h-36z" />
    <glyph glyph-name="m" unicode="m" horiz-adv-x="875" 
d="M95 0v500h36l4 -85q51 91 158 91q56 0 96.5 -28t58.5 -81q22 51 66 80t102 29q77 0 123 -52t46 -149v-305h-44v305q0 78 -36 118.5t-99 40.5q-59 0 -101.5 -45.5t-42.5 -113.5v-305h-44v305q0 78 -36 118.5t-99 40.5q-57 0 -99.5 -43.5t-44.5 -108.5v-312h-44z" />
    <glyph glyph-name="n" unicode="n" horiz-adv-x="575" 
d="M95 0v500h36l4 -86q52 92 170 92q85 0 132.5 -51.5t47.5 -149.5v-305h-44v305q0 78 -37 118.5t-104 40.5q-69 0 -114 -42.5t-47 -109.5v-312h-44z" />
    <glyph glyph-name="o" unicode="o" horiz-adv-x="550" 
d="M275 -6q-96 0 -153 61t-57 170v50q0 108 57.5 169.5t152.5 61.5q96 0 153 -61t57 -170v-50q0 -108 -57.5 -169.5t-152.5 -61.5zM275 36q74 0 119 49.5t45 139.5v50q0 89 -45 139t-119 50t-119 -49.5t-45 -139.5v-50q0 -89 45 -139t119 -50z" />
    <glyph glyph-name="p" unicode="p" horiz-adv-x="560" 
d="M301 -6q-112 0 -162 94v-288h-44v700h36l5 -94q48 100 163 100q89 0 142.5 -60t53.5 -171v-50q0 -111 -53 -171t-141 -60zM294 36q70 0 112.5 49t42.5 140v50q0 91 -42.5 140t-112.5 49q-66 0 -109.5 -48t-45.5 -132v-59q0 -88 44 -138.5t111 -50.5z" />
    <glyph glyph-name="q" unicode="q" horiz-adv-x="560" 
d="M259 -6q-88 0 -141 60t-53 171v50q0 111 53.5 171t142.5 60q113 0 163 -100l5 94h36v-700h-44v288q-50 -94 -162 -94zM266 36q67 0 111 50.5t44 138.5v50q0 88 -44 138.5t-111 50.5q-70 0 -112.5 -49t-42.5 -140v-50q0 -91 42.5 -140t112.5 -49z" />
    <glyph glyph-name="r" unicode="r" horiz-adv-x="380" 
d="M95 0v500h36l4 -85q24 43 67.5 67t97.5 24h50v-42h-50q-69 0 -114 -42.5t-47 -109.5v-312h-44z" />
    <glyph glyph-name="s" unicode="s" horiz-adv-x="490" 
d="M245 -6q-164 0 -180 146h46q8 -53 39 -78.5t95 -25.5q134 0 134 94q0 41 -31.5 64.5t-76 34t-89 23t-76 42.5t-31.5 81q0 57 44.5 94t125.5 37q76 0 119 -36.5t51 -99.5h-46q-16 94 -124 94q-62 0 -93 -24.5t-31 -64.5q0 -39 31.5 -60.5t76 -32t89 -23t76 -44.5t31.5 -85
q0 -62 -45.5 -99t-134.5 -37z" />
    <glyph glyph-name="t" unicode="t" horiz-adv-x="360" 
d="M35 460v40h90v140h44v-140h136v-40h-136v-336q0 -44 19.5 -64t60.5 -20h66v-40h-70q-120 0 -120 119v341h-90z" />
    <glyph glyph-name="u" unicode="u" horiz-adv-x="565" 
d="M265 -6q-81 0 -128 52t-47 149v305h44v-305q0 -78 36.5 -118.5t100.5 -40.5q67 0 111 45t44 114v305h44v-500h-36l-5 88q-23 -44 -66 -69t-98 -25z" />
    <glyph glyph-name="v" unicode="v" horiz-adv-x="510" 
d="M235 0l-200 500h48l177 -448l169 448h46l-190 -500h-50z" />
    <glyph glyph-name="w" unicode="w" horiz-adv-x="770" 
d="M525 0l-140 450l-130 -450h-60l-150 500h48l133 -449l130 449h60l139 -449l124 449h46l-140 -500h-60z" />
    <glyph glyph-name="x" unicode="x" horiz-adv-x="500" 
d="M412 0l-163 226l-162 -226h-52l187 261l-171 239h52l147 -204l148 204h51l-171 -238l187 -262h-53z" />
    <glyph glyph-name="y" unicode="y" horiz-adv-x="520" 
d="M169 -200l76 199l-210 501h48l185 -447l171 447h46l-270 -700h-46z" />
    <glyph glyph-name="z" unicode="z" horiz-adv-x="455" 
d="M55 460v40h360v-40l-322 -420h322v-40h-370v40l321 420h-311z" />
    <glyph glyph-name="braceleft" unicode="{" horiz-adv-x="400" 
d="M350 700v-42h-50q-55 0 -84.5 -30.5t-29.5 -87.5v-160q0 -101 -74 -130q74 -30 74 -130v-160q0 -57 29.5 -87.5t84.5 -30.5h50v-42h-50q-77 0 -118.5 41.5t-41.5 118.5v160q0 96 -80 109v42q80 13 80 109v160q0 77 41.5 118.5t118.5 41.5h50z" />
    <glyph glyph-name="bar" unicode="|" horiz-adv-x="300" 
d="M127 -200v900h46v-900h-46z" />
    <glyph glyph-name="braceright" unicode="}" horiz-adv-x="400" 
d="M50 -200v42h50q55 0 84.5 30.5t29.5 87.5v160q0 101 74 130q-74 30 -74 130v160q0 57 -29.5 87.5t-84.5 30.5h-50v42h50q77 0 118.5 -41.5t41.5 -118.5v-160q0 -96 80 -109v-42q-80 -13 -80 -109v-160q0 -77 -41.5 -118.5t-118.5 -41.5h-50z" />
    <glyph glyph-name="asciitilde" unicode="~" 
d="M405 275q-30 0 -56 13t-45 31.5t-36.5 37t-39 31.5t-43.5 13q-38 0 -61 -23t-23 -63h-46q0 59 35.5 94.5t94.5 35.5q30 0 56 -13t45 -31.5t36.5 -37t39 -31.5t43.5 -13q38 0 61 23t23 63h46q0 -59 -35.5 -94.5t-94.5 -35.5z" />
    <glyph glyph-name="uni00A0" unicode="&#xa0;" horiz-adv-x="250" 
 />
    <glyph glyph-name="exclamdown" unicode="&#xa1;" horiz-adv-x="300" 
d="M150 506q17 0 28.5 -11.5t11.5 -28.5t-11.5 -28.5t-28.5 -11.5t-28.5 11.5t-11.5 28.5t11.5 28.5t28.5 11.5zM173 300v-500h-46v500h46z" />
    <glyph glyph-name="cent" unicode="&#xa2;" horiz-adv-x="505" 
d="M250 -100v95q-83 7 -134 68t-51 162v50q0 100 51 161.5t134 68.5v95h40v-95q64 -6 107 -43.5t58 -91.5h-48q-38 94 -137 94q-70 0 -114.5 -50t-44.5 -139v-50q0 -89 44.5 -139t114.5 -50q103 0 137 104h48q-15 -62 -57 -101t-108 -44v-95h-40z" />
    <glyph glyph-name="sterling" unicode="&#xa3;" horiz-adv-x="580" 
d="M65 310v40h90v165q0 82 53.5 136.5t131.5 54.5q80 0 132 -53t53 -138h-46q-2 67 -40.5 107t-98.5 40t-99.5 -41t-39.5 -106v-165h189v-40h-189v-76q0 -78 -17 -119.5t-58 -72.5h389v-42h-450v42q48 32 69 72t21 120v76h-90z" />
    <glyph glyph-name="currency" unicode="&#xa4;" 
d="M494 130l-85 84q-50 -39 -114 -39q-65 0 -115 40l-85 -85l-30 30l85 85q-40 50 -40 115q0 66 39 114l-84 85l31 31l84 -85q51 40 115 40t115 -40l85 85l30 -30l-85 -85q40 -51 40 -115t-40 -115l85 -84zM295 217q57 0 98 42t41 101q0 58 -41 100t-98 42q-58 0 -99 -41.5
t-41 -100.5t41 -101t99 -42z" />
    <glyph glyph-name="yen" unicode="&#xa5;" horiz-adv-x="650" 
d="M105 280v40h172l-237 380h54l236 -380l228 380h52l-228 -380h173v-40h-202v-95h202v-40h-202v-145h-46v145h-202v40h202v95h-202z" />
    <glyph glyph-name="brokenbar" unicode="&#xa6;" horiz-adv-x="300" 
d="M127 -200v370h46v-370h-46zM127 330v370h46v-370h-46z" />
    <glyph glyph-name="section" unicode="&#xa7;" horiz-adv-x="480" 
d="M240 706q67 0 109 -37.5t50 -98.5h-48q-6 42 -34.5 66.5t-76.5 24.5q-52 0 -82 -27t-30 -69q0 -41 30 -73t73 -54.5t86 -46.5t73 -62t30 -89q0 -94 -110 -158q99 -59 99 -139q0 -67 -45 -108t-124 -41q-71 0 -116.5 40t-53.5 106h49q5 -47 37.5 -74t83.5 -27
q57 0 89.5 28.5t32.5 75.5q0 32 -22.5 58t-56 43.5t-72.5 38.5t-72.5 42t-56 56t-22.5 79q0 95 113 159q-93 59 -93 146q0 61 43.5 101t116.5 40zM108 260q0 -35 24.5 -65.5t46 -43.5t74.5 -39q10 -5 15 -8q55 32 80 63t25 73q0 15 -4 28.5t-9 23.5t-17.5 21.5t-20 18.5
t-25.5 17.5t-25.5 15t-29.5 16t-29 15.5q-55 -32 -80 -63t-25 -73z" />
    <glyph glyph-name="dieresis" unicode="&#xa8;" horiz-adv-x="340" 
d="M70 600q-15 0 -25 10t-10 25t10 25.5t25 10.5t25 -10.5t10 -25.5t-10 -25t-25 -10zM270 600q-15 0 -25 10t-10 25t10 25.5t25 10.5t25 -10.5t10 -25.5t-10 -25t-25 -10z" />
    <glyph glyph-name="copyright" unicode="&#xa9;" horiz-adv-x="850" 
d="M425 -6q-149 0 -253.5 104t-104.5 252q0 147 105 251.5t253 104.5q150 0 254 -104t104 -252q0 -147 -104.5 -251.5t-253.5 -104.5zM425 35q132 0 224 91.5t92 223.5t-92 223.5t-224 91.5q-131 0 -223 -91.5t-92 -223.5t92 -223.5t223 -91.5zM425 144q-74 0 -119.5 49.5
t-45.5 136.5v40q0 86 46 136t119 50q62 0 103 -32.5t51 -77.5h-43q-11 29 -40 50t-71 21q-55 0 -89 -39t-34 -108v-40q0 -69 34.5 -108t88.5 -39q46 0 74.5 22.5t38.5 59.5h41q-9 -52 -50.5 -86.5t-103.5 -34.5z" />
    <glyph glyph-name="ordfeminine" unicode="&#xaa;" horiz-adv-x="350" 
d="M145 374q-51 0 -78 24.5t-27 66.5q0 104 145 104h73v21q0 76 -78 76q-68 0 -76 -51h-44q4 42 34 66.5t86 24.5q120 0 120 -116v-210h-32l-6 58q-38 -64 -117 -64zM145 414q48 0 80.5 31t32.5 75v11h-73q-100 0 -100 -66q0 -23 15.5 -37t44.5 -14z" />
    <glyph glyph-name="guillemotleft" unicode="&#xab;" horiz-adv-x="505" 
d="M260 259l122 201h48l-121 -199l121 -201h-50zM55 259l122 201h48l-121 -199l121 -201h-50z" />
    <glyph glyph-name="logicalnot" unicode="&#xac;" 
d="M80 339v42h430v-230h-46v188h-384z" />
    <glyph glyph-name="uni00AD" unicode="&#xad;" horiz-adv-x="400" 
d="M55 239v42h290v-42h-290z" />
    <glyph glyph-name="registered" unicode="&#xae;" horiz-adv-x="650" 
d="M325 144q-118 0 -200.5 82.5t-82.5 198.5t82.5 198.5t200.5 82.5t200.5 -82.5t82.5 -198.5t-82.5 -198.5t-200.5 -82.5zM325 179q102 0 174 72t72 174t-72 174t-174 72q-101 0 -173.5 -72t-72.5 -174t72.5 -174t173.5 -72zM402 275l-58 116h-70v-116h-36v300h94
q110 0 110 -92q0 -71 -65 -87l63 -121h-38zM332 542h-58v-118h58q73 0 73 59t-73 59z" />
    <glyph glyph-name="macron" unicode="&#xaf;" horiz-adv-x="300" 
d="M20 616v38h260v-38h-260z" />
    <glyph glyph-name="degree" unicode="&#xb0;" horiz-adv-x="360" 
d="M180 415q-60 0 -102.5 42.5t-42.5 102.5q0 61 42.5 103.5t102.5 42.5t102.5 -42.5t42.5 -103.5q0 -60 -42.5 -102.5t-102.5 -42.5zM180 454q43 0 73.5 31t30.5 75t-30.5 75.5t-73.5 31.5q-42 0 -73 -31.5t-31 -75.5q0 -43 31 -74.5t73 -31.5z" />
    <glyph glyph-name="plusminus" unicode="&#xb1;" 
d="M80 383v43h192v193h46v-193h192v-43h-192v-143h-46v143h-192zM80 101v43h430v-43h-430z" />
    <glyph glyph-name="uni00B2" unicode="&#xb2;" horiz-adv-x="355" 
d="M30 380v38l162 159q47 46 62.5 75t15.5 61q0 35 -26.5 59t-70.5 24t-70.5 -24t-26.5 -59h-43q0 52 39 87.5t101 35.5t100.5 -35.5t38.5 -87.5q0 -40 -20 -76t-72 -87l-135 -132h230v-38h-285z" />
    <glyph glyph-name="uni00B3" unicode="&#xb3;" horiz-adv-x="370" 
d="M181 374q-141 0 -151 138h43q9 -98 108 -98q51 0 79 24.5t28 66.5q0 36 -29.5 61.5t-74.5 25.5h-57v37h57q43 0 69.5 24t26.5 60q0 38 -25.5 60.5t-73.5 22.5q-92 0 -102 -86h-42q4 57 41.5 91.5t102.5 34.5q66 0 104 -33.5t38 -85.5q0 -77 -74 -105q38 -14 59.5 -43.5
t21.5 -65.5q0 -59 -38.5 -94t-110.5 -35z" />
    <glyph glyph-name="acute" unicode="&#xb4;" horiz-adv-x="250" 
d="M35 560l120 150h60l-130 -150h-50z" />
    <glyph glyph-name="mu" unicode="&#xb5;" horiz-adv-x="570" 
d="M270 -6q-86 0 -131 62v-256h-44v700h44v-305q0 -78 36.5 -118.5t100.5 -40.5q67 0 111 45t44 114v305h44v-500h-36l-5 88q-23 -44 -66 -69t-98 -25z" />
    <glyph glyph-name="paragraph" unicode="&#xb6;" horiz-adv-x="660" 
d="M491 -200v857h-183v-857h-45v461q-84 8 -141 71t-57 148q0 91 64.5 155.5t155.5 64.5h340v-43h-89v-857h-45z" />
    <glyph glyph-name="periodcentered" unicode="&#xb7;" horiz-adv-x="250" 
d="M125 220q-17 0 -28.5 11.5t-11.5 28.5t11.5 28.5t28.5 11.5t28.5 -11.5t11.5 -28.5t-11.5 -28.5t-28.5 -11.5z" />
    <glyph glyph-name="cedilla" unicode="&#xb8;" horiz-adv-x="190" 
d="M57 -80l20 87h38l-12 -52q32 -5 49.5 -25t17.5 -51q0 -35 -23 -57t-62 -22h-65v38h62q44 0 44 41t-44 41h-25z" />
    <glyph glyph-name="uni00B9" unicode="&#xb9;" horiz-adv-x="260" 
d="M30 707v46l119 77h41v-450h-41v404z" />
    <glyph glyph-name="ordmasculine" unicode="&#xba;" horiz-adv-x="360" 
d="M180 374q-64 0 -104.5 41t-40.5 107v36q0 66 40.5 107t104.5 41t104.5 -41t40.5 -107v-36q0 -66 -40.5 -107t-104.5 -41zM180 414q44 0 72.5 29.5t28.5 78.5v36q0 49 -28.5 78.5t-72.5 29.5t-72.5 -29.5t-28.5 -78.5v-36q0 -49 28.5 -78.5t72.5 -29.5z" />
    <glyph glyph-name="guillemotright" unicode="&#xbb;" horiz-adv-x="505" 
d="M450 261l-122 -201h-48l121 199l-121 201h50zM245 261l-122 -201h-48l121 199l-121 201h50z" />
    <glyph glyph-name="onequarter" unicode="&#xbc;" horiz-adv-x="850" 
d="M195 0l412 700h48l-412 -700h-48zM60 585v46l110 69h40v-400h-40v355zM490 97v36l187 267h55v-267h58v-36h-58v-97h-39v97h-203zM534 133h159v228z" />
    <glyph glyph-name="onehalf" unicode="&#xbd;" horiz-adv-x="880" 
d="M195 0l412 700h48l-412 -700h-48zM60 585v46l110 69h40v-400h-40v355zM550 0v37l145 131q49 44 66.5 70.5t17.5 54.5q0 33 -25 53.5t-69 20.5q-45 0 -69 -20.5t-24 -53.5h-42q0 51 35 82t100 31q64 0 99.5 -31t35.5 -82q0 -38 -21 -71t-76 -82l-117 -103h214v-37h-270z
" />
    <glyph glyph-name="threequarters" unicode="&#xbe;" horiz-adv-x="900" 
d="M245 0l412 700h48l-412 -700h-48zM540 97v36l187 267h55v-267h58v-36h-58v-97h-39v97h-203zM584 133h159v228zM200 294q-64 0 -99.5 32.5t-40.5 90.5h42q10 -84 98 -84q48 0 73 21t25 57q0 34 -24.5 55t-70.5 21h-56v37h56q43 0 65.5 20t22.5 53q0 31 -23.5 50.5
t-67.5 19.5q-82 0 -92 -74h-41q4 51 38.5 82t94.5 31q63 0 98 -30t35 -77q0 -67 -64 -91q71 -27 71 -100q0 -52 -36 -83t-104 -31z" />
    <glyph glyph-name="questiondown" unicode="&#xbf;" horiz-adv-x="500" 
d="M278 326q0 -48 -10 -85.5t-26.5 -61t-36 -42t-39.5 -34t-36.5 -32t-26.5 -41t-10 -55.5q0 -62 42 -98.5t120 -36.5q74 0 116 39t46 106h48q-4 -88 -59.5 -139.5t-150.5 -51.5q-100 0 -155 49.5t-55 131.5q0 50 19.5 85t46.5 56.5t54.5 45t47 64.5t19.5 100h46zM255 506
q17 0 28.5 -11.5t11.5 -28.5t-11.5 -28.5t-28.5 -11.5t-28.5 11.5t-11.5 28.5t11.5 28.5t28.5 11.5z" />
    <glyph glyph-name="Agrave" unicode="&#xc0;" horiz-adv-x="650" 
d="M565 0l-79 214h-324l-79 -214h-48l260 700h60l260 -700h-50zM259 476l-82 -220h293l-146 397zM299 760l-128 150h62l118 -150h-52z" />
    <glyph glyph-name="Aacute" unicode="&#xc1;" horiz-adv-x="650" 
d="M565 0l-79 214h-324l-79 -214h-48l260 700h60l260 -700h-50zM259 476l-82 -220h293l-146 397zM299 760l118 150h62l-128 -150h-52z" />
    <glyph glyph-name="Acircumflex" unicode="&#xc2;" horiz-adv-x="650" 
d="M565 0l-79 214h-324l-79 -214h-48l260 700h60l260 -700h-50zM259 476l-82 -220h293l-146 397zM418 760l-93 109l-93 -109h-52l118 150h54l118 -150h-52z" />
    <glyph glyph-name="Atilde" unicode="&#xc3;" horiz-adv-x="650" 
d="M565 0l-79 214h-324l-79 -214h-48l260 700h60l260 -700h-50zM259 476l-82 -220h293l-146 397zM395 780q-30 0 -55 17t-46 34t-39 17q-50 0 -50 -58h-40q0 49 23.5 74.5t66.5 25.5q30 0 55 -17t46 -34t39 -17q50 0 50 58h40q0 -49 -23.5 -74.5t-66.5 -25.5z" />
    <glyph glyph-name="Adieresis" unicode="&#xc4;" horiz-adv-x="650" 
d="M565 0l-79 214h-324l-79 -214h-48l260 700h60l260 -700h-50zM259 476l-82 -220h293l-146 397zM215 800q-15 0 -25 10t-10 25t10 25t25 10t25 -10t10 -25t-10 -25t-25 -10zM435 800q-15 0 -25 10t-10 25t10 25t25 10t25 -10t10 -25t-10 -25t-25 -10z" />
    <glyph glyph-name="Aring" unicode="&#xc5;" horiz-adv-x="650" 
d="M565 0l-79 214h-324l-79 -214h-48l260 700h60l260 -700h-50zM259 476l-82 -220h293l-146 397zM325 738q-43 0 -71.5 28t-28.5 69t28.5 69t71.5 28t71.5 -28t28.5 -69t-28.5 -69t-71.5 -28zM325 780q25 0 40.5 15.5t15.5 39.5t-15.5 39.5t-40.5 15.5t-40.5 -15.5
t-15.5 -39.5t15.5 -39.5t40.5 -15.5z" />
    <glyph glyph-name="AE" unicode="&#xc6;" horiz-adv-x="930" 
d="M30 0l420 700h425v-42h-359v-277h299v-42h-299v-297h359v-42h-405v214h-260l-128 -214h-52zM235 256h235v393z" />
    <glyph glyph-name="Ccedilla" unicode="&#xc7;" horiz-adv-x="670" 
d="M313 -78l17 73q-114 7 -184.5 91.5t-70.5 228.5v70q0 150 76.5 235.5t198.5 85.5q100 0 169.5 -56.5t85.5 -134.5h-50q-16 60 -70.5 103t-134.5 43q-101 0 -164 -72.5t-63 -203.5v-70q0 -131 63 -203.5t164 -72.5q81 0 135 46.5t70 119.5h50q-16 -89 -79.5 -148
t-160.5 -63l-9 -39q33 -4 51 -24.5t18 -51.5q0 -35 -23 -57t-62 -22h-65v36h62q46 0 46 43t-46 43h-24z" />
    <glyph glyph-name="Egrave" unicode="&#xc8;" horiz-adv-x="560" 
d="M100 0v700h405v-42h-359v-277h299v-42h-299v-297h359v-42h-405zM276 760l-128 150h62l118 -150h-52z" />
    <glyph glyph-name="Eacute" unicode="&#xc9;" horiz-adv-x="560" 
d="M100 0v700h405v-42h-359v-277h299v-42h-299v-297h359v-42h-405zM276 760l118 150h62l-128 -150h-52z" />
    <glyph glyph-name="Ecircumflex" unicode="&#xca;" horiz-adv-x="560" 
d="M100 0v700h405v-42h-359v-277h299v-42h-299v-297h359v-42h-405zM395 760l-93 109l-93 -109h-52l118 150h54l118 -150h-52z" />
    <glyph glyph-name="Edieresis" unicode="&#xcb;" horiz-adv-x="560" 
d="M100 0v700h405v-42h-359v-277h299v-42h-299v-297h359v-42h-405zM192 800q-15 0 -25 10t-10 25t10 25t25 10t25 -10t10 -25t-10 -25t-25 -10zM412 800q-15 0 -25 10t-10 25t10 25t25 10t25 -10t10 -25t-10 -25t-25 -10z" />
    <glyph glyph-name="Igrave" unicode="&#xcc;" horiz-adv-x="270" 
d="M112 0v700h46v-700h-46zM109 760l-128 150h62l118 -150h-52z" />
    <glyph glyph-name="Iacute" unicode="&#xcd;" horiz-adv-x="270" 
d="M112 0v700h46v-700h-46zM109 760l118 150h62l-128 -150h-52z" />
    <glyph glyph-name="Icircumflex" unicode="&#xce;" horiz-adv-x="270" 
d="M112 0v700h46v-700h-46zM228 760l-93 109l-93 -109h-52l118 150h54l118 -150h-52z" />
    <glyph glyph-name="Idieresis" unicode="&#xcf;" horiz-adv-x="270" 
d="M112 0v700h46v-700h-46zM25 800q-15 0 -25 10t-10 25t10 25t25 10t25 -10t10 -25t-10 -25t-25 -10zM245 800q-15 0 -25 10t-10 25t10 25t25 10t25 -10t10 -25t-10 -25t-25 -10z" />
    <glyph glyph-name="Eth" unicode="&#xd0;" horiz-adv-x="705" 
d="M35 331v38h90v331h200q146 0 225.5 -81.5t79.5 -234.5v-68q0 -152 -80 -234t-225 -82h-200v331h-90zM325 658h-154v-289h204v-38h-204v-289h154q125 0 191 69.5t66 204.5v68q0 135 -66.5 204.5t-190.5 69.5z" />
    <glyph glyph-name="Ntilde" unicode="&#xd1;" horiz-adv-x="710" 
d="M546 0l-342 550l-58 99v-649h-46v700h64l342 -550l58 -99v649h46v-700h-64zM425 780q-30 0 -55 17t-46 34t-39 17q-50 0 -50 -58h-40q0 49 23.5 74.5t66.5 25.5q30 0 55 -17t46 -34t39 -17q50 0 50 58h40q0 -49 -23.5 -74.5t-66.5 -25.5z" />
    <glyph glyph-name="Ograve" unicode="&#xd2;" horiz-adv-x="710" 
d="M355 -6q-122 0 -201 87t-79 234v70q0 146 79.5 233.5t200.5 87.5q122 0 201 -87t79 -234v-70q0 -146 -79.5 -233.5t-200.5 -87.5zM355 38q101 0 166.5 74.5t65.5 202.5v70q0 127 -66 202t-166 75q-101 0 -166.5 -74.5t-65.5 -202.5v-70q0 -127 66 -202t166 -75zM329 760
l-128 150h62l118 -150h-52z" />
    <glyph glyph-name="Oacute" unicode="&#xd3;" horiz-adv-x="710" 
d="M355 -6q-122 0 -201 87t-79 234v70q0 146 79.5 233.5t200.5 87.5q122 0 201 -87t79 -234v-70q0 -146 -79.5 -233.5t-200.5 -87.5zM355 38q101 0 166.5 74.5t65.5 202.5v70q0 127 -66 202t-166 75q-101 0 -166.5 -74.5t-65.5 -202.5v-70q0 -127 66 -202t166 -75zM329 760
l118 150h62l-128 -150h-52z" />
    <glyph glyph-name="Ocircumflex" unicode="&#xd4;" horiz-adv-x="710" 
d="M355 -6q-122 0 -201 87t-79 234v70q0 146 79.5 233.5t200.5 87.5q122 0 201 -87t79 -234v-70q0 -146 -79.5 -233.5t-200.5 -87.5zM355 38q101 0 166.5 74.5t65.5 202.5v70q0 127 -66 202t-166 75q-101 0 -166.5 -74.5t-65.5 -202.5v-70q0 -127 66 -202t166 -75zM448 760
l-93 109l-93 -109h-52l118 150h54l118 -150h-52z" />
    <glyph glyph-name="Otilde" unicode="&#xd5;" horiz-adv-x="710" 
d="M355 -6q-122 0 -201 87t-79 234v70q0 146 79.5 233.5t200.5 87.5q122 0 201 -87t79 -234v-70q0 -146 -79.5 -233.5t-200.5 -87.5zM355 38q101 0 166.5 74.5t65.5 202.5v70q0 127 -66 202t-166 75q-101 0 -166.5 -74.5t-65.5 -202.5v-70q0 -127 66 -202t166 -75zM425 780
q-30 0 -55 17t-46 34t-39 17q-50 0 -50 -58h-40q0 49 23.5 74.5t66.5 25.5q30 0 55 -17t46 -34t39 -17q50 0 50 58h40q0 -49 -23.5 -74.5t-66.5 -25.5z" />
    <glyph glyph-name="Odieresis" unicode="&#xd6;" horiz-adv-x="710" 
d="M355 -6q-122 0 -201 87t-79 234v70q0 146 79.5 233.5t200.5 87.5q122 0 201 -87t79 -234v-70q0 -146 -79.5 -233.5t-200.5 -87.5zM355 38q101 0 166.5 74.5t65.5 202.5v70q0 127 -66 202t-166 75q-101 0 -166.5 -74.5t-65.5 -202.5v-70q0 -127 66 -202t166 -75zM245 800
q-15 0 -25 10t-10 25t10 25t25 10t25 -10t10 -25t-10 -25t-25 -10zM465 800q-15 0 -25 10t-10 25t10 25t25 10t25 -10t10 -25t-10 -25t-25 -10z" />
    <glyph glyph-name="multiply" unicode="&#xd7;" 
d="M156 190l-31 31l139 139l-139 139l31 31l139 -139l139 139l31 -31l-139 -139l139 -139l-31 -31l-139 139z" />
    <glyph glyph-name="Oslash" unicode="&#xd8;" horiz-adv-x="710" 
d="M107 -6l-32 26l62 81q-62 86 -62 214v70q0 146 79.5 233.5t200.5 87.5q112 0 190 -76l58 76l32 -26l-63 -81q63 -85 63 -214v-70q0 -146 -79.5 -233.5t-200.5 -87.5q-115 0 -190 75zM355 38q101 0 166.5 74.5t65.5 202.5v70q0 103 -46 174l-347 -452q63 -69 161 -69z
M123 315q0 -104 45 -174l348 452q-64 69 -161 69q-101 0 -166.5 -74.5t-65.5 -202.5v-70z" />
    <glyph glyph-name="Ugrave" unicode="&#xd9;" horiz-adv-x="690" 
d="M345 -6q-116 0 -183 72t-67 204v430h46v-430q0 -112 54.5 -172t149.5 -60q96 0 150 59.5t54 172.5v430h46v-430q0 -131 -67 -203.5t-183 -72.5zM319 760l-128 150h62l118 -150h-52z" />
    <glyph glyph-name="Uacute" unicode="&#xda;" horiz-adv-x="690" 
d="M345 -6q-116 0 -183 72t-67 204v430h46v-430q0 -112 54.5 -172t149.5 -60q96 0 150 59.5t54 172.5v430h46v-430q0 -131 -67 -203.5t-183 -72.5zM319 760l118 150h62l-128 -150h-52z" />
    <glyph glyph-name="Ucircumflex" unicode="&#xdb;" horiz-adv-x="690" 
d="M345 -6q-116 0 -183 72t-67 204v430h46v-430q0 -112 54.5 -172t149.5 -60q96 0 150 59.5t54 172.5v430h46v-430q0 -131 -67 -203.5t-183 -72.5zM438 760l-93 109l-93 -109h-52l118 150h54l118 -150h-52z" />
    <glyph glyph-name="Udieresis" unicode="&#xdc;" horiz-adv-x="690" 
d="M345 -6q-116 0 -183 72t-67 204v430h46v-430q0 -112 54.5 -172t149.5 -60q96 0 150 59.5t54 172.5v430h46v-430q0 -131 -67 -203.5t-183 -72.5zM235 800q-15 0 -25 10t-10 25t10 25t25 10t25 -10t10 -25t-10 -25t-25 -10zM455 800q-15 0 -25 10t-10 25t10 25t25 10
t25 -10t10 -25t-10 -25t-25 -10z" />
    <glyph glyph-name="Yacute" unicode="&#xdd;" horiz-adv-x="650" 
d="M307 0v265l-267 435h54l236 -387l228 387h52l-257 -435v-265h-46zM300 760l118 150h62l-128 -150h-52z" />
    <glyph glyph-name="Thorn" unicode="&#xde;" horiz-adv-x="600" 
d="M100 0v700h46v-128h164q119 0 179.5 -55.5t60.5 -156.5q0 -100 -61.5 -156t-178.5 -56h-164v-148h-46zM310 530h-164v-340h164q95 0 143.5 44t48.5 126q0 170 -192 170z" />
    <glyph glyph-name="germandbls" unicode="&#xdf;" horiz-adv-x="560" 
d="M95 0v500q0 94 54.5 150t140.5 56q85 0 135 -49t50 -130q0 -52 -25 -92.5t-70 -60.5q56 -16 85.5 -56t29.5 -98v-50q0 -80 -49.5 -125t-145.5 -45h-65v40h65q73 0 111 34.5t38 95.5v50q0 61 -38 95.5t-111 34.5h-65v40h55q64 0 101.5 37.5t37.5 99.5t-37.5 99.5
t-101.5 37.5q-67 0 -109 -44.5t-42 -119.5v-500h-44z" />
    <glyph glyph-name="agrave" unicode="&#xe0;" horiz-adv-x="520" 
d="M210 -6q-71 0 -110.5 37.5t-39.5 102.5q0 151 200 151h126v55q0 64 -30.5 94t-95.5 30q-118 0 -126 -94h-44q4 63 47 99.5t123 36.5q170 0 170 -166v-340h-36l-6 105q-26 -52 -73 -81.5t-105 -29.5zM210 36q71 0 122 49.5t54 121.5v38h-126q-154 0 -154 -111
q0 -45 27.5 -71.5t76.5 -26.5zM230 560l-130 150h60l120 -150h-50z" />
    <glyph glyph-name="aacute" unicode="&#xe1;" horiz-adv-x="520" 
d="M210 -6q-71 0 -110.5 37.5t-39.5 102.5q0 151 200 151h126v55q0 64 -30.5 94t-95.5 30q-118 0 -126 -94h-44q4 63 47 99.5t123 36.5q170 0 170 -166v-340h-36l-6 105q-26 -52 -73 -81.5t-105 -29.5zM210 36q71 0 122 49.5t54 121.5v38h-126q-154 0 -154 -111
q0 -45 27.5 -71.5t76.5 -26.5zM230 560l120 150h60l-130 -150h-50z" />
    <glyph glyph-name="acircumflex" unicode="&#xe2;" horiz-adv-x="520" 
d="M210 -6q-71 0 -110.5 37.5t-39.5 102.5q0 151 200 151h126v55q0 64 -30.5 94t-95.5 30q-118 0 -126 -94h-44q4 63 47 99.5t123 36.5q170 0 170 -166v-340h-36l-6 105q-26 -52 -73 -81.5t-105 -29.5zM210 36q71 0 122 49.5t54 121.5v38h-126q-154 0 -154 -111
q0 -45 27.5 -71.5t76.5 -26.5zM352 560l-97 110l-97 -110h-48l120 150h50l120 -150h-48z" />
    <glyph glyph-name="atilde" unicode="&#xe3;" horiz-adv-x="520" 
d="M210 -6q-71 0 -110.5 37.5t-39.5 102.5q0 151 200 151h126v55q0 64 -30.5 94t-95.5 30q-118 0 -126 -94h-44q4 63 47 99.5t123 36.5q170 0 170 -166v-340h-36l-6 105q-26 -52 -73 -81.5t-105 -29.5zM210 36q71 0 122 49.5t54 121.5v38h-126q-154 0 -154 -111
q0 -45 27.5 -71.5t76.5 -26.5zM320 580q-36 0 -74 35t-56 35q-47 0 -47 -60h-38q0 48 23 74t62 26q28 0 51 -17.5t42.5 -35t36.5 -17.5q47 0 47 60h38q0 -48 -23 -74t-62 -26z" />
    <glyph glyph-name="adieresis" unicode="&#xe4;" horiz-adv-x="520" 
d="M210 -6q-71 0 -110.5 37.5t-39.5 102.5q0 151 200 151h126v55q0 64 -30.5 94t-95.5 30q-118 0 -126 -94h-44q4 63 47 99.5t123 36.5q170 0 170 -166v-340h-36l-6 105q-26 -52 -73 -81.5t-105 -29.5zM210 36q71 0 122 49.5t54 121.5v38h-126q-154 0 -154 -111
q0 -45 27.5 -71.5t76.5 -26.5zM155 600q-15 0 -25 10t-10 25t10 25.5t25 10.5t25 -10.5t10 -25.5t-10 -25t-25 -10zM355 600q-15 0 -25 10t-10 25t10 25.5t25 10.5t25 -10.5t10 -25.5t-10 -25t-25 -10z" />
    <glyph glyph-name="aring" unicode="&#xe5;" horiz-adv-x="520" 
d="M210 -6q-71 0 -110.5 37.5t-39.5 102.5q0 151 200 151h126v55q0 64 -30.5 94t-95.5 30q-118 0 -126 -94h-44q4 63 47 99.5t123 36.5q170 0 170 -166v-340h-36l-6 105q-26 -52 -73 -81.5t-105 -29.5zM210 36q71 0 122 49.5t54 121.5v38h-126q-154 0 -154 -111
q0 -45 27.5 -71.5t76.5 -26.5zM255 538q-43 0 -71.5 28t-28.5 69t28.5 69t71.5 28t71.5 -28t28.5 -69t-28.5 -69t-71.5 -28zM255 578q25 0 41.5 16t16.5 41t-16.5 41t-41.5 16t-41.5 -16t-16.5 -41t16.5 -41t41.5 -16z" />
    <glyph glyph-name="ae" unicode="&#xe6;" horiz-adv-x="855" 
d="M210 -6q-71 0 -110.5 37.5t-39.5 102.5q0 146 206 146h120v60q0 64 -30.5 94t-95.5 30q-118 0 -126 -94h-44q4 63 47 99.5t123 36.5q128 0 160 -95q55 95 167 95q92 0 147.5 -61t55.5 -170v-35h-360v-15q0 -86 45 -137.5t112 -51.5q64 0 98.5 26t50.5 78h46
q-34 -146 -195 -146q-63 0 -112 35t-71 96q-23 -60 -75.5 -95.5t-118.5 -35.5zM587 464q-68 0 -111.5 -47.5t-45.5 -132.5v-4h314q-1 88 -44.5 136t-112.5 48zM210 36q67 0 118 45.5t58 114.5v44h-120q-160 0 -160 -106q0 -45 27.5 -71.5t76.5 -26.5z" />
    <glyph glyph-name="ccedilla" unicode="&#xe7;" horiz-adv-x="505" 
d="M232 -80l17 75q-83 7 -133.5 68t-50.5 162v50q0 107 57 169t148 62q72 0 120.5 -39t64.5 -97h-48q-38 94 -137 94q-70 0 -114.5 -50t-44.5 -139v-50q0 -89 44.5 -139t114.5 -50q103 0 137 104h48q-15 -62 -58 -101.5t-110 -43.5l-9 -40q32 -5 49.5 -25t17.5 -51
q0 -35 -23 -57t-62 -22h-65v38h62q44 0 44 41t-44 41h-25z" />
    <glyph glyph-name="egrave" unicode="&#xe8;" horiz-adv-x="540" 
d="M270 -6q-93 0 -149 61t-56 170v50q0 109 56 170t149 61t149 -61t56 -170v-35h-364v-15q0 -91 43.5 -140t115.5 -49q66 0 100.5 26t50.5 78h46q-34 -146 -197 -146zM270 464q-71 0 -114.5 -48t-44.5 -136h318q-1 88 -44.5 136t-114.5 48zM245 560l-130 150h60l120 -150
h-50z" />
    <glyph glyph-name="eacute" unicode="&#xe9;" horiz-adv-x="540" 
d="M270 -6q-93 0 -149 61t-56 170v50q0 109 56 170t149 61t149 -61t56 -170v-35h-364v-15q0 -91 43.5 -140t115.5 -49q66 0 100.5 26t50.5 78h46q-34 -146 -197 -146zM270 464q-71 0 -114.5 -48t-44.5 -136h318q-1 88 -44.5 136t-114.5 48zM245 560l120 150h60l-130 -150
h-50z" />
    <glyph glyph-name="ecircumflex" unicode="&#xea;" horiz-adv-x="540" 
d="M270 -6q-93 0 -149 61t-56 170v50q0 109 56 170t149 61t149 -61t56 -170v-35h-364v-15q0 -91 43.5 -140t115.5 -49q66 0 100.5 26t50.5 78h46q-34 -146 -197 -146zM270 464q-71 0 -114.5 -48t-44.5 -136h318q-1 88 -44.5 136t-114.5 48zM366 560l-97 110l-97 -110h-48
l120 150h50l120 -150h-48z" />
    <glyph glyph-name="edieresis" unicode="&#xeb;" horiz-adv-x="540" 
d="M270 -6q-93 0 -149 61t-56 170v50q0 109 56 170t149 61t149 -61t56 -170v-35h-364v-15q0 -91 43.5 -140t115.5 -49q66 0 100.5 26t50.5 78h46q-34 -146 -197 -146zM270 464q-71 0 -114.5 -48t-44.5 -136h318q-1 88 -44.5 136t-114.5 48zM170 600q-15 0 -25 10t-10 25
t10 25.5t25 10.5t25 -10.5t10 -25.5t-10 -25t-25 -10zM370 600q-15 0 -25 10t-10 25t10 25.5t25 10.5t25 -10.5t10 -25.5t-10 -25t-25 -10z" />
    <glyph glyph-name="igrave" unicode="&#xec;" horiz-adv-x="256" 
d="M106 0v500h44v-500h-44zM103 560l-130 150h60l120 -150h-50z" />
    <glyph glyph-name="iacute" unicode="&#xed;" horiz-adv-x="256" 
d="M106 0v500h44v-500h-44zM103 560l120 150h60l-130 -150h-50z" />
    <glyph glyph-name="icircumflex" unicode="&#xee;" horiz-adv-x="256" 
d="M106 0v500h44v-500h-44zM225 560l-97 110l-97 -110h-48l120 150h50l120 -150h-48z" />
    <glyph glyph-name="idieresis" unicode="&#xef;" horiz-adv-x="256" 
d="M106 0v500h44v-500h-44zM28 600q-15 0 -25 10t-10 25t10 25.5t25 10.5t25 -10.5t10 -25.5t-10 -25t-25 -10zM228 600q-15 0 -25 10t-10 25t10 25.5t25 10.5t25 -10.5t10 -25.5t-10 -25t-25 -10z" />
    <glyph glyph-name="eth" unicode="&#xf0;" horiz-adv-x="545" 
d="M175 546v35l75 40q-30 29 -90 79h60q44 -38 66 -60l89 48v-34l-67 -36q167 -173 167 -353v-50q0 -97 -59 -159t-146 -62q-87 1 -146 62.5t-59 158.5v50q0 96 57.5 158.5t140.5 62.5q81 0 134 -58q-39 83 -125 170zM270 36q68 0 113.5 49t45.5 130v50q0 79 -45.5 127.5
t-113.5 48.5t-113.5 -48.5t-45.5 -127.5v-50q0 -80 45.5 -129.5t113.5 -49.5z" />
    <glyph glyph-name="ntilde" unicode="&#xf1;" horiz-adv-x="575" 
d="M95 0v500h36l4 -86q52 92 170 92q85 0 132.5 -51.5t47.5 -149.5v-305h-44v305q0 78 -37 118.5t-104 40.5q-69 0 -114 -42.5t-47 -109.5v-312h-44zM355 580q-28 0 -51.5 17.5t-43 35t-35.5 17.5q-47 0 -47 -60h-38q0 48 23 74t62 26q28 0 51 -17.5t42.5 -35t36.5 -17.5
q47 0 47 60h38q0 -48 -23 -74t-62 -26z" />
    <glyph glyph-name="ograve" unicode="&#xf2;" horiz-adv-x="550" 
d="M275 -6q-96 0 -153 61t-57 170v50q0 108 57.5 169.5t152.5 61.5q96 0 153 -61t57 -170v-50q0 -108 -57.5 -169.5t-152.5 -61.5zM275 36q74 0 119 49.5t45 139.5v50q0 89 -45 139t-119 50t-119 -49.5t-45 -139.5v-50q0 -89 45 -139t119 -50zM250 560l-130 150h60l120 -150
h-50z" />
    <glyph glyph-name="oacute" unicode="&#xf3;" horiz-adv-x="550" 
d="M275 -6q-96 0 -153 61t-57 170v50q0 108 57.5 169.5t152.5 61.5q96 0 153 -61t57 -170v-50q0 -108 -57.5 -169.5t-152.5 -61.5zM275 36q74 0 119 49.5t45 139.5v50q0 89 -45 139t-119 50t-119 -49.5t-45 -139.5v-50q0 -89 45 -139t119 -50zM250 560l120 150h60l-130 -150
h-50z" />
    <glyph glyph-name="ocircumflex" unicode="&#xf4;" horiz-adv-x="550" 
d="M275 -6q-96 0 -153 61t-57 170v50q0 108 57.5 169.5t152.5 61.5q96 0 153 -61t57 -170v-50q0 -108 -57.5 -169.5t-152.5 -61.5zM275 36q74 0 119 49.5t45 139.5v50q0 89 -45 139t-119 50t-119 -49.5t-45 -139.5v-50q0 -89 45 -139t119 -50zM372 560l-97 110l-97 -110h-48
l120 150h50l120 -150h-48z" />
    <glyph glyph-name="otilde" unicode="&#xf5;" horiz-adv-x="550" 
d="M275 -6q-96 0 -153 61t-57 170v50q0 108 57.5 169.5t152.5 61.5q96 0 153 -61t57 -170v-50q0 -108 -57.5 -169.5t-152.5 -61.5zM275 36q74 0 119 49.5t45 139.5v50q0 89 -45 139t-119 50t-119 -49.5t-45 -139.5v-50q0 -89 45 -139t119 -50zM340 580q-36 0 -74 35t-56 35
q-47 0 -47 -60h-38q0 48 23 74t62 26q28 0 51 -17.5t42.5 -35t36.5 -17.5q47 0 47 60h38q0 -48 -23 -74t-62 -26z" />
    <glyph glyph-name="odieresis" unicode="&#xf6;" horiz-adv-x="550" 
d="M275 -6q-96 0 -153 61t-57 170v50q0 108 57.5 169.5t152.5 61.5q96 0 153 -61t57 -170v-50q0 -108 -57.5 -169.5t-152.5 -61.5zM275 36q74 0 119 49.5t45 139.5v50q0 89 -45 139t-119 50t-119 -49.5t-45 -139.5v-50q0 -89 45 -139t119 -50zM175 600q-15 0 -25 10t-10 25
t10 25.5t25 10.5t25 -10.5t10 -25.5t-10 -25t-25 -10zM375 600q-15 0 -25 10t-10 25t10 25.5t25 10.5t25 -10.5t10 -25.5t-10 -25t-25 -10z" />
    <glyph glyph-name="divide" unicode="&#xf7;" 
d="M80 339v42h430v-42h-430zM295 490q-17 0 -28.5 11.5t-11.5 28.5t11.5 28.5t28.5 11.5t28.5 -11.5t11.5 -28.5t-11.5 -28.5t-28.5 -11.5zM295 150q-17 0 -28.5 11.5t-11.5 28.5t11.5 28.5t28.5 11.5t28.5 -11.5t11.5 -28.5t-11.5 -28.5t-28.5 -11.5z" />
    <glyph glyph-name="oslash" unicode="&#xf8;" horiz-adv-x="550" 
d="M93 -6l-28 22l44 55q-44 61 -44 154v50q0 108 57.5 169.5t152.5 61.5q85 0 141 -51l41 51l28 -22l-44 -56q44 -60 44 -153v-50q0 -108 -57.5 -169.5t-152.5 -61.5q-87 0 -142 50zM275 36q74 0 119 49.5t45 139.5v50q0 69 -28 116l-250 -312q45 -43 114 -43zM111 225
q0 -69 28 -116l249 311q-42 44 -113 44q-74 0 -119 -49.5t-45 -139.5v-50z" />
    <glyph glyph-name="ugrave" unicode="&#xf9;" horiz-adv-x="565" 
d="M265 -6q-81 0 -128 52t-47 149v305h44v-305q0 -78 36.5 -118.5t100.5 -40.5q67 0 111 45t44 114v305h44v-500h-36l-5 88q-23 -44 -66 -69t-98 -25zM255 560l-130 150h60l120 -150h-50z" />
    <glyph glyph-name="uacute" unicode="&#xfa;" horiz-adv-x="565" 
d="M265 -6q-81 0 -128 52t-47 149v305h44v-305q0 -78 36.5 -118.5t100.5 -40.5q67 0 111 45t44 114v305h44v-500h-36l-5 88q-23 -44 -66 -69t-98 -25zM255 560l120 150h60l-130 -150h-50z" />
    <glyph glyph-name="ucircumflex" unicode="&#xfb;" horiz-adv-x="565" 
d="M265 -6q-81 0 -128 52t-47 149v305h44v-305q0 -78 36.5 -118.5t100.5 -40.5q67 0 111 45t44 114v305h44v-500h-36l-5 88q-23 -44 -66 -69t-98 -25zM377 560l-97 110l-97 -110h-48l120 150h50l120 -150h-48z" />
    <glyph glyph-name="udieresis" unicode="&#xfc;" horiz-adv-x="565" 
d="M265 -6q-81 0 -128 52t-47 149v305h44v-305q0 -78 36.5 -118.5t100.5 -40.5q67 0 111 45t44 114v305h44v-500h-36l-5 88q-23 -44 -66 -69t-98 -25zM180 600q-15 0 -25 10t-10 25t10 25.5t25 10.5t25 -10.5t10 -25.5t-10 -25t-25 -10zM380 600q-15 0 -25 10t-10 25
t10 25.5t25 10.5t25 -10.5t10 -25.5t-10 -25t-25 -10z" />
    <glyph glyph-name="yacute" unicode="&#xfd;" horiz-adv-x="520" 
d="M169 -200l76 199l-210 501h48l185 -447l171 447h46l-270 -700h-46zM236 560l120 150h60l-130 -150h-50z" />
    <glyph glyph-name="thorn" unicode="&#xfe;" horiz-adv-x="560" 
d="M301 -6q-112 0 -162 94v-288h-44v900h44v-288q50 94 160 94q89 0 142.5 -60t53.5 -171v-50q0 -111 -53 -171t-141 -60zM294 36q70 0 112.5 49t42.5 140v50q0 91 -42.5 140t-112.5 49q-67 0 -111 -50.5t-44 -138.5v-50q0 -88 44 -138.5t111 -50.5z" />
    <glyph glyph-name="ydieresis" unicode="&#xff;" horiz-adv-x="520" 
d="M169 -200l76 199l-210 501h48l185 -447l171 447h46l-270 -700h-46zM161 600q-15 0 -25 10t-10 25t10 25.5t25 10.5t25 -10.5t10 -25.5t-10 -25t-25 -10zM361 600q-15 0 -25 10t-10 25t10 25.5t25 10.5t25 -10.5t10 -25.5t-10 -25t-25 -10z" />
    <glyph glyph-name="OE" unicode="&#x152;" horiz-adv-x="960" 
d="M510 0v35q-64 -41 -147 -41q-128 0 -208 86.5t-80 234.5v70q0 147 80.5 234t207.5 87q83 0 147 -41v35h395v-42h-349v-277h289v-42h-289v-297h349v-42h-395zM363 38q82 0 147 49v526q-65 49 -147 49q-106 0 -173 -74.5t-67 -202.5v-70q0 -128 67.5 -202.5t172.5 -74.5z
" />
    <glyph glyph-name="oe" unicode="&#x153;" horiz-adv-x="910" 
d="M641 -6q-63 0 -110.5 31.5t-70.5 90.5q-24 -59 -72.5 -90.5t-113.5 -31.5q-95 0 -152 61t-57 170v50q0 108 57.5 169.5t151.5 61.5q65 0 113.5 -31.5t72.5 -90.5q23 59 70.5 90.5t110.5 31.5q93 0 148.5 -61t55.5 -170v-35h-362v-15q0 -91 43 -140t115 -49q65 0 99.5 26
t50.5 78h46q-34 -146 -196 -146zM274 36q74 0 118.5 49.5t44.5 139.5v50q0 89 -45 139t-118 50q-74 0 -118.5 -49.5t-44.5 -139.5v-50q0 -89 45 -139t118 -50zM641 464q-71 0 -114 -48t-44 -136h316q-1 88 -44.5 136t-113.5 48z" />
    <glyph glyph-name="Ydieresis" unicode="&#x178;" horiz-adv-x="650" 
d="M307 0v265l-267 435h54l236 -387l228 387h52l-257 -435v-265h-46zM216 800q-15 0 -25 10t-10 25t10 25t25 10t25 -10t10 -25t-10 -25t-25 -10zM436 800q-15 0 -25 10t-10 25t10 25t25 10t25 -10t10 -25t-10 -25t-25 -10z" />
    <glyph glyph-name="circumflex" unicode="&#x2c6;" horiz-adv-x="360" 
d="M277 560l-97 110l-97 -110h-48l120 150h50l120 -150h-48z" />
    <glyph glyph-name="tilde" unicode="&#x2dc;" horiz-adv-x="340" 
d="M235 580q-28 0 -51.5 17.5t-43 35t-35.5 17.5q-47 0 -47 -60h-38q0 48 23 74t62 26q28 0 51 -17.5t42.5 -35t36.5 -17.5q47 0 47 60h38q0 -48 -23 -74t-62 -26z" />
    <glyph glyph-name="uni2000" unicode="&#x2000;" horiz-adv-x="466" 
 />
    <glyph glyph-name="uni2001" unicode="&#x2001;" horiz-adv-x="932" 
 />
    <glyph glyph-name="uni2002" unicode="&#x2002;" horiz-adv-x="466" 
 />
    <glyph glyph-name="uni2003" unicode="&#x2003;" horiz-adv-x="932" 
 />
    <glyph glyph-name="uni2004" unicode="&#x2004;" horiz-adv-x="310" 
 />
    <glyph glyph-name="uni2005" unicode="&#x2005;" horiz-adv-x="233" 
 />
    <glyph glyph-name="uni2006" unicode="&#x2006;" horiz-adv-x="155" 
 />
    <glyph glyph-name="uni2007" unicode="&#x2007;" horiz-adv-x="155" 
 />
    <glyph glyph-name="uni2008" unicode="&#x2008;" horiz-adv-x="116" 
 />
    <glyph glyph-name="uni2009" unicode="&#x2009;" horiz-adv-x="186" 
 />
    <glyph glyph-name="uni200A" unicode="&#x200a;" horiz-adv-x="51" 
 />
    <glyph glyph-name="uni2010" unicode="&#x2010;" horiz-adv-x="400" 
d="M55 239v42h290v-42h-290z" />
    <glyph glyph-name="uni2011" unicode="&#x2011;" horiz-adv-x="400" 
d="M55 239v42h290v-42h-290z" />
    <glyph glyph-name="figuredash" unicode="&#x2012;" horiz-adv-x="400" 
d="M55 239v42h290v-42h-290z" />
    <glyph glyph-name="endash" unicode="&#x2013;" 
d="M55 239v42h480v-42h-480z" />
    <glyph glyph-name="emdash" unicode="&#x2014;" horiz-adv-x="700" 
d="M55 239v42h590v-42h-590z" />
    <glyph glyph-name="quoteleft" unicode="&#x2018;" horiz-adv-x="250" 
d="M180 700l-54 -215h-56l71 215h39z" />
    <glyph glyph-name="quoteright" unicode="&#x2019;" horiz-adv-x="250" 
d="M70 486l54 215h56l-71 -215h-39z" />
    <glyph glyph-name="quotesinglbase" unicode="&#x201a;" horiz-adv-x="250" 
d="M55 -150l54 215h56l-71 -215h-39z" />
    <glyph glyph-name="quotedblleft" unicode="&#x201c;" horiz-adv-x="420" 
d="M350 700l-54 -215h-56l71 215h39zM180 700l-54 -215h-56l71 215h39z" />
    <glyph glyph-name="quotedblright" unicode="&#x201d;" horiz-adv-x="420" 
d="M240 486l54 215h56l-71 -215h-39zM70 486l54 215h56l-71 -215h-39z" />
    <glyph glyph-name="quotedblbase" unicode="&#x201e;" horiz-adv-x="420" 
d="M225 -150l54 215h56l-71 -215h-39zM55 -150l54 215h56l-71 -215h-39z" />
    <glyph glyph-name="bullet" unicode="&#x2022;" horiz-adv-x="450" 
d="M225 161q-41 0 -70 29.5t-29 69.5t29 69.5t70 29.5t70 -29.5t29 -69.5t-29 -69.5t-70 -29.5z" />
    <glyph glyph-name="ellipsis" unicode="&#x2026;" horiz-adv-x="860" 
d="M125 -6q-17 0 -28.5 11.5t-11.5 28.5t11.5 28.5t28.5 11.5t28.5 -11.5t11.5 -28.5t-11.5 -28.5t-28.5 -11.5zM430 -6q-17 0 -28.5 11.5t-11.5 28.5t11.5 28.5t28.5 11.5t28.5 -11.5t11.5 -28.5t-11.5 -28.5t-28.5 -11.5zM735 -6q-17 0 -28.5 11.5t-11.5 28.5t11.5 28.5
t28.5 11.5t28.5 -11.5t11.5 -28.5t-11.5 -28.5t-28.5 -11.5z" />
    <glyph glyph-name="uni202F" unicode="&#x202f;" horiz-adv-x="186" 
 />
    <glyph glyph-name="guilsinglleft" unicode="&#x2039;" horiz-adv-x="300" 
d="M55 259l122 201h48l-121 -199l121 -201h-50z" />
    <glyph glyph-name="guilsinglright" unicode="&#x203a;" horiz-adv-x="300" 
d="M245 261l-122 -201h-48l121 199l-121 201h50z" />
    <glyph glyph-name="uni205F" unicode="&#x205f;" horiz-adv-x="233" 
 />
    <glyph glyph-name="Euro" unicode="&#x20ac;" horiz-adv-x="620" 
d="M20 405l11 40h102q14 124 86 189.5t186 65.5h175l-12 -42h-163q-96 0 -154.5 -53.5t-71.5 -159.5h329l-12 -40h-320v-20v-70v-20h289l-12 -40h-274q13 -106 71.5 -159.5t154.5 -53.5h165v-42h-165q-116 0 -187 65t-85 190h-113l11 40h99v20v70v20h-110z" />
    <glyph glyph-name="trademark" unicode="&#x2122;" horiz-adv-x="850" 
d="M588 428l-94 176l-23 49v-353h-40v400h53l124 -234l126 234h51v-400h-40v352l-23 -48l-93 -176h-41zM65 663v37h310v-37h-135v-363h-40v363h-135z" />
    <glyph glyph-name="uni25FC" unicode="&#x25fc;" horiz-adv-x="500" 
d="M0 500h500v-500h-500v500z" />
    <glyph glyph-name="uniFB01" unicode="&#xfb01;" horiz-adv-x="585" 
d="M446 0v460h-272v-460h-44v460h-90v40h90v80q0 120 120 120h150v-42h-145q-42 0 -61.5 -20t-19.5 -63v-75h316v-500h-44z" />
    <glyph glyph-name="uniFB02" unicode="&#xfb02;" horiz-adv-x="625" 
d="M549 0q-114 0 -114 119v539h-180q-42 0 -61.5 -20t-19.5 -63v-75h130v-40h-130v-460h-44v460h-90v40h90v80q0 120 120 120h229v-576q0 -82 75 -82h31v-42h-36z" />
    <glyph glyph-name="uniFB03" unicode="&#xfb03;" horiz-adv-x="900" 
d="M445 0v460h-271v-460h-44v460h-90v40h90v80q0 120 120 120h70v-42h-65q-42 0 -61.5 -20t-19.5 -63v-75h271v80q0 120 120 120h150v-42h-145q-42 0 -61.5 -20t-19.5 -63v-75h316v-500h-44v460h-272v-460h-44z" />
    <glyph glyph-name="uniFB04" unicode="&#xfb04;" horiz-adv-x="940" 
d="M445 0v460h-271v-460h-44v460h-90v40h90v80q0 120 120 120h70v-42h-65q-42 0 -61.5 -20t-19.5 -63v-75h271v80q0 120 120 120h229v-576q0 -82 75 -82h31v-42h-36q-114 0 -114 119v539h-180q-42 0 -61.5 -20t-19.5 -63v-75h130v-40h-130v-460h-44z" />
    </font>
</defs>
</svg>
