<?xml version="1.0" standalone="no"?>
<!DOCTYPE svg PUBLIC "-//W3C//DTD SVG 1.1//EN" "http://www.w3.org/Graphics/SVG/1.1/DTD/svg11.dtd" >
<svg xmlns="http://www.w3.org/2000/svg" xmlns:xlink="http://www.w3.org/1999/xlink" version="1.1">
<metadata>
Created by FontForge 20190801 at Sat Jan 28 03:24:58 2017
 By Jimmy Wärting
Copyright \(c\) 2017 by Alexander Slobzheninov. All rights reserved.
</metadata>
<defs>
<font id="Objective-Bold" horiz-adv-x="622" >
  <font-face 
    font-family="Objective"
    font-weight="700"
    font-stretch="normal"
    units-per-em="1000"
    panose-1="0 0 0 0 0 0 0 0 0 0"
    ascent="800"
    descent="-200"
    x-height="512"
    cap-height="712"
    bbox="-65 -346 1498 1074"
    underline-thickness="50"
    underline-position="-125"
    stemh="132"
    stemv="150"
    unicode-range="U+000D-F6C3"
  />
<missing-glyph horiz-adv-x="500" 
 />
    <glyph glyph-name=".notdef" horiz-adv-x="500" 
 />
    <glyph glyph-name="NULL" horiz-adv-x="742" 
d="M661 712v-712h-580v712h580zM213 114h315v484h-315v-484z" />
    <glyph glyph-name="NULL" horiz-adv-x="742" 
d="M661 712v-712h-580v712h580zM213 114h315v484h-315v-484z" />
    <glyph glyph-name="CR" unicode="&#xd;" horiz-adv-x="30" 
 />
    <glyph glyph-name="space" unicode=" " horiz-adv-x="306" 
 />
    <glyph glyph-name="exclam" unicode="!" horiz-adv-x="313" 
d="M69 69c0 49 37 84 87 84c51 0 87 -35 87 -84c0 -50 -36 -85 -87 -85c-50 0 -87 35 -87 85zM234 520l-39 -283h-78l-38 283v192h155v-192z" />
    <glyph glyph-name="quotedbl" unicode="&#x22;" horiz-adv-x="388" 
d="M138 364h-78l-18 208v140h114v-140zM328 364h-78l-18 208v140h114v-140z" />
    <glyph glyph-name="numbersign" unicode="#" horiz-adv-x="934" 
d="M613 216l-57 -216h-128l57 216h-140l-58 -216h-128l59 216h-176v102h203l32 118h-185v102h212l55 204h128l-55 -204h140l54 204h128l-55 -204h193v-102h-220l-32 -118h202v-102h-229zM513 318l31 118h-140l-32 -118h141z" />
    <glyph glyph-name="dollar" unicode="$" horiz-adv-x="718" 
d="M437 -19v-102h-156v104c-136 28 -228 125 -228 251h151c0 -77 69 -132 165 -132c83 0 133 41 133 92c0 151 -442 24 -442 307c0 120 87 208 221 230v89h156v-92c127 -28 212 -120 212 -238h-146c1 70 -62 120 -148 120c-79 0 -132 -37 -132 -87c0 -145 443 -20 443 -305
c0 -122 -89 -214 -229 -237z" />
    <glyph glyph-name="percent" unicode="%" horiz-adv-x="1066" 
d="M810 414c126 0 214 -89 214 -214c0 -126 -88 -214 -214 -214c-125 0 -213 88 -213 214c0 125 88 214 213 214zM810 289c-52 0 -88 -37 -88 -89c0 -53 36 -89 88 -89c53 0 89 36 89 89c0 52 -36 89 -89 89zM256 756c126 0 214 -88 214 -214c0 -125 -88 -214 -214 -214
c-125 0 -214 89 -214 214c0 126 89 214 214 214zM256 631c-52 0 -89 -36 -89 -89c0 -52 37 -89 89 -89c53 0 89 37 89 89c0 53 -36 89 -89 89zM859 742l-509 -742h-142l508 742h143z" />
    <glyph glyph-name="ampersand" unicode="&#x26;" horiz-adv-x="834" 
d="M793 0h-179l-65 58c-70 -52 -152 -83 -239 -83c-152 0 -257 83 -257 212c0 108 64 162 143 198c-32 41 -55 91 -55 145c0 117 97 203 223 203c121 0 218 -79 233 -188l-134 -24c-7 54 -47 94 -96 94c-48 0 -86 -35 -86 -89c0 -39 21 -79 65 -119
c26 -24 176 -161 204 -186c25 34 45 74 61 119h138c-23 -76 -62 -143 -110 -200c20 -19 134 -122 154 -140zM335 97c45 0 86 16 122 43c-24 22 -150 136 -174 158c-46 -19 -75 -50 -75 -101c0 -58 53 -100 127 -100z" />
    <glyph glyph-name="quotesingle" unicode="'" horiz-adv-x="198" 
d="M138 364h-78l-18 208v140h114v-140z" />
    <glyph glyph-name="parenleft" unicode="(" horiz-adv-x="365" 
d="M48 281c0 184 64 366 159 461h140c-101 -109 -167 -286 -167 -461c0 -177 65 -354 167 -461h-140c-95 95 -159 277 -159 461z" />
    <glyph glyph-name="parenright" unicode=")" horiz-adv-x="365" 
d="M317 281c0 -184 -64 -366 -159 -461h-140c102 107 167 284 167 461c0 175 -66 352 -167 461h140c95 -95 159 -277 159 -461z" />
    <glyph glyph-name="asterisk" unicode="*" horiz-adv-x="516" 
d="M423 338l-120 76l6 -142h-102l6 142l-120 -76l-51 88l125 66l-125 66l51 88l120 -76l-6 142h102l-6 -142l120 76l51 -88l-125 -66l125 -66z" />
    <glyph glyph-name="plus" unicode="+" horiz-adv-x="554" 
d="M349 90h-143v165h-164v115h164v160h143v-160h163v-115h-163v-165z" />
    <glyph glyph-name="comma" unicode="," horiz-adv-x="261" 
d="M43 68c0 49 36 84 84 84c55 0 92 -47 92 -117c0 -74 -40 -156 -96 -197l-73 26c41 34 71 84 71 120c-46 0 -78 35 -78 84z" />
    <glyph glyph-name="hyphen" unicode="-" horiz-adv-x="494" 
d="M452 372v-123h-410v123h410z" />
    <glyph glyph-name="period" unicode="." horiz-adv-x="258" 
d="M42 69c0 49 37 84 87 84c51 0 87 -35 87 -84c0 -50 -36 -85 -87 -85c-50 0 -87 35 -87 85z" />
    <glyph glyph-name="slash" unicode="/" horiz-adv-x="480" 
d="M463 712l-311 -942h-134l311 942h134z" />
    <glyph glyph-name="zero" unicode="0" horiz-adv-x="764" 
d="M58 356c0 221 133 381 324 381c192 0 325 -160 325 -381s-133 -381 -325 -381c-191 0 -324 160 -324 381zM222 356c0 -137 66 -237 160 -237s161 100 161 237s-67 237 -161 237s-160 -100 -160 -237z" />
    <glyph glyph-name="one" unicode="1" horiz-adv-x="463" 
d="M208 527l-172 -128v166l196 147h140v-712h-164v527z" />
    <glyph glyph-name="two" unicode="2" horiz-adv-x="659" 
d="M335 737c150 0 266 -98 266 -234c0 -93 -56 -168 -139 -223l-234 -153h358v-127h-529v153l297 204c58 40 92 80 92 135c0 64 -47 110 -113 110c-65 0 -119 -59 -129 -139l-149 29c18 142 136 245 280 245z" />
    <glyph glyph-name="three" unicode="3" horiz-adv-x="657" 
d="M69 585v127h507v-94l-169 -177c110 -20 192 -111 192 -226c0 -139 -118 -240 -281 -240c-161 0 -274 109 -285 259l147 23c10 -85 63 -147 136 -147c72 0 125 49 125 117s-53 117 -125 117c-20 0 -45 -4 -59 -11l-37 95l159 157h-310z" />
    <glyph glyph-name="four" unicode="4" horiz-adv-x="667" 
d="M28 239l278 473h230v-439h83v-126h-83v-147h-168v147h-340v92zM367 573l-173 -300h174z" />
    <glyph glyph-name="five" unicode="5" horiz-adv-x="664" 
d="M134 712h424v-127h-301l-13 -126h114c153 0 254 -100 254 -238c0 -144 -116 -246 -277 -246c-162 0 -273 109 -283 260l147 22c7 -85 59 -147 133 -147c71 0 122 50 122 116c0 72 -53 123 -139 123h-213z" />
    <glyph glyph-name="six" unicode="6" horiz-adv-x="667" 
d="M116 415l213 297h187l-188 -255c24 7 46 9 65 9c136 0 232 -96 232 -231c0 -153 -120 -260 -294 -260c-170 0 -289 107 -289 251c0 58 28 127 74 189zM210 235c0 -73 53 -125 126 -124c71 0 121 51 121 124c0 70 -50 120 -121 120c-73 0 -126 -49 -126 -120z" />
    <glyph glyph-name="seven" unicode="7" horiz-adv-x="529" 
d="M262 0h-175l242 577h-313v135h501v-98z" />
    <glyph glyph-name="eight" unicode="8" horiz-adv-x="699" 
d="M350 740c152 0 262 -81 262 -198c0 -75 -46 -144 -110 -164c81 -18 140 -97 140 -185c0 -126 -123 -215 -292 -215s-292 90 -292 215c0 87 58 167 139 185c-63 20 -109 89 -109 163c0 116 110 199 262 199zM350 312c-69 0 -118 -42 -118 -100c0 -59 49 -101 118 -101
s118 42 118 101c0 58 -50 100 -118 100zM350 607c-62 0 -107 -38 -107 -90c0 -53 45 -91 107 -91s106 38 106 91c0 52 -44 90 -106 90z" />
    <glyph glyph-name="nine" unicode="9" horiz-adv-x="667" 
d="M552 297l-214 -297h-186l188 255c-25 -7 -47 -9 -65 -9c-137 0 -233 96 -233 231c0 153 121 260 295 260c170 0 288 -107 288 -251c0 -58 -27 -127 -73 -189zM457 477c0 73 -52 125 -126 124c-70 0 -121 -52 -121 -124c0 -70 51 -120 121 -120c74 0 126 49 126 120z" />
    <glyph glyph-name="colon" unicode=":" horiz-adv-x="258" 
d="M42 69c0 49 37 84 87 84c51 0 87 -35 87 -84c0 -50 -36 -85 -87 -85c-50 0 -87 35 -87 85zM42 431c0 50 37 85 87 85c51 0 87 -35 87 -85c0 -49 -36 -84 -87 -84c-50 0 -87 35 -87 84z" />
    <glyph glyph-name="semicolon" unicode=";" horiz-adv-x="261" 
d="M42 431c0 50 37 85 87 85c51 0 87 -35 87 -85c0 -49 -36 -84 -87 -84c-50 0 -87 35 -87 84zM43 68c0 49 36 84 84 84c55 0 92 -47 92 -117c0 -74 -40 -156 -96 -197l-73 26c41 34 71 84 71 120c-46 0 -78 35 -78 84z" />
    <glyph glyph-name="less" unicode="&#x3c;" horiz-adv-x="445" 
d="M398 125v-130l-380 193v136l380 193v-130l-274 -131z" />
    <glyph glyph-name="equal" unicode="=" horiz-adv-x="554" 
d="M42 241h470v-119h-470v119zM42 496h470v-119h-470v119z" />
    <glyph glyph-name="greater" unicode="&#x3e;" horiz-adv-x="445" 
d="M48 517l380 -193v-136l-380 -193v130l273 131l-273 131v130z" />
    <glyph glyph-name="question" unicode="?" horiz-adv-x="637" 
d="M228 68c0 49 36 85 87 85s87 -36 87 -85s-36 -85 -87 -85s-87 36 -87 85zM384 208h-138c0 106 34 157 100 202c40 27 79 54 79 102c0 53 -44 94 -102 94c-67 0 -115 -55 -124 -130l-151 28c14 135 126 233 281 233c148 0 260 -89 260 -213c0 -88 -52 -139 -122 -180
c-54 -31 -83 -62 -83 -136z" />
    <glyph glyph-name="at" unicode="@" horiz-adv-x="1036" 
d="M166 260c0 -189 125 -327 298 -327c54 0 116 17 151 37v-109c-42 -23 -103 -35 -151 -35c-237 0 -416 183 -416 434c0 252 197 435 470 435s470 -183 470 -435c0 -154 -69 -264 -200 -264c-78 0 -139 50 -144 119c-28 -43 -97 -74 -168 -74c-114 0 -190 92 -190 219
c0 128 97 220 232 220c137 0 232 -91 232 -221v-104c0 -35 13 -71 49 -71c47 0 70 74 70 176c0 195 -148 336 -351 336c-204 0 -352 -141 -352 -336zM518 368c-61 0 -104 -46 -104 -108s43 -106 104 -106c60 0 104 44 104 106s-44 108 -104 108z" />
    <glyph glyph-name="A" unicode="A" horiz-adv-x="757" 
d="M501 712l238 -712h-176l-42 129h-286l-40 -129h-177l239 712h244zM379 568l-108 -318h216z" />
    <glyph glyph-name="B" unicode="B" horiz-adv-x="755" 
d="M438 0h-357v712h345c148 0 252 -83 252 -196c0 -75 -42 -135 -103 -152c73 -18 123 -85 123 -169c0 -117 -107 -195 -260 -195zM404 306h-155v-179h155c71 0 122 37 122 88c0 54 -51 91 -122 91zM396 585h-147v-165h147c64 0 110 34 110 82c0 49 -46 83 -110 83z" />
    <glyph glyph-name="C" unicode="C" horiz-adv-x="830" 
d="M625 265l157 -20c-24 -157 -172 -270 -354 -270c-220 0 -380 160 -380 381s160 381 380 381c180 0 328 -116 353 -277l-157 -18c-20 88 -100 151 -192 151c-127 0 -216 -98 -216 -237s90 -237 216 -237c90 0 171 62 193 146z" />
    <glyph glyph-name="D" unicode="D" horiz-adv-x="806" 
d="M81 0v712h267c246 0 410 -142 410 -356s-164 -356 -410 -356h-267zM591 356c0 138 -98 225 -243 225h-104v-450h104c145 0 243 87 243 225z" />
    <glyph glyph-name="E" unicode="E" horiz-adv-x="638" 
d="M243 135h348v-135h-510v712h500v-135h-338v-153h298v-118h-298v-171z" />
    <glyph glyph-name="F" unicode="F" horiz-adv-x="598" 
d="M507 255h-258v-255h-168v712h485v-144h-317v-185h258v-128z" />
    <glyph glyph-name="G" unicode="G" horiz-adv-x="868" 
d="M656 294h-220v110h382c23 -249 -136 -429 -376 -429c-229 0 -394 160 -394 381s165 381 394 381c163 0 301 -93 336 -224l-154 -34c-23 66 -99 114 -183 114c-131 0 -225 -99 -225 -237c0 -137 96 -237 230 -237c113 0 204 76 210 175z" />
    <glyph glyph-name="H" unicode="H" horiz-adv-x="790" 
d="M248 0h-168v712h168v-275h294v275h168v-712h-168v301h-294v-301z" />
    <glyph glyph-name="I" unicode="I" horiz-adv-x="329" 
d="M249 712v-712h-168v712h168z" />
    <glyph glyph-name="J" unicode="J" horiz-adv-x="495" 
d="M251 241v471h168v-488c0 -145 -102 -244 -240 -244c-47 0 -104 8 -143 20v129c30 -8 69 -14 96 -14c70 0 119 50 119 126z" />
    <glyph glyph-name="K" unicode="K" horiz-adv-x="707" 
d="M81 712h168v-290l237 290h203l-291 -342l297 -370h-204l-242 314v-314h-168v712z" />
    <glyph glyph-name="L" unicode="L" horiz-adv-x="583" 
d="M547 0h-466v712h168v-568h298v-144z" />
    <glyph glyph-name="M" unicode="M" horiz-adv-x="1009" 
d="M245 0h-164v712h222l201 -521l199 521h225v-712h-164v509l-197 -509h-126l-196 509v-509z" />
    <glyph glyph-name="N" unicode="N" horiz-adv-x="792" 
d="M269 712l283 -509v509h160v-712h-188l-284 508v-508h-159v712h188z" />
    <glyph glyph-name="O" unicode="O" horiz-adv-x="884" 
d="M48 356c0 225 160 381 394 381c233 0 394 -156 394 -381c0 -226 -161 -381 -394 -381c-234 0 -394 155 -394 381zM216 356c0 -139 93 -236 226 -237c133 0 226 98 226 237s-93 237 -226 237s-226 -98 -226 -237z" />
    <glyph glyph-name="P" unicode="P" horiz-adv-x="719" 
d="M399 221h-156v-221h-162v712h319c166 0 281 -101 281 -246c0 -144 -116 -245 -282 -245zM369 585h-126v-237h126c84 0 144 49 144 118c0 70 -59 119 -144 119z" />
    <glyph glyph-name="Q" unicode="Q" horiz-adv-x="884" 
d="M48 356c0 225 160 381 394 381c233 0 394 -156 394 -381c0 -132 -55 -239 -146 -307l141 -189h-165l-100 133c-38 -12 -80 -18 -124 -18c-234 0 -394 155 -394 381zM216 356c0 -139 93 -236 226 -237c132 0 226 98 226 237s-93 237 -226 237s-226 -98 -226 -237z" />
    <glyph glyph-name="R" unicode="R" horiz-adv-x="770" 
d="M81 0v712h345c165 0 280 -97 280 -237c0 -95 -63 -173 -156 -203l172 -272h-188l-140 249h-145v-249h-168zM399 585h-150v-217h150c79 0 139 43 139 107c0 70 -60 110 -139 110z" />
    <glyph glyph-name="S" unicode="S" horiz-adv-x="718" 
d="M364 -25c-181 0 -311 109 -311 259h151c0 -77 69 -132 165 -132c83 0 133 41 133 92c0 151 -442 24 -442 307c0 140 119 236 291 236c173 0 298 -104 298 -247h-146c1 70 -62 120 -148 120c-79 0 -132 -37 -132 -87c0 -145 443 -20 443 -305c0 -142 -121 -243 -302 -243z
" />
    <glyph glyph-name="T" unicode="T" horiz-adv-x="629" 
d="M230 572h-214v140h596v-140h-214v-572h-168v572z" />
    <glyph glyph-name="U" unicode="U" horiz-adv-x="785" 
d="M543 299v413h168v-417c0 -189 -130 -320 -318 -320c-189 0 -320 131 -320 320v417h169v-413c0 -92 55 -178 151 -180c90 0 150 75 150 180z" />
    <glyph glyph-name="V" unicode="V" horiz-adv-x="749" 
d="M193 712l182 -588l181 588h175l-228 -712h-256l-229 712h175z" />
    <glyph glyph-name="W" unicode="W" horiz-adv-x="1181" 
d="M826 138l151 574h170l-193 -712h-242l-121 503l-121 -503h-243l-194 712h171l151 -574l144 574h186z" />
    <glyph glyph-name="X" unicode="X" horiz-adv-x="798" 
d="M265 376l-231 336h195l167 -247l171 247h198l-242 -336l248 -376h-198l-177 282l-173 -282h-195z" />
    <glyph glyph-name="Y" unicode="Y" horiz-adv-x="703" 
d="M269 248l-252 464h178l158 -316l151 316h181l-248 -464v-248h-168v248z" />
    <glyph glyph-name="Z" unicode="Z" horiz-adv-x="670" 
d="M46 110l350 470h-340v132h558v-110l-344 -470h354v-132h-578v110z" />
    <glyph glyph-name="bracketleft" unicode="[" horiz-adv-x="437" 
d="M225 640v-718h194v-102h-338v922h338v-102h-194z" />
    <glyph glyph-name="backslash" unicode="\" horiz-adv-x="481" 
d="M18 712h134l311 -942h-134z" />
    <glyph glyph-name="bracketright" unicode="]" horiz-adv-x="436" 
d="M356 -180h-338v102h194v718h-194v102h338v-922z" />
    <glyph glyph-name="asciicircum" unicode="^" horiz-adv-x="599" 
d="M182 400h-140l183 312h149l183 -312h-139l-119 219z" />
    <glyph glyph-name="underscore" unicode="_" horiz-adv-x="500" 
d="M0 0h500v-107h-500v107z" />
    <glyph glyph-name="grave" unicode="`" horiz-adv-x="335" 
d="M42 753h142l109 -160h-118z" />
    <glyph glyph-name="a" unicode="a" horiz-adv-x="676" 
d="M461 441v71h150v-512h-150v71c-40 -57 -101 -91 -174 -91c-144 0 -245 114 -245 276s101 276 245 276c73 0 134 -34 174 -91zM326 112c78 0 134 61 134 144s-56 144 -134 144s-134 -61 -134 -144s56 -144 134 -144z" />
    <glyph glyph-name="b" unicode="b" horiz-adv-x="669" 
d="M65 742h150v-292c40 52 99 82 169 82c143 0 243 -114 243 -276s-101 -276 -243 -276c-71 0 -131 31 -171 82v-62h-148v742zM477 256c0 81 -56 141 -134 141s-134 -60 -134 -141s56 -141 134 -141c77 0 134 59 134 141z" />
    <glyph glyph-name="c" unicode="c" horiz-adv-x="624" 
d="M583 329l-140 -18c-13 55 -64 95 -121 95c-73 0 -130 -63 -130 -150s56 -150 130 -150c59 0 108 40 122 95l140 -18c-19 -118 -131 -203 -263 -203c-161 0 -279 116 -279 276s117 276 279 276c134 0 246 -85 262 -203z" />
    <glyph glyph-name="d" unicode="d" horiz-adv-x="669" 
d="M454 450v292h150v-742h-148v62c-40 -51 -99 -82 -171 -82c-142 0 -243 114 -243 276s101 276 243 276c70 0 129 -30 169 -82zM192 256c0 -82 57 -141 134 -141c78 0 134 60 134 141s-56 141 -134 141s-134 -60 -134 -141z" />
    <glyph glyph-name="e" unicode="e" horiz-adv-x="642" 
d="M328 95c54 0 100 29 118 68l131 -29c-27 -89 -132 -154 -253 -154c-165 0 -282 115 -282 280c0 160 117 272 282 272c164 0 276 -112 276 -274c0 -13 0 -34 -2 -45l-401 1c13 -72 63 -119 131 -119zM196 304h252c-9 65 -59 113 -127 113c-66 0 -112 -45 -125 -113z" />
    <glyph glyph-name="f" unicode="f" horiz-adv-x="411" 
d="M379 746v-123c-16 4 -33 7 -50 7c-39 0 -65 -26 -65 -63v-55h115v-114h-115v-398h-150v398h-72v114h72v64c0 112 66 186 165 186c35 0 70 -6 100 -16z" />
    <glyph glyph-name="g" unicode="g" horiz-adv-x="669" 
d="M66 -63l134 21c16 -52 67 -89 124 -89c76 0 130 52 130 141v61c-40 -49 -98 -78 -169 -78c-141 0 -243 108 -243 263c0 161 102 275 243 275c72 0 130 -30 170 -80v61h149v-506c0 -159 -112 -256 -274 -256c-133 0 -242 78 -264 187zM326 116c78 0 134 59 134 140
c0 83 -56 144 -134 144s-134 -61 -134 -144c0 -81 56 -140 134 -140z" />
    <glyph glyph-name="h" unicode="h" 
d="M372 532c117 0 195 -86 195 -208v-324h-150v294c0 62 -36 106 -96 106c-58 0 -106 -47 -106 -112v-288h-150v742h150v-288c34 50 95 78 157 78z" />
    <glyph glyph-name="i" unicode="i" horiz-adv-x="304" 
d="M227 512v-512h-150v512h150zM65 665c0 49 36 84 87 84s87 -35 87 -84c0 -50 -36 -85 -87 -85s-87 35 -87 85z" />
    <glyph glyph-name="j" unicode="j" horiz-adv-x="306" 
d="M80 -33v545h150v-564c0 -108 -69 -180 -171 -180c-37 0 -82 6 -111 16v119c17 -5 41 -7 61 -7c43 0 71 29 71 71zM68 665c0 49 36 84 87 84c50 0 87 -35 87 -84c0 -50 -37 -85 -87 -85c-51 0 -87 35 -87 85z" />
    <glyph glyph-name="k" unicode="k" horiz-adv-x="588" 
d="M65 742h150v-419l173 189h182l-222 -240l228 -272h-182l-179 220v-220h-150v742z" />
    <glyph glyph-name="l" unicode="l" horiz-adv-x="278" 
d="M214 742v-742h-150v742h150z" />
    <glyph glyph-name="m" unicode="m" horiz-adv-x="948" 
d="M65 0v512h144v-61c32 52 87 81 150 81c74 0 136 -35 165 -91c33 56 101 90 172 90c116 0 197 -86 197 -209v-322h-150v292c0 61 -38 106 -95 108c-58 0 -97 -45 -97 -108v-292h-150v292c0 65 -36 108 -92 108c-57 0 -94 -43 -94 -108v-292h-150z" />
    <glyph glyph-name="n" unicode="n" 
d="M373 532c116 0 194 -89 194 -212v-320h-150v294c0 62 -36 106 -95 106s-107 -47 -107 -112v-288h-150v512h146v-69c36 55 96 89 162 89z" />
    <glyph glyph-name="o" unicode="o" horiz-adv-x="651" 
d="M610 256c0 -163 -116 -276 -285 -276c-168 0 -284 113 -284 276s116 276 284 276c169 0 285 -113 285 -276zM460 256c0 84 -56 144 -135 144c-78 0 -134 -60 -134 -144s56 -144 134 -144c79 0 135 60 135 144z" />
    <glyph glyph-name="p" unicode="p" horiz-adv-x="669" 
d="M215 62v-292h-150v742h148v-62c40 51 100 82 171 82c142 0 243 -114 243 -276s-100 -276 -243 -276c-70 0 -129 30 -169 82zM477 256c0 82 -57 141 -134 141c-78 0 -134 -60 -134 -141s56 -141 134 -141s134 60 134 141z" />
    <glyph glyph-name="q" unicode="q" horiz-adv-x="669" 
d="M604 -230h-150v292c-40 -52 -99 -82 -169 -82c-142 0 -243 114 -243 276s101 276 243 276c72 0 131 -31 171 -82v62h148v-742zM192 256c0 -81 56 -141 134 -141s134 60 134 141s-56 141 -134 141c-77 0 -134 -59 -134 -141z" />
    <glyph glyph-name="r" unicode="r" horiz-adv-x="429" 
d="M346 531c20 0 41 -5 61 -13v-133c-29 12 -62 19 -84 19c-65 0 -108 -55 -108 -132v-272h-150v512h144v-65c30 51 80 84 137 84z" />
    <glyph glyph-name="s" unicode="s" horiz-adv-x="564" 
d="M283 -22c-139 0 -238 81 -238 193h127c0 -51 48 -87 113 -87c55 0 95 26 95 61c-1 103 -330 1 -330 217c1 100 95 172 220 172c137 0 236 -74 237 -177h-132c-1 42 -45 71 -105 71c-47 0 -84 -24 -84 -57c-1 -98 337 -17 338 -210c0 -106 -99 -183 -241 -183z" />
    <glyph glyph-name="t" unicode="t" horiz-adv-x="417" 
d="M104 166v232h-72v114h79l17 129h126v-129h116v-114h-116v-217c0 -43 26 -72 68 -72c14 0 36 3 53 7l-1 -120c-30 -10 -70 -16 -102 -16c-102 0 -168 77 -168 186z" />
    <glyph glyph-name="u" unicode="u" 
d="M248 -20c-115 0 -193 89 -193 212v320h150v-294c0 -62 36 -106 95 -106s107 47 107 112v288h150v-512h-146v69c-36 -55 -96 -89 -163 -89z" />
    <glyph glyph-name="v" unicode="v" horiz-adv-x="607" 
d="M197 0l-179 512h160l126 -398l125 398h161l-179 -512h-214z" />
    <glyph glyph-name="w" unicode="w" horiz-adv-x="919" 
d="M183 0l-155 512h156l105 -362l100 362h140l107 -365l104 365h151l-156 -512h-190l-86 337l-86 -337h-190z" />
    <glyph glyph-name="x" unicode="x" horiz-adv-x="632" 
d="M210 0h-182l175 266l-167 246h178l102 -163l102 163h178l-167 -246l175 -266h-182l-106 179z" />
    <glyph glyph-name="y" unicode="y" horiz-adv-x="608" 
d="M87 -213v111c17 -6 43 -11 61 -11c64 0 89 46 112 108l-242 517h164l139 -330l114 330h156l-198 -530c-48 -131 -103 -213 -207 -213c-32 0 -71 7 -99 18z" />
    <glyph glyph-name="z" unicode="z" horiz-adv-x="569" 
d="M307 389h-251v123h457v-98l-252 -291h262v-123h-477v98z" />
    <glyph glyph-name="braceleft" unicode="{" horiz-adv-x="415" 
d="M338 -78h60v-102h-149c-75 0 -125 50 -125 125v207c0 39 -26 66 -66 66h-10v136h10c40 0 66 27 66 66v197c0 75 50 125 125 125h149v-102h-60c-42 0 -70 -28 -70 -70v-164c0 -67 -45 -115 -112 -119l-10 -1l10 -1c67 -4 112 -52 112 -119v-174c0 -42 28 -70 70 -70z" />
    <glyph glyph-name="bar" unicode="|" horiz-adv-x="295" 
d="M81 742h134v-972h-134v972z" />
    <glyph glyph-name="braceright" unicode="}" horiz-adv-x="415" 
d="M167 -180h-149v102h60c42 0 70 28 70 70v174c0 67 44 115 111 119l10 1l-10 1c-67 4 -111 52 -111 119v164c0 42 -28 70 -70 70h-60v102h149c74 0 125 -50 125 -125v-197c0 -39 26 -66 66 -66h10v-136h-10c-40 0 -66 -27 -66 -66v-207c0 -75 -51 -125 -125 -125z" />
    <glyph glyph-name="asciitilde" unicode="~" horiz-adv-x="654" 
d="M203 420c95 0 186 -108 260 -108c39 0 78 23 103 56l46 -94c-41 -53 -106 -88 -158 -88c-95 0 -189 108 -266 108c-36 0 -74 -24 -100 -56l-46 94c41 53 108 88 161 88z" />
    <glyph glyph-name="exclamdown" unicode="&#xa1;" horiz-adv-x="311" 
d="M77 -38l39 283h79l38 -283v-192h-156v192zM243 413c0 -49 -37 -84 -87 -84c-51 0 -87 35 -87 84c0 50 36 85 87 85c50 0 87 -35 87 -85z" />
    <glyph glyph-name="cent" unicode="&#xa2;" horiz-adv-x="624" 
d="M380 -14v-100h-133v103c-122 29 -205 133 -205 267c0 135 83 238 205 267v91h133v-88c107 -21 189 -97 203 -197l-140 -18c-13 55 -64 95 -121 95c-73 0 -130 -63 -130 -150s56 -150 130 -150c59 0 108 40 122 95l140 -18c-16 -99 -98 -176 -204 -197z" />
    <glyph glyph-name="sterling" unicode="&#xa3;" horiz-adv-x="653" 
d="M386 611c-51 0 -78 -42 -78 -100v-105h222v-101h-230c-13 -110 -57 -155 -118 -182h428v-123h-568v143c56 14 100 47 106 162h-96v101h100v110c0 128 85 221 223 221c136 0 224 -90 236 -214l-135 -22c-6 64 -37 110 -90 110z" />
    <glyph glyph-name="currency" unicode="&#xa4;" horiz-adv-x="736" 
d="M524 477l75 78l88 -75l-77 -80c28 -40 43 -89 43 -144s-15 -105 -43 -145l79 -81l-90 -74l-75 78c-43 -24 -96 -38 -155 -38s-111 13 -153 38l-81 -78l-87 74l79 81c-27 40 -42 90 -42 145s15 104 42 144l-75 80l88 76l75 -78c43 24 95 38 154 38s112 -14 155 -39z
M503 256c0 86 -55 146 -134 146c-78 0 -134 -60 -134 -146s55 -146 134 -146s134 60 134 146z" />
    <glyph glyph-name="yen" unicode="&#xa5;" horiz-adv-x="743" 
d="M254 305l-226 407h183l163 -328l155 328h186l-223 -407h170v-83h-204v-58h204v-84h-204v-80h-168v80h-207v84h207v58h-207v83h171z" />
    <glyph glyph-name="section" unicode="&#xa7;" horiz-adv-x="638" 
d="M316 705c118 0 214 -65 238 -168l-133 -17c-8 49 -53 84 -109 84c-53 0 -92 -24 -92 -58c0 -51 69 -66 147 -83c102 -21 218 -46 218 -153c0 -64 -51 -117 -124 -134c54 -20 93 -71 93 -137c0 -113 -101 -194 -242 -194c-121 0 -219 72 -237 172l133 18
c9 -49 56 -85 111 -85c54 0 93 23 93 63c0 59 -71 73 -149 88c-99 19 -210 47 -210 154c0 63 45 116 112 132c-48 21 -83 71 -83 136c0 107 96 182 234 182zM273 356c-48 -4 -83 -34 -83 -63c0 -50 60 -64 110 -72c10 -2 43 -9 53 -11c52 4 89 31 89 65c0 50 -60 61 -106 67
c-14 3 -51 12 -63 14z" />
    <glyph glyph-name="dieresis" unicode="&#xa8;" horiz-adv-x="500" 
d="M120 570c-45 0 -78 32 -78 75c0 44 33 76 78 76c46 0 79 -32 79 -76c0 -43 -33 -75 -79 -75zM380 570c-45 0 -78 32 -78 75c0 44 33 76 78 76c46 0 78 -32 78 -76c0 -43 -32 -75 -78 -75z" />
    <glyph glyph-name="copyright" unicode="&#xa9;" horiz-adv-x="999" 
d="M48 259c0 255 184 434 452 434s452 -177 452 -434c0 -261 -184 -440 -452 -440s-452 179 -452 440zM150 259c0 -207 142 -350 350 -350c207 0 350 143 350 350c0 201 -143 344 -350 344c-208 0 -350 -143 -350 -344zM754 328l-101 -16c-16 68 -77 118 -146 118
c-88 0 -155 -72 -155 -174c0 -101 66 -174 156 -174c72 0 135 52 150 124l96 -19c-16 -117 -120 -201 -247 -201c-155 0 -269 110 -269 270c0 157 112 270 268 270c125 0 229 -83 248 -198z" />
    <glyph glyph-name="guillemotleft" unicode="&#xab;" horiz-adv-x="701" 
d="M383 512l-187 -252l187 -260h-159l-182 260l182 252h159zM653 512l-187 -252l187 -260h-159l-182 260l182 252h159z" />
    <glyph glyph-name="logicalnot" unicode="&#xac;" horiz-adv-x="644" 
d="M484 70v186h-442v120h550v-306h-108z" />
    <glyph glyph-name="registered" unicode="&#xae;" horiz-adv-x="999" 
d="M48 259c0 255 184 434 452 434s452 -177 452 -434c0 -261 -184 -440 -452 -440s-452 179 -452 440zM850 259c0 201 -143 344 -350 344c-208 0 -350 -143 -350 -344c0 -207 142 -350 350 -350c207 0 350 143 350 350zM417 10h-107v502h233c108 0 182 -64 182 -154
c0 -71 -45 -125 -117 -143l111 -205h-122l-93 194h-87v-194zM615 357c0 51 -35 81 -94 81h-104v-166h107c53 0 91 33 91 85z" />
    <glyph glyph-name="macron" unicode="&#xaf;" horiz-adv-x="422" 
d="M380 692v-91h-338v91h338z" />
    <glyph glyph-name="degree" unicode="&#xb0;" horiz-adv-x="528" 
d="M264 333c-133 0 -222 84 -222 210s89 210 222 210s222 -84 222 -210s-89 -210 -222 -210zM264 657c-68 0 -114 -46 -114 -114s46 -114 114 -114s114 46 114 114s-46 114 -114 114z" />
    <glyph glyph-name="plusminus" unicode="&#xb1;" horiz-adv-x="554" 
d="M42 107h470v-107h-470v107zM340 192h-126v108h-172v108h172v104h126v-104h172v-108h-172v-108z" />
    <glyph glyph-name="acute" unicode="&#xb4;" horiz-adv-x="343" 
d="M293 753l-134 -160h-117l108 160h143z" />
    <glyph glyph-name="paragraph" unicode="&#xb6;" horiz-adv-x="797" 
d="M726 604h-96v-816h-132v816h-98v-816h-132v516c-137 0 -227 82 -226 204s91 204 226 204h458v-108z" />
    <glyph glyph-name="periodcentered" unicode="&#xb7;" horiz-adv-x="258" 
d="M129 216c-50 0 -87 35 -87 84s37 84 87 84c51 0 87 -35 87 -84s-36 -84 -87 -84z" />
    <glyph glyph-name="cedilla" unicode="&#xb8;" horiz-adv-x="317" 
d="M130 -120h-52l22 140h84l-15 -93c64 0 106 -39 106 -98s-49 -99 -122 -99c-53 0 -98 29 -111 72l54 29c8 -21 28 -35 49 -35c25 0 41 16 41 40c0 26 -23 44 -56 44z" />
    <glyph glyph-name="guillemotright" unicode="&#xbb;" horiz-adv-x="700" 
d="M388 260l-182 -260h-159l188 260l-188 252h159zM658 260l-182 -260h-159l188 260l-188 252h159z" />
    <glyph glyph-name="questiondown" unicode="&#xbf;" horiz-adv-x="637" 
d="M253 292h138c0 -105 -34 -156 -101 -201c-39 -28 -78 -54 -78 -102c0 -54 44 -94 102 -94c67 0 115 54 124 130l151 -28c-14 -136 -126 -233 -281 -233c-148 0 -260 89 -260 213c0 88 52 139 122 179c54 31 83 62 83 136zM411 432c0 -49 -36 -84 -87 -84s-87 35 -87 84
c0 50 36 85 87 85s87 -35 87 -85z" />
    <glyph glyph-name="Agrave" unicode="&#xc0;" horiz-adv-x="757" 
d="M501 712l238 -712h-176l-42 129h-286l-40 -129h-177l239 712h244zM379 568l-108 -318h216zM312 799l-132 135h148l112 -135h-128z" />
    <glyph glyph-name="Aacute" unicode="&#xc1;" horiz-adv-x="757" 
d="M501 712l238 -712h-176l-42 129h-286l-40 -129h-177l239 712h244zM379 568l-108 -318h216zM567 934l-132 -135h-128l111 135h149z" />
    <glyph glyph-name="Acircumflex" unicode="&#xc2;" horiz-adv-x="757" 
d="M501 712l238 -712h-176l-42 129h-286l-40 -129h-177l239 712h244zM379 568l-108 -318h216zM307 794h-110l109 140h148l109 -141l-109 1l-74 78z" />
    <glyph glyph-name="Atilde" unicode="&#xc3;" horiz-adv-x="757" 
d="M501 712l238 -712h-176l-42 129h-286l-40 -129h-177l239 712h244zM379 568l-108 -318h216zM253 828l-71 42c19 50 70 90 128 90c71 0 101 -55 143 -55c23 0 45 18 57 43l72 -42c-19 -50 -73 -90 -133 -90c-76 0 -102 54 -141 54c-22 0 -41 -17 -55 -42z" />
    <glyph glyph-name="Adieresis" unicode="&#xc4;" horiz-adv-x="757" 
d="M501 712l238 -712h-176l-42 129h-286l-40 -129h-177l239 712h244zM379 568l-108 -318h216zM256 795c-45 0 -78 32 -78 78c0 45 33 77 78 77c46 0 78 -32 78 -77c0 -46 -32 -78 -78 -78zM504 795c-45 0 -78 32 -78 78c0 45 33 77 78 77c46 0 79 -32 79 -77
c0 -46 -33 -78 -79 -78z" />
    <glyph glyph-name="Aring" unicode="&#xc5;" horiz-adv-x="757" 
d="M501 712l238 -712h-176l-42 129h-286l-40 -129h-177l239 712h244zM379 568l-108 -318h216zM378 759c-71 0 -121 45 -121 110s49 109 121 109c71 0 121 -45 121 -109c0 -65 -49 -110 -121 -110zM378 906c-22 0 -37 -15 -37 -37s15 -37 37 -37s38 15 38 37
c-1 22 -16 37 -38 37z" />
    <glyph glyph-name="AE" unicode="&#xc6;" horiz-adv-x="997" 
d="M949 135v-135h-452v118h-234l-59 -118h-186l357 712h564v-136h-291v-155h251v-119h-252v-167h302zM497 237v361l-178 -361h178z" />
    <glyph glyph-name="Ccedilla" unicode="&#xc7;" horiz-adv-x="830" 
d="M422 -120h-52l15 97c-198 20 -337 173 -337 379c0 221 160 381 380 381c180 0 328 -116 353 -277l-157 -18c-20 88 -100 151 -192 151c-127 0 -216 -98 -216 -237s90 -237 216 -237c90 0 171 62 193 146l157 -20c-22 -145 -151 -253 -313 -268l-8 -50
c63 0 106 -39 106 -98s-49 -99 -123 -99c-53 0 -98 29 -110 72l53 29c8 -21 29 -35 50 -35c24 0 41 16 41 40c0 26 -23 44 -56 44z" />
    <glyph glyph-name="Egrave" unicode="&#xc8;" horiz-adv-x="638" 
d="M243 135h348v-135h-510v712h500v-135h-338v-153h298v-118h-298v-171zM284 799l-132 135h148l111 -135h-127z" />
    <glyph glyph-name="Eacute" unicode="&#xc9;" horiz-adv-x="638" 
d="M243 135h348v-135h-510v712h500v-135h-338v-153h298v-118h-298v-171zM518 934l-132 -135h-127l111 135h148z" />
    <glyph glyph-name="Ecircumflex" unicode="&#xca;" horiz-adv-x="638" 
d="M243 135h348v-135h-510v712h500v-135h-338v-153h298v-118h-298v-171zM259 794h-110l108 140h149l108 -141l-109 1l-73 78z" />
    <glyph glyph-name="Edieresis" unicode="&#xcb;" horiz-adv-x="638" 
d="M243 135h348v-135h-510v712h500v-135h-338v-153h298v-118h-298v-171zM208 795c-46 0 -78 32 -78 78c0 45 32 77 78 77s78 -32 78 -77c0 -46 -32 -78 -78 -78zM456 795c-45 0 -78 32 -78 78c0 45 33 77 78 77c46 0 78 -32 78 -77c0 -46 -32 -78 -78 -78z" />
    <glyph glyph-name="Igrave" unicode="&#xcc;" horiz-adv-x="330" 
d="M249 712v-712h-168v712h168zM97 799l-132 135h148l111 -135h-127z" />
    <glyph glyph-name="Iacute" unicode="&#xcd;" horiz-adv-x="333" 
d="M249 712v-712h-168v712h168zM351 934l-132 -135h-127l111 135h148z" />
    <glyph glyph-name="Icircumflex" unicode="&#xce;" horiz-adv-x="330" 
d="M249 712v-712h-168v712h168zM92 782h-110l109 141h148l109 -141h-110l-73 79z" />
    <glyph glyph-name="Idieresis" unicode="&#xcf;" horiz-adv-x="326" 
d="M247 712v-712h-168v712h168zM39 795c-46 0 -78 32 -78 78c0 45 32 77 78 77s78 -32 78 -77c0 -46 -32 -78 -78 -78zM287 795c-45 0 -78 32 -78 78c0 45 33 77 78 77c46 0 79 -32 79 -77c0 -46 -33 -78 -79 -78z" />
    <glyph glyph-name="Ntilde" unicode="&#xd1;" horiz-adv-x="792" 
d="M269 712l283 -509v509h160v-712h-188l-284 508v-508h-159v712h188zM270 828l-71 42c19 50 70 90 128 90c71 0 101 -55 143 -55c23 0 45 18 57 43l72 -42c-20 -50 -73 -90 -133 -90c-76 0 -102 54 -141 54c-22 0 -41 -17 -55 -42z" />
    <glyph glyph-name="Ograve" unicode="&#xd2;" horiz-adv-x="884" 
d="M48 356c0 225 160 381 394 381c233 0 394 -156 394 -381c0 -226 -161 -381 -394 -381c-234 0 -394 155 -394 381zM216 356c0 -139 93 -236 226 -237c133 0 226 98 226 237s-93 237 -226 237s-226 -98 -226 -237zM380 799l-132 135h148l111 -135h-127z" />
    <glyph glyph-name="Oacute" unicode="&#xd3;" horiz-adv-x="884" 
d="M48 356c0 225 160 381 394 381c233 0 394 -156 394 -381c0 -226 -161 -381 -394 -381c-234 0 -394 155 -394 381zM216 356c0 -139 93 -236 226 -237c133 0 226 98 226 237s-93 237 -226 237s-226 -98 -226 -237zM623 934l-132 -135h-128l111 135h149z" />
    <glyph glyph-name="Ocircumflex" unicode="&#xd4;" horiz-adv-x="884" 
d="M48 356c0 225 160 381 394 381c233 0 394 -156 394 -381c0 -226 -161 -381 -394 -381c-234 0 -394 155 -394 381zM216 356c0 -139 93 -236 226 -237c133 0 226 98 226 237s-93 237 -226 237s-226 -98 -226 -237zM369 794h-110l108 140h149l108 -141l-109 1l-73 78z" />
    <glyph glyph-name="Otilde" unicode="&#xd5;" horiz-adv-x="884" 
d="M48 356c0 225 160 381 394 381c233 0 394 -156 394 -381c0 -226 -161 -381 -394 -381c-234 0 -394 155 -394 381zM216 356c0 -139 93 -236 226 -237c133 0 226 98 226 237s-93 237 -226 237s-226 -98 -226 -237zM315 828l-72 42c20 50 71 90 128 90c71 0 102 -55 143 -55
c24 0 45 18 58 43l72 -42c-20 -50 -73 -90 -134 -90c-75 0 -101 54 -141 54c-22 0 -40 -17 -54 -42z" />
    <glyph glyph-name="Odieresis" unicode="&#xd6;" horiz-adv-x="884" 
d="M48 356c0 225 160 381 394 381c233 0 394 -156 394 -381c0 -226 -161 -381 -394 -381c-234 0 -394 155 -394 381zM216 356c0 -139 93 -236 226 -237c133 0 226 98 226 237s-93 237 -226 237s-226 -98 -226 -237zM318 795c-46 0 -79 32 -79 78c0 45 33 77 79 77
s78 -32 78 -77c0 -46 -32 -78 -78 -78zM566 795c-45 0 -78 32 -78 78c0 45 33 77 78 77c46 0 78 -32 78 -77c0 -46 -32 -78 -78 -78z" />
    <glyph glyph-name="multiply" unicode="&#xd7;" horiz-adv-x="446" 
d="M129 112l-87 86l95 99l-95 99l87 86l94 -97l94 98l87 -87l-96 -99l95 -99l-86 -86l-94 98z" />
    <glyph glyph-name="Oslash" unicode="&#xd8;" horiz-adv-x="864" 
d="M568 714l75 146l106 1l-96 -188c100 -66 163 -180 163 -317c0 -221 -161 -381 -384 -381c-45 0 -88 7 -127 19l-68 -134h-106l88 173c-106 65 -171 182 -171 323c0 221 161 381 384 381c49 0 94 -8 136 -23zM216 356c0 -76 29 -140 77 -180l206 405c-20 8 -44 12 -67 12
c-125 0 -216 -100 -216 -237zM648 356c0 72 -27 133 -69 174l-205 -403c18 -6 38 -8 58 -8c125 0 216 99 216 237z" />
    <glyph glyph-name="Ugrave" unicode="&#xd9;" horiz-adv-x="785" 
d="M543 299v413h168v-417c0 -189 -130 -320 -318 -320c-189 0 -320 131 -320 320v417h169v-413c0 -92 55 -178 151 -180c90 0 150 75 150 180zM330 799l-132 135h149l111 -135h-128z" />
    <glyph glyph-name="Uacute" unicode="&#xda;" horiz-adv-x="785" 
d="M543 299v413h168v-417c0 -189 -130 -320 -318 -320c-189 0 -320 131 -320 320v417h169v-413c0 -92 55 -178 151 -180c90 0 150 75 150 180zM573 934l-132 -135h-127l111 135h148z" />
    <glyph glyph-name="Ucircumflex" unicode="&#xdb;" horiz-adv-x="785" 
d="M543 299v413h168v-417c0 -189 -130 -320 -318 -320c-189 0 -320 131 -320 320v417h169v-413c0 -92 55 -178 151 -180c90 0 150 75 150 180zM319 794h-109l108 140h149l108 -141l-109 1l-74 78z" />
    <glyph glyph-name="Udieresis" unicode="&#xdc;" horiz-adv-x="785" 
d="M543 299v413h168v-417c0 -189 -130 -320 -318 -320c-189 0 -320 131 -320 320v417h169v-413c0 -92 55 -178 151 -180c90 0 150 75 150 180zM268 795c-45 0 -78 32 -78 78c0 45 33 77 78 77c46 0 79 -32 79 -77c0 -46 -33 -78 -79 -78zM517 795c-46 0 -79 32 -79 78
c0 45 33 77 79 77s78 -32 78 -77c0 -46 -32 -78 -78 -78z" />
    <glyph glyph-name="Yacute" unicode="&#xdd;" horiz-adv-x="703" 
d="M269 248l-252 464h178l158 -316l151 316h181l-248 -464v-248h-168v248zM532 934l-132 -135h-127l111 135h148z" />
    <glyph glyph-name="germandbls" unicode="&#xdf;" horiz-adv-x="747" 
d="M239 479v-479h-168v480c0 149 118 253 291 253c159 0 268 -85 268 -207c0 -69 -41 -125 -101 -140c91 -17 161 -99 161 -203c0 -121 -97 -208 -227 -208c-53 0 -112 15 -159 36l32 107c29 -14 61 -23 88 -23c58 0 98 44 98 104c0 73 -44 125 -134 125h-45v102h47
c50 0 84 36 84 87c0 58 -48 99 -115 99c-72 0 -120 -52 -120 -133z" />
    <glyph glyph-name="agrave" unicode="&#xe0;" horiz-adv-x="676" 
d="M461 441v71h150v-512h-150v71c-40 -57 -101 -91 -174 -91c-144 0 -245 114 -245 276s101 276 245 276c73 0 134 -34 174 -91zM326 112c78 0 134 61 134 144s-56 144 -134 144s-134 -61 -134 -144s56 -144 134 -144zM147 755l142 1l108 -161h-117z" />
    <glyph glyph-name="aacute" unicode="&#xe1;" horiz-adv-x="676" 
d="M461 441v71h150v-512h-150v71c-40 -57 -101 -91 -174 -91c-144 0 -245 114 -245 276s101 276 245 276c73 0 134 -34 174 -91zM326 112c78 0 134 61 134 144s-56 144 -134 144s-134 -61 -134 -144s56 -144 134 -144zM371 755h142l-134 -160h-117z" />
    <glyph glyph-name="acircumflex" unicode="&#xe2;" horiz-adv-x="676" 
d="M461 441v71h150v-512h-150v71c-40 -57 -101 -91 -174 -91c-144 0 -245 114 -245 276s101 276 245 276c73 0 134 -34 174 -91zM326 112c78 0 134 61 134 144s-56 144 -134 144s-134 -61 -134 -144s56 -144 134 -144zM253 595h-110l109 161h148l110 -161h-110l-74 98z" />
    <glyph glyph-name="atilde" unicode="&#xe3;" horiz-adv-x="676" 
d="M461 441v71h150v-512h-150v71c-40 -57 -101 -91 -174 -91c-144 0 -245 114 -245 276s101 276 245 276c73 0 134 -34 174 -91zM326 112c78 0 134 61 134 144s-56 144 -134 144s-134 -61 -134 -144s56 -144 134 -144zM205 619l-71 36c19 51 72 90 129 90
c70 0 101 -54 144 -54c23 0 44 15 55 37l72 -37c-19 -50 -72 -90 -133 -90c-75 0 -102 54 -144 54c-22 0 -40 -15 -52 -36z" />
    <glyph glyph-name="adieresis" unicode="&#xe4;" horiz-adv-x="676" 
d="M461 441v71h150v-512h-150v71c-40 -57 -101 -91 -174 -91c-144 0 -245 114 -245 276s101 276 245 276c73 0 134 -34 174 -91zM326 112c78 0 134 61 134 144s-56 144 -134 144s-134 -61 -134 -144s56 -144 134 -144zM196 606c-46 0 -78 32 -78 76c0 43 32 75 78 75
s78 -32 78 -75c0 -44 -32 -76 -78 -76zM455 606c-45 0 -78 32 -78 76c0 43 33 75 78 75c46 0 79 -32 79 -75c0 -44 -33 -76 -79 -76z" />
    <glyph glyph-name="aring" unicode="&#xe5;" horiz-adv-x="676" 
d="M461 441v71h150v-512h-150v71c-40 -57 -101 -91 -174 -91c-144 0 -245 114 -245 276s101 276 245 276c73 0 134 -34 174 -91zM326 112c78 0 134 61 134 144s-56 144 -134 144s-134 -61 -134 -144s56 -144 134 -144zM331 579c-84 0 -142 53 -142 130c0 78 58 130 142 130
c85 0 142 -52 142 -130c0 -77 -57 -130 -142 -130zM331 767c-34 0 -58 -23 -58 -58c0 -34 24 -58 58 -58s58 24 58 58c0 35 -24 58 -58 58z" />
    <glyph glyph-name="ae" unicode="&#xe6;" horiz-adv-x="1058" 
d="M1016 262c0 -16 -1 -43 -3 -56h-401c15 -69 69 -111 139 -111c51 0 90 22 112 64l128 -30c-32 -87 -129 -149 -234 -149c-87 0 -163 42 -196 101v-81h-96v71c-41 -57 -104 -91 -179 -91c-144 0 -244 114 -244 276s100 276 244 276c75 0 138 -35 179 -91v71h96v-81
c34 61 101 101 192 101c153 0 263 -114 263 -270zM192 256c0 -91 57 -156 138 -156c79 0 138 62 138 156c0 92 -57 156 -138 156s-138 -64 -138 -156zM610 291h255c-4 69 -55 122 -129 122c-67 0 -116 -47 -126 -122z" />
    <glyph glyph-name="ccedilla" unicode="&#xe7;" horiz-adv-x="624" 
d="M312 -120h-52l16 103c-137 19 -234 128 -234 273c0 160 117 276 279 276c134 0 246 -85 262 -203l-140 -18c-13 55 -64 95 -121 95c-73 0 -130 -63 -130 -150s56 -150 130 -150c59 0 108 40 122 95l140 -18c-17 -106 -109 -185 -224 -200l-9 -56c64 0 106 -39 106 -98
s-49 -99 -123 -99c-53 0 -97 29 -110 72l53 29c9 -21 29 -35 50 -35c25 0 41 16 41 40c0 26 -23 44 -56 44z" />
    <glyph glyph-name="egrave" unicode="&#xe8;" horiz-adv-x="642" 
d="M328 95c54 0 100 29 118 68l131 -29c-27 -89 -132 -154 -253 -154c-165 0 -282 115 -282 280c0 160 117 272 282 272c164 0 276 -112 276 -274c0 -13 0 -34 -2 -45l-401 1c13 -72 63 -119 131 -119zM196 304h252c-9 65 -59 113 -127 113c-66 0 -112 -45 -125 -113z
M146 755l142 1l109 -161h-117z" />
    <glyph glyph-name="eacute" unicode="&#xe9;" horiz-adv-x="642" 
d="M328 95c54 0 100 29 118 68l131 -29c-27 -89 -132 -154 -253 -154c-165 0 -282 115 -282 280c0 160 117 272 282 272c164 0 276 -112 276 -274c0 -13 0 -34 -2 -45l-401 1c13 -72 63 -119 131 -119zM196 304h252c-9 65 -59 113 -127 113c-66 0 -112 -45 -125 -113z
M364 755h142l-133 -160h-117z" />
    <glyph glyph-name="ecircumflex" unicode="&#xea;" horiz-adv-x="642" 
d="M328 95c54 0 100 29 118 68l131 -29c-27 -89 -132 -154 -253 -154c-165 0 -282 115 -282 280c0 160 117 272 282 272c164 0 276 -112 276 -274c0 -13 0 -34 -2 -45l-401 1c13 -72 63 -119 131 -119zM196 304h252c-9 65 -59 113 -127 113c-66 0 -112 -45 -125 -113z
M252 595h-110l110 161h148l110 -161h-111l-73 98z" />
    <glyph glyph-name="edieresis" unicode="&#xeb;" horiz-adv-x="642" 
d="M328 95c54 0 100 29 118 68l131 -29c-27 -89 -132 -154 -253 -154c-165 0 -282 115 -282 280c0 160 117 272 282 272c164 0 276 -112 276 -274c0 -13 0 -34 -2 -45l-401 1c13 -72 63 -119 131 -119zM196 304h252c-9 65 -59 113 -127 113c-66 0 -112 -45 -125 -113z
M195 586c-45 0 -78 32 -78 76s33 75 78 75c46 0 79 -31 79 -75s-33 -76 -79 -76zM455 586c-46 0 -78 32 -78 76s32 75 78 75s78 -31 78 -75s-32 -76 -78 -76z" />
    <glyph glyph-name="igrave" unicode="&#xec;" horiz-adv-x="283" 
d="M219 512v-512h-150v512h150zM-41 755l142 1l109 -161h-117z" />
    <glyph glyph-name="iacute" unicode="&#xed;" horiz-adv-x="283" 
d="M217 512v-512h-150v512h150zM181 755h142l-133 -160h-117z" />
    <glyph glyph-name="icircumflex" unicode="&#xee;" horiz-adv-x="283" 
d="M216 512v-512h-150v512h150zM68 595h-110l109 161h148l110 -161h-111l-73 98z" />
    <glyph glyph-name="idieresis" unicode="&#xef;" horiz-adv-x="286" 
d="M218 512v-512h-150v512h150zM13 586c-45 0 -78 32 -78 76s33 75 78 75c46 0 79 -31 79 -75s-33 -76 -79 -76zM273 586c-46 0 -78 32 -78 76s32 75 78 75s78 -31 78 -75s-32 -76 -78 -76z" />
    <glyph glyph-name="ntilde" unicode="&#xf1;" 
d="M373 532c116 0 194 -89 194 -212v-320h-150v294c0 62 -36 106 -95 106s-107 -47 -107 -112v-288h-150v512h146v-69c36 55 96 89 162 89zM186 619l-71 36c19 51 72 90 129 90c70 0 101 -54 144 -54c23 0 44 15 55 37l72 -37c-19 -50 -72 -90 -133 -90
c-75 0 -102 54 -144 54c-22 0 -40 -15 -52 -36z" />
    <glyph glyph-name="ograve" unicode="&#xf2;" horiz-adv-x="652" 
d="M610 256c0 -163 -116 -276 -284 -276s-284 113 -284 276s116 276 284 276s284 -113 284 -276zM460 256c0 84 -55 144 -134 144s-134 -60 -134 -144s55 -144 134 -144s134 60 134 144zM142 755l142 1l108 -161h-117z" />
    <glyph glyph-name="oacute" unicode="&#xf3;" horiz-adv-x="652" 
d="M610 256c0 -163 -116 -276 -284 -276s-284 113 -284 276s116 276 284 276s284 -113 284 -276zM460 256c0 84 -55 144 -134 144s-134 -60 -134 -144s55 -144 134 -144s134 60 134 144zM366 755h142l-134 -160h-117z" />
    <glyph glyph-name="ocircumflex" unicode="&#xf4;" horiz-adv-x="652" 
d="M610 256c0 -163 -116 -276 -284 -276s-284 113 -284 276s116 276 284 276s284 -113 284 -276zM460 256c0 84 -55 144 -134 144s-134 -60 -134 -144s55 -144 134 -144s134 60 134 144zM253 595h-109l109 161h148l110 -161h-111l-73 98z" />
    <glyph glyph-name="otilde" unicode="&#xf5;" horiz-adv-x="652" 
d="M610 256c0 -163 -116 -276 -284 -276s-284 113 -284 276s116 276 284 276s284 -113 284 -276zM460 256c0 84 -55 144 -134 144s-134 -60 -134 -144s55 -144 134 -144s134 60 134 144zM206 619l-71 36c19 51 71 90 128 90c71 0 101 -54 144 -54c23 0 44 15 56 37l72 -37
c-20 -50 -73 -90 -134 -90c-75 0 -101 54 -143 54c-22 0 -41 -15 -52 -36z" />
    <glyph glyph-name="odieresis" unicode="&#xf6;" horiz-adv-x="652" 
d="M610 256c0 -163 -116 -276 -284 -276s-284 113 -284 276s116 276 284 276s284 -113 284 -276zM460 256c0 84 -55 144 -134 144s-134 -60 -134 -144s55 -144 134 -144s134 60 134 144zM196 586c-45 0 -78 32 -78 76s33 75 78 75c46 0 79 -31 79 -75s-33 -76 -79 -76z
M456 586c-45 0 -78 32 -78 76s33 75 78 75c46 0 78 -31 78 -75s-32 -76 -78 -76z" />
    <glyph glyph-name="divide" unicode="&#xf7;" horiz-adv-x="534" 
d="M267 20c-43 0 -75 30 -75 72s32 72 75 72c44 0 75 -30 75 -72s-31 -72 -75 -72zM42 358h450v-115h-450v115zM267 428c-43 0 -75 30 -75 72s32 72 75 72c44 0 75 -30 75 -72s-31 -72 -75 -72z" />
    <glyph glyph-name="oslash" unicode="&#xf8;" horiz-adv-x="664" 
d="M428 519l41 81h92l-59 -114c75 -48 120 -129 120 -230c0 -163 -118 -276 -290 -276c-30 0 -59 4 -85 10l-36 -70h-91l51 100c-80 46 -129 130 -129 236c0 163 118 276 290 276c34 0 67 -5 96 -13zM174 256c0 -54 20 -99 54 -128l148 290c-13 4 -30 6 -44 6
c-92 0 -158 -69 -158 -168zM490 256c0 49 -17 91 -45 121l-146 -286c11 -2 21 -3 33 -3c93 0 158 69 158 168z" />
    <glyph glyph-name="ugrave" unicode="&#xf9;" 
d="M248 -20c-115 0 -193 89 -193 212v320h150v-294c0 -62 36 -106 95 -106s107 47 107 112v288h150v-512h-146v69c-36 -55 -96 -89 -163 -89zM127 755h142l108 -161h-117z" />
    <glyph glyph-name="uacute" unicode="&#xfa;" 
d="M248 -20c-115 0 -193 89 -193 212v320h150v-294c0 -62 36 -106 95 -106s107 47 107 112v288h150v-512h-146v69c-36 -55 -96 -89 -163 -89zM351 755h142l-134 -161h-117z" />
    <glyph glyph-name="ucircumflex" unicode="&#xfb;" 
d="M248 -20c-115 0 -193 89 -193 212v320h150v-294c0 -62 36 -106 95 -106s107 47 107 112v288h150v-512h-146v69c-36 -55 -96 -89 -163 -89zM233 594l-110 1l109 160h148l110 -161h-111l-73 98z" />
    <glyph glyph-name="udieresis" unicode="&#xfc;" 
d="M248 -20c-115 0 -193 89 -193 212v320h150v-294c0 -62 36 -106 95 -106s107 47 107 112v288h150v-512h-146v69c-36 -55 -96 -89 -163 -89zM176 585c-46 0 -79 32 -79 76s33 75 79 75s78 -31 78 -75s-32 -76 -78 -76zM435 585c-45 0 -78 32 -78 76s33 75 78 75
c46 0 79 -31 79 -75s-33 -76 -79 -76z" />
    <glyph glyph-name="yacute" unicode="&#xfd;" horiz-adv-x="608" 
d="M87 -213v111c17 -6 43 -11 61 -11c64 0 89 46 112 108l-242 517h164l139 -330l114 330h156l-198 -530c-48 -131 -103 -213 -207 -213c-32 0 -71 7 -99 18zM355 755h142l-133 -160h-117z" />
    <glyph glyph-name="ydieresis" unicode="&#xff;" horiz-adv-x="608" 
d="M87 -213v111c17 -6 43 -11 61 -11c64 0 89 46 112 108l-242 517h164l139 -330l114 330h156l-198 -530c-48 -131 -103 -213 -207 -213c-32 0 -71 7 -99 18zM175 586c-46 0 -79 32 -79 76s33 75 79 75c45 0 78 -31 78 -75s-33 -76 -78 -76zM434 586c-45 0 -78 32 -78 76
s33 75 78 75c46 0 79 -31 79 -75s-33 -76 -79 -76z" />
    <glyph glyph-name="Amacron" unicode="&#x100;" horiz-adv-x="757" 
d="M501 712l238 -712h-176l-42 129h-286l-40 -129h-177l239 712h244zM379 568l-108 -318h216zM549 909v-90h-338v90h338z" />
    <glyph glyph-name="amacron" unicode="&#x101;" horiz-adv-x="676" 
d="M461 441v71h150v-512h-150v71c-40 -57 -101 -91 -174 -91c-144 0 -245 114 -245 276s101 276 245 276c73 0 134 -34 174 -91zM326 112c78 0 134 61 134 144s-56 144 -134 144s-134 -61 -134 -144s56 -144 134 -144zM486 711v-91h-338v91h338z" />
    <glyph glyph-name="Abreve" unicode="&#x102;" horiz-adv-x="757" 
d="M501 712l238 -712h-176l-42 129h-286l-40 -129h-177l239 712h244zM379 568l-108 -318h216zM441 934h95c0 -83 -64 -141 -156 -141c-91 0 -155 58 -155 141h94c0 -34 26 -57 61 -57c36 0 61 23 61 57z" />
    <glyph glyph-name="abreve" unicode="&#x103;" horiz-adv-x="676" 
d="M461 441v71h150v-512h-150v71c-40 -57 -101 -91 -174 -91c-144 0 -245 114 -245 276s101 276 245 276c73 0 134 -34 174 -91zM326 112c78 0 134 61 134 144s-56 144 -134 144s-134 -61 -134 -144s56 -144 134 -144zM366 744h95c1 -93 -52 -155 -150 -155
c-97 0 -150 62 -150 155h96c0 -42 22 -71 54 -71c33 0 55 29 55 71z" />
    <glyph glyph-name="Aogonek" unicode="&#x104;" horiz-adv-x="796" 
d="M638 0h-75l-42 129h-286l-40 -129h-177l239 712h244l238 -712h-4c-75 -23 -105 -56 -105 -96c0 -63 60 -104 148 -106v-77c-139 0 -234 68 -234 163c0 52 35 93 94 116zM379 568l-108 -318h216z" />
    <glyph glyph-name="aogonek" unicode="&#x105;" horiz-adv-x="714" 
d="M509 0h-48v71c-40 -57 -101 -91 -174 -91c-144 0 -245 114 -245 276s101 276 245 276c73 0 134 -34 174 -91v71h150v-512h-6c-74 -23 -104 -56 -104 -96c0 -63 60 -104 148 -106v-77c-139 0 -234 68 -234 163c0 52 35 93 94 116zM326 112c78 0 134 61 134 144
s-56 144 -134 144s-134 -61 -134 -144s56 -144 134 -144z" />
    <glyph glyph-name="Cacute" unicode="&#x106;" horiz-adv-x="830" 
d="M625 265l157 -20c-24 -157 -172 -270 -354 -270c-220 0 -380 160 -380 381s160 381 380 381c180 0 328 -116 353 -277l-157 -18c-20 88 -100 151 -192 151c-127 0 -216 -98 -216 -237s90 -237 216 -237c90 0 171 62 193 146zM603 934l-132 -135h-127l111 135h148z" />
    <glyph glyph-name="cacute" unicode="&#x107;" horiz-adv-x="624" 
d="M583 329l-140 -18c-13 55 -64 95 -121 95c-73 0 -130 -63 -130 -150s56 -150 130 -150c59 0 108 40 122 95l140 -18c-19 -118 -131 -203 -263 -203c-161 0 -279 116 -279 276s117 276 279 276c134 0 246 -85 262 -203zM362 755h142l-133 -160h-117z" />
    <glyph glyph-name="Ccircumflex" unicode="&#x108;" horiz-adv-x="830" 
d="M625 265l157 -20c-24 -157 -172 -270 -354 -270c-220 0 -380 160 -380 381s160 381 380 381c180 0 328 -116 353 -277l-157 -18c-20 88 -100 151 -192 151c-127 0 -216 -98 -216 -237s90 -237 216 -237c90 0 171 62 193 146zM354 794h-109l108 140h149l108 -141l-109 1
l-74 78z" />
    <glyph glyph-name="ccircumflex" unicode="&#x109;" horiz-adv-x="624" 
d="M583 329l-140 -18c-13 55 -64 95 -121 95c-73 0 -130 -63 -130 -150s56 -150 130 -150c59 0 108 40 122 95l140 -18c-19 -118 -131 -203 -263 -203c-161 0 -279 116 -279 276s117 276 279 276c134 0 246 -85 262 -203zM244 595h-110l109 161h148l111 -161h-111l-73 98z
" />
    <glyph glyph-name="Cdotaccent" unicode="&#x10a;" horiz-adv-x="830" 
d="M625 265l157 -20c-24 -157 -172 -270 -354 -270c-220 0 -380 160 -380 381s160 381 380 381c180 0 328 -116 353 -277l-157 -18c-20 88 -100 151 -192 151c-127 0 -216 -98 -216 -237s90 -237 216 -237c90 0 171 62 193 146zM417 799c-49 0 -83 32 -83 78s35 78 83 78
s82 -32 82 -78s-34 -78 -82 -78z" />
    <glyph glyph-name="cdotaccent" unicode="&#x10b;" horiz-adv-x="624" 
d="M583 329l-140 -18c-13 55 -64 95 -121 95c-73 0 -130 -63 -130 -150s56 -150 130 -150c59 0 108 40 122 95l140 -18c-19 -118 -131 -203 -263 -203c-161 0 -279 116 -279 276s117 276 279 276c134 0 246 -85 262 -203zM317 593c-48 0 -83 34 -83 81c0 46 35 80 83 80
s82 -34 82 -80c0 -47 -34 -81 -82 -81z" />
    <glyph glyph-name="Ccaron" unicode="&#x10c;" horiz-adv-x="830" 
d="M625 265l157 -20c-24 -157 -172 -270 -354 -270c-220 0 -380 160 -380 381s160 381 380 381c180 0 328 -116 353 -277l-157 -18c-20 88 -100 151 -192 151c-127 0 -216 -98 -216 -237s90 -237 216 -237c90 0 171 62 193 146zM501 943h112l-111 -150h-149l-111 150h112
l73 -87z" />
    <glyph glyph-name="ccaron" unicode="&#x10d;" horiz-adv-x="624" 
d="M583 329l-140 -18c-13 55 -64 95 -121 95c-73 0 -130 -63 -130 -150s56 -150 130 -150c59 0 108 40 122 95l140 -18c-19 -118 -131 -203 -263 -203c-161 0 -279 116 -279 276s117 276 279 276c134 0 246 -85 262 -203zM390 755l111 1l-110 -161h-148l-110 160h110l74 -97
z" />
    <glyph glyph-name="Dcaron" unicode="&#x10e;" horiz-adv-x="806" 
d="M81 0v712h267c246 0 410 -142 410 -356s-164 -356 -410 -356h-267zM591 356c0 138 -98 225 -243 225h-104v-450h104c145 0 243 87 243 225zM445 943h113l-112 -150h-149l-111 150h113l73 -87z" />
    <glyph glyph-name="dcaron" unicode="&#x10f;" horiz-adv-x="803" 
d="M454 450v292h150v-742h-148v62c-40 -51 -99 -82 -171 -82c-142 0 -243 114 -243 276s101 276 243 276c70 0 129 -30 169 -82zM192 256c0 -82 57 -141 134 -141c78 0 134 60 134 141s-56 141 -134 141s-134 -60 -134 -141zM722 599c-36 0 -60 28 -60 68c0 42 27 69 68 69
c46 0 78 -36 78 -89c0 -63 -34 -134 -81 -169l-58 23c31 25 53 66 53 98z" />
    <glyph glyph-name="Dcroat" unicode="&#x110;" horiz-adv-x="840" 
d="M115 442v270h268c246 0 410 -142 410 -356s-164 -356 -410 -356h-268v340h-97v102h97zM625 356c0 138 -97 225 -242 225h-104v-139h139v-102h-139v-209h104c145 0 242 87 242 225z" />
    <glyph glyph-name="dcroat" unicode="&#x111;" horiz-adv-x="700" 
d="M454 450v142h-166v83h166v67h150v-67h78v-83h-78v-592h-148v62c-40 -51 -99 -82 -171 -82c-142 0 -243 114 -243 276s101 276 243 276c70 0 129 -30 169 -82zM192 256c0 -82 57 -141 134 -141c78 0 134 60 134 141s-56 141 -134 141s-134 -60 -134 -141z" />
    <glyph glyph-name="Emacron" unicode="&#x112;" horiz-adv-x="638" 
d="M243 135h348v-135h-510v712h500v-135h-338v-153h298v-118h-298v-171zM501 909v-90h-338v90h338z" />
    <glyph glyph-name="emacron" unicode="&#x113;" horiz-adv-x="642" 
d="M328 95c54 0 100 29 118 68l131 -29c-27 -89 -132 -154 -253 -154c-165 0 -282 115 -282 280c0 160 117 272 282 272c164 0 276 -112 276 -274c0 -13 0 -34 -2 -45l-401 1c13 -72 63 -119 131 -119zM196 304h252c-9 65 -59 113 -127 113c-66 0 -112 -45 -125 -113z
M494 711v-91h-338v91h338z" />
    <glyph glyph-name="Ebreve" unicode="&#x114;" horiz-adv-x="638" 
d="M243 135h348v-135h-510v712h500v-135h-338v-153h298v-118h-298v-171zM393 934h94c0 -83 -63 -141 -155 -141s-156 58 -156 141h95c0 -34 26 -57 61 -57c36 0 61 23 61 57z" />
    <glyph glyph-name="ebreve" unicode="&#x115;" horiz-adv-x="642" 
d="M328 95c54 0 100 29 118 68l131 -29c-27 -89 -132 -154 -253 -154c-165 0 -282 115 -282 280c0 160 117 272 282 272c164 0 276 -112 276 -274c0 -13 0 -34 -2 -45l-401 1c13 -72 63 -119 131 -119zM196 304h252c-9 65 -59 113 -127 113c-66 0 -112 -45 -125 -113z
M380 744h95c0 -93 -52 -155 -150 -155c-97 0 -150 62 -150 155h95c0 -42 23 -71 55 -71s55 29 55 71z" />
    <glyph glyph-name="Edotaccent" unicode="&#x116;" horiz-adv-x="638" 
d="M243 135h348v-135h-510v712h500v-135h-338v-153h298v-118h-298v-171zM332 799c-49 0 -82 32 -83 78c1 46 35 78 83 78c49 0 83 -32 83 -78s-34 -78 -83 -78z" />
    <glyph glyph-name="edotaccent" unicode="&#x117;" horiz-adv-x="642" 
d="M328 95c54 0 100 29 118 68l131 -29c-27 -89 -132 -154 -253 -154c-165 0 -282 115 -282 280c0 160 117 272 282 272c164 0 276 -112 276 -274c0 -13 0 -34 -2 -45l-401 1c13 -72 63 -119 131 -119zM196 304h252c-9 65 -59 113 -127 113c-66 0 -112 -45 -125 -113z
M325 599c-48 0 -83 34 -83 81c0 46 35 80 83 80s83 -34 83 -80c0 -47 -35 -81 -83 -81z" />
    <glyph glyph-name="Eogonek" unicode="&#x118;" horiz-adv-x="638" 
d="M452 0h-371v712h500v-135h-338v-153h298v-118h-298v-171h348v-135h-43c-75 -23 -105 -56 -105 -96c0 -63 60 -104 148 -106v-77c-139 0 -234 67 -234 163c0 52 35 93 95 116z" />
    <glyph glyph-name="eogonek" unicode="&#x119;" horiz-adv-x="642" 
d="M303 -19c-154 9 -261 121 -261 279c0 160 117 272 282 272c164 0 276 -112 276 -274c0 -13 0 -34 -2 -45l-401 1c13 -72 63 -119 131 -119c54 0 100 29 118 68l131 -29c-18 -59 -71 -108 -139 -134h1c-76 -23 -108 -56 -108 -97c0 -63 60 -104 148 -106v-77
c-139 0 -234 68 -234 163c0 40 21 74 58 98zM196 304h252c-9 65 -59 113 -127 113c-66 0 -112 -45 -125 -113z" />
    <glyph glyph-name="Ecaron" unicode="&#x11a;" horiz-adv-x="638" 
d="M243 135h348v-135h-510v712h500v-135h-338v-153h298v-118h-298v-171zM407 943h113l-112 -150h-149l-111 150h113l73 -87z" />
    <glyph glyph-name="ecaron" unicode="&#x11b;" horiz-adv-x="642" 
d="M328 95c54 0 100 29 118 68l131 -29c-27 -89 -132 -154 -253 -154c-165 0 -282 115 -282 280c0 160 117 272 282 272c164 0 276 -112 276 -274c0 -13 0 -34 -2 -45l-401 1c13 -72 63 -119 131 -119zM196 304h252c-9 65 -59 113 -127 113c-66 0 -112 -45 -125 -113z
M398 755l111 1l-110 -161h-148l-109 160h109l74 -97z" />
    <glyph glyph-name="Gcircumflex" unicode="&#x11c;" horiz-adv-x="868" 
d="M656 294h-220v110h382c23 -249 -136 -429 -376 -429c-229 0 -394 160 -394 381s165 381 394 381c163 0 301 -93 336 -224l-154 -34c-23 66 -99 114 -183 114c-131 0 -225 -99 -225 -237c0 -137 96 -237 230 -237c113 0 204 76 210 175zM368 794h-109l108 140h149
l108 -141l-109 1l-74 78z" />
    <glyph glyph-name="gcircumflex" unicode="&#x11d;" horiz-adv-x="669" 
d="M66 -63l134 21c16 -52 67 -89 124 -89c76 0 130 52 130 141v61c-40 -49 -98 -78 -169 -78c-141 0 -243 108 -243 263c0 161 102 275 243 275c72 0 130 -30 170 -80v61h149v-506c0 -159 -112 -256 -274 -256c-133 0 -242 78 -264 187zM326 116c78 0 134 59 134 140
c0 83 -56 144 -134 144s-134 -61 -134 -144c0 -81 56 -140 134 -140zM250 595h-110l109 161h148l111 -161h-111l-73 98z" />
    <glyph glyph-name="Gbreve" unicode="&#x11e;" horiz-adv-x="868" 
d="M656 294h-220v110h382c23 -249 -136 -429 -376 -429c-229 0 -394 160 -394 381s165 381 394 381c163 0 301 -93 336 -224l-154 -34c-23 66 -99 114 -183 114c-131 0 -225 -99 -225 -237c0 -137 96 -237 230 -237c113 0 204 76 210 175zM503 934h94
c0 -83 -63 -141 -155 -141s-156 58 -156 141h95c0 -34 25 -57 61 -57s61 23 61 57z" />
    <glyph glyph-name="gbreve" unicode="&#x11f;" horiz-adv-x="669" 
d="M66 -63l134 21c16 -52 67 -89 124 -89c76 0 130 52 130 141v61c-40 -49 -98 -78 -169 -78c-141 0 -243 108 -243 263c0 161 102 275 243 275c72 0 130 -30 170 -80v61h149v-506c0 -159 -112 -256 -274 -256c-133 0 -242 78 -264 187zM326 116c78 0 134 59 134 140
c0 83 -56 144 -134 144s-134 -61 -134 -144c0 -81 56 -140 134 -140zM378 744h95c0 -93 -52 -155 -150 -155c-97 0 -150 62 -150 155h95c0 -42 23 -71 55 -71s55 29 55 71z" />
    <glyph glyph-name="Gdotaccent" unicode="&#x120;" horiz-adv-x="868" 
d="M656 294h-220v110h382c23 -249 -136 -429 -376 -429c-229 0 -394 160 -394 381s165 381 394 381c163 0 301 -93 336 -224l-154 -34c-23 66 -99 114 -183 114c-131 0 -225 -99 -225 -237c0 -137 96 -237 230 -237c113 0 204 76 210 175zM442 799c-49 0 -83 32 -83 78
c1 46 35 78 83 78c49 0 83 -32 83 -78c-1 -46 -34 -78 -83 -78z" />
    <glyph glyph-name="gdotaccent" unicode="&#x121;" horiz-adv-x="669" 
d="M66 -63l134 21c16 -52 67 -89 124 -89c76 0 130 52 130 141v61c-40 -49 -98 -78 -169 -78c-141 0 -243 108 -243 263c0 161 102 275 243 275c72 0 130 -30 170 -80v61h149v-506c0 -159 -112 -256 -274 -256c-133 0 -242 78 -264 187zM326 116c78 0 134 59 134 140
c0 83 -56 144 -134 144s-134 -61 -134 -144c0 -81 56 -140 134 -140zM323 599c-48 0 -83 34 -83 81c0 46 35 80 83 80s82 -34 82 -80c0 -47 -34 -81 -82 -81z" />
    <glyph glyph-name="Gcommaaccent" unicode="&#x122;" horiz-adv-x="868" 
d="M656 294h-220v110h382c23 -249 -136 -429 -376 -429c-229 0 -394 160 -394 381s165 381 394 381c163 0 301 -93 336 -224l-154 -34c-23 66 -99 114 -183 114c-131 0 -225 -99 -225 -237c0 -137 96 -237 230 -237c113 0 204 76 210 175zM436 -225c-36 0 -60 28 -60 68
c0 42 27 69 68 69c47 0 78 -36 78 -89c0 -63 -34 -134 -81 -169l-58 23c31 25 53 66 53 98z" />
    <glyph glyph-name="gcommaaccent" unicode="&#x123;" horiz-adv-x="669" 
d="M66 -63l134 21c16 -52 67 -89 124 -89c76 0 130 52 130 141v61c-40 -49 -98 -78 -169 -78c-141 0 -243 108 -243 263c0 161 102 275 243 275c72 0 130 -30 170 -80v61h149v-506c0 -159 -112 -256 -274 -256c-133 0 -242 78 -264 187zM326 116c78 0 134 59 134 140
c0 83 -56 144 -134 144s-134 -61 -134 -144c0 -81 56 -140 134 -140zM333 717c36 0 60 -29 60 -68c0 -42 -27 -70 -68 -70c-47 0 -78 36 -78 89c0 64 34 135 81 169l58 -22c-31 -26 -53 -66 -53 -98z" />
    <glyph glyph-name="Itilde" unicode="&#x128;" horiz-adv-x="333" 
d="M249 712v-712h-168v712h168zM38 828l-72 42c20 50 71 90 128 90c71 0 102 -55 143 -55c24 0 45 18 58 43l72 -42c-20 -50 -73 -90 -134 -90c-75 0 -101 54 -141 54c-22 0 -40 -17 -54 -42z" />
    <glyph glyph-name="itilde" unicode="&#x129;" horiz-adv-x="293" 
d="M213 512v-512h-150v512h150zM18 619l-72 36c20 51 72 90 129 90c70 0 101 -54 144 -54c23 0 44 15 55 37l73 -37c-20 -50 -73 -90 -134 -90c-75 0 -101 54 -143 54c-22 0 -41 -15 -52 -36z" />
    <glyph glyph-name="Imacron" unicode="&#x12a;" horiz-adv-x="321" 
d="M245 712v-712h-168v712h168zM330 909v-90h-338v90h338z" />
    <glyph glyph-name="imacron" unicode="&#x12b;" horiz-adv-x="286" 
d="M218 512v-512h-150v512h150zM312 711v-91h-338v91h338z" />
    <glyph glyph-name="Iogonek" unicode="&#x12e;" horiz-adv-x="340" 
d="M148 0h-67v712h168v-712h-4c-75 -23 -105 -56 -105 -96c0 -63 60 -104 148 -106v-77c-139 0 -234 67 -234 163c0 52 35 93 94 116z" />
    <glyph glyph-name="iogonek" unicode="&#x12f;" horiz-adv-x="300" 
d="M125 0h-50v512h150v-512h-3c-76 -23 -107 -56 -107 -96c0 -63 61 -104 148 -107v-77c-138 0 -234 68 -234 163c0 52 36 94 96 117zM63 665c0 49 36 84 87 84s87 -35 87 -84c0 -50 -36 -85 -87 -85s-87 35 -87 85z" />
    <glyph glyph-name="Idotaccent" unicode="&#x130;" horiz-adv-x="329" 
d="M249 712v-712h-168v712h168zM165 799c-49 0 -83 32 -83 78s35 78 83 78s82 -32 82 -78s-34 -78 -82 -78z" />
    <glyph glyph-name="dotlessi" unicode="&#x131;" horiz-adv-x="280" 
d="M215 512v-512h-150v512h150z" />
    <glyph glyph-name="IJ" unicode="&#x132;" horiz-adv-x="788" 
d="M249 712v-712h-168v712h168zM539 241v471h169v-488c0 -145 -102 -244 -241 -244c-47 0 -103 8 -142 20v129c30 -8 68 -14 96 -14c70 0 118 50 118 126z" />
    <glyph glyph-name="ij" unicode="&#x133;" horiz-adv-x="578" 
d="M227 512v-512h-150v512h150zM352 -33v545h150v-564c0 -108 -69 -180 -172 -180c-37 0 -81 6 -110 16v119c17 -5 41 -7 60 -7c43 0 72 29 72 71zM65 665c0 49 36 84 87 84s87 -35 87 -84c0 -50 -36 -85 -87 -85s-87 35 -87 85zM339 665c0 49 37 84 87 84
c51 0 87 -35 87 -84c0 -50 -36 -85 -87 -85c-50 0 -87 35 -87 85z" />
    <glyph glyph-name="Kcommaaccent" unicode="&#x136;" horiz-adv-x="707" 
d="M81 712h168v-290l237 290h203l-291 -342l297 -370h-204l-242 314v-314h-168v712zM357 -224c-37 0 -61 29 -61 69c0 41 27 69 68 69c47 0 79 -36 79 -89c0 -64 -34 -134 -82 -169l-57 22c30 26 53 67 53 98z" />
    <glyph glyph-name="kcommaaccent" unicode="&#x137;" horiz-adv-x="588" 
d="M65 742h150v-419l173 189h182l-222 -240l228 -272h-182l-179 220v-220h-150v742zM293 -219c-36 0 -60 28 -60 68c0 42 27 70 68 70c47 0 78 -36 78 -89c0 -64 -34 -135 -81 -169l-58 22c31 26 53 66 53 98z" />
    <glyph glyph-name="Lacute" unicode="&#x139;" horiz-adv-x="583" 
d="M547 0h-466v712h168v-568h298v-144zM354 934l-131 -135h-128l111 135h148z" />
    <glyph glyph-name="lacute" unicode="&#x13a;" horiz-adv-x="392" 
d="M215 742v-742h-150v742h150zM329 944l-132 -144h-125l109 144h148z" />
    <glyph glyph-name="Lcommaaccent" unicode="&#x13b;" horiz-adv-x="583" 
d="M547 0h-466v712h168v-568h298v-144zM305 -224c-36 0 -60 29 -60 69c0 41 26 69 67 69c47 0 79 -36 79 -89c0 -64 -34 -134 -82 -169l-57 22c30 26 53 67 53 98z" />
    <glyph glyph-name="lcommaaccent" unicode="&#x13c;" horiz-adv-x="286" 
d="M215 742v-742h-150v742h150zM130 -224c-36 0 -60 28 -60 68c0 42 27 70 68 70c47 0 78 -36 78 -90c0 -63 -34 -134 -81 -168l-58 22c31 25 53 66 53 98z" />
    <glyph glyph-name="Lcaron" unicode="&#x13d;" horiz-adv-x="586" 
d="M547 0h-466v712h168v-568h298v-144zM378 604c-36 0 -60 29 -60 68c0 42 27 70 68 70c46 0 78 -36 78 -89c0 -64 -34 -134 -82 -169l-57 22c31 26 53 66 53 98z" />
    <glyph glyph-name="lcaron" unicode="&#x13e;" horiz-adv-x="426" 
d="M215 742v-742h-150v742h150zM345 599c-36 0 -60 28 -60 68c0 42 27 69 68 69c46 0 78 -36 78 -89c0 -63 -34 -134 -82 -169l-57 23c31 25 53 66 53 98z" />
    <glyph glyph-name="Lslash" unicode="&#x141;" horiz-adv-x="520" 
d="M18 282l105 65v365h169v-261l245 151v-129l-245 -151v-178h298v-144h-467v218l-105 -65v129z" />
    <glyph glyph-name="lslash" unicode="&#x142;" horiz-adv-x="476" 
d="M313 368v-368h-150v272l-137 -88v129l137 88v341h150v-245l137 88v-129z" />
    <glyph glyph-name="Nacute" unicode="&#x143;" horiz-adv-x="792" 
d="M269 712l283 -509v509h160v-712h-188l-284 508v-508h-159v712h188zM584 934l-132 -135h-128l111 135h149z" />
    <glyph glyph-name="nacute" unicode="&#x144;" 
d="M373 532c116 0 194 -89 194 -212v-320h-150v294c0 62 -36 106 -95 106s-107 -47 -107 -112v-288h-150v512h146v-69c36 55 96 89 162 89zM380 755h142l-133 -160h-117z" />
    <glyph glyph-name="Ncommaaccent" unicode="&#x145;" horiz-adv-x="792" 
d="M269 712l283 -509v509h160v-712h-188l-284 508v-508h-159v712h188zM387 -225c-36 0 -60 29 -60 68c0 42 27 70 68 70c46 0 78 -36 78 -89c0 -64 -34 -134 -82 -169l-57 22c31 26 53 66 53 98z" />
    <glyph glyph-name="ncommaaccent" unicode="&#x146;" 
d="M373 532c116 0 194 -89 194 -212v-320h-150v294c0 62 -36 106 -95 106s-107 -47 -107 -112v-288h-150v512h146v-69c36 55 96 89 162 89zM307 -225c-36 0 -60 29 -60 68c0 42 26 70 67 70c47 0 79 -36 79 -89c0 -64 -34 -134 -82 -169l-57 22c30 26 53 66 53 98z" />
    <glyph glyph-name="Ncaron" unicode="&#x147;" horiz-adv-x="792" 
d="M269 712l283 -509v509h160v-712h-188l-284 508v-508h-159v712h188zM467 943h112l-111 -150h-149l-111 150h112l73 -87z" />
    <glyph glyph-name="ncaron" unicode="&#x148;" 
d="M373 532c116 0 194 -89 194 -212v-320h-150v294c0 62 -36 106 -95 106s-107 -47 -107 -112v-288h-150v512h146v-69c36 55 96 89 162 89zM408 755l111 1l-110 -161h-148l-109 160h110l73 -97z" />
    <glyph glyph-name="Omacron" unicode="&#x14c;" horiz-adv-x="884" 
d="M48 356c0 225 160 381 394 381c233 0 394 -156 394 -381c0 -226 -161 -381 -394 -381c-234 0 -394 155 -394 381zM216 356c0 -139 93 -236 226 -237c133 0 226 98 226 237s-93 237 -226 237s-226 -98 -226 -237zM611 909v-90h-338v90h338z" />
    <glyph glyph-name="omacron" unicode="&#x14d;" horiz-adv-x="652" 
d="M610 256c0 -163 -116 -276 -284 -276s-284 113 -284 276s116 276 284 276s284 -113 284 -276zM460 256c0 84 -55 144 -134 144s-134 -60 -134 -144s55 -144 134 -144s134 60 134 144zM495 711v-91h-338v91h338z" />
    <glyph glyph-name="Obreve" unicode="&#x14e;" horiz-adv-x="884" 
d="M48 356c0 225 160 381 394 381c233 0 394 -156 394 -381c0 -226 -161 -381 -394 -381c-234 0 -394 155 -394 381zM216 356c0 -139 93 -236 226 -237c133 0 226 98 226 237s-93 237 -226 237s-226 -98 -226 -237zM503 934h94c0 -83 -63 -141 -155 -141s-156 58 -156 141
h95c0 -34 25 -57 61 -57s61 23 61 57z" />
    <glyph glyph-name="obreve" unicode="&#x14f;" horiz-adv-x="652" 
d="M610 256c0 -163 -116 -276 -284 -276s-284 113 -284 276s116 276 284 276s284 -113 284 -276zM460 256c0 84 -55 144 -134 144s-134 -60 -134 -144s55 -144 134 -144s134 60 134 144zM381 744h95c1 -93 -52 -155 -150 -155c-97 0 -150 62 -150 155h95
c1 -42 23 -71 55 -71s55 29 55 71z" />
    <glyph glyph-name="Ohungarumlaut" unicode="&#x150;" horiz-adv-x="884" 
d="M48 356c0 225 160 381 394 381c233 0 394 -156 394 -381c0 -226 -161 -381 -394 -381c-234 0 -394 155 -394 381zM216 356c0 -139 93 -236 226 -237c133 0 226 98 226 237s-93 237 -226 237s-226 -98 -226 -237zM384 934h135l-119 -141h-110zM578 934h134l-131 -141h-108
z" />
    <glyph glyph-name="ohungarumlaut" unicode="&#x151;" horiz-adv-x="651" 
d="M610 256c0 -163 -116 -276 -285 -276c-168 0 -284 113 -284 276s116 276 284 276c169 0 285 -113 285 -276zM460 256c0 84 -56 144 -135 144c-78 0 -134 -60 -134 -144s56 -144 134 -144c79 0 135 60 135 144zM278 752h139l-124 -157h-108zM473 752h142l-140 -157h-111z
" />
    <glyph glyph-name="OE" unicode="&#x152;" horiz-adv-x="1059" 
d="M48 356c0 224 144 375 370 375c44 0 85 -6 122 -19h462v-135h-300v-156h260v-119h-260v-167h310v-135h-471c-36 -12 -83 -19 -123 -19c-226 0 -370 151 -370 375zM538 150v412c-25 15 -66 25 -104 25c-126 0 -218 -94 -218 -231c0 -136 90 -231 212 -231
c42 0 85 10 110 25z" />
    <glyph glyph-name="oe" unicode="&#x153;" horiz-adv-x="1062" 
d="M746 95c54 0 101 29 120 68l125 -34c-29 -86 -130 -149 -243 -149c-95 0 -166 36 -211 97c-44 -61 -116 -97 -211 -97c-168 0 -284 113 -284 276s116 276 284 276c94 0 166 -35 210 -95c44 59 116 95 212 95c160 0 272 -112 272 -274c0 -13 -1 -34 -2 -44h-402
c13 -72 63 -119 130 -119zM460 256c0 84 -55 144 -134 144s-134 -60 -134 -144s55 -144 134 -144s134 60 134 144zM616 304h251c-8 65 -59 114 -127 114c-66 0 -112 -46 -124 -114z" />
    <glyph glyph-name="Racute" unicode="&#x154;" horiz-adv-x="770" 
d="M81 0v712h345c165 0 280 -97 280 -237c0 -95 -63 -173 -156 -203l172 -272h-188l-140 249h-145v-249h-168zM399 585h-150v-217h150c79 0 139 43 139 107c0 70 -60 110 -139 110zM570 934l-132 -135h-127l111 135h148z" />
    <glyph glyph-name="racute" unicode="&#x155;" horiz-adv-x="445" 
d="M346 531c20 0 41 -5 61 -13v-133c-29 12 -62 19 -84 19c-65 0 -108 -55 -108 -132v-272h-150v512h144v-65c30 51 80 84 137 84zM281 755h142l-133 -160h-117z" />
    <glyph glyph-name="Rcommaaccent" unicode="&#x156;" horiz-adv-x="770" 
d="M81 0v712h345c165 0 280 -97 280 -237c0 -95 -63 -173 -156 -203l172 -272h-188l-140 249h-145v-249h-168zM399 585h-150v-217h150c79 0 139 43 139 107c0 70 -60 110 -139 110zM379 -225c-36 0 -60 29 -60 68c0 42 27 70 68 70c46 0 78 -36 78 -89
c0 -64 -34 -134 -81 -169l-58 22c31 26 53 66 53 98z" />
    <glyph glyph-name="rcommaaccent" unicode="&#x157;" horiz-adv-x="428" 
d="M346 531c20 0 41 -5 61 -13v-133c-29 12 -62 19 -84 19c-65 0 -108 -55 -108 -132v-272h-150v512h144v-65c30 51 80 84 137 84zM133 -225c-36 0 -60 29 -60 68c0 42 27 70 68 70c46 0 78 -36 78 -89c0 -64 -34 -134 -81 -169l-58 22c31 26 53 66 53 98z" />
    <glyph glyph-name="Rcaron" unicode="&#x158;" horiz-adv-x="770" 
d="M81 0v712h345c165 0 280 -97 280 -237c0 -95 -63 -173 -156 -203l172 -272h-188l-140 249h-145v-249h-168zM399 585h-150v-217h150c79 0 139 43 139 107c0 70 -60 110 -139 110zM448 943h112l-111 -150h-149l-111 150h112l73 -87z" />
    <glyph glyph-name="rcaron" unicode="&#x159;" horiz-adv-x="429" 
d="M346 531c20 0 41 -5 61 -13v-133c-29 12 -62 19 -84 19c-65 0 -108 -55 -108 -132v-272h-150v512h144v-65c30 51 80 84 137 84zM309 755l111 1l-110 -161h-148l-110 160h110l74 -97z" />
    <glyph glyph-name="Sacute" unicode="&#x15a;" horiz-adv-x="718" 
d="M364 -25c-181 0 -311 109 -311 259h151c0 -77 69 -132 165 -132c83 0 133 41 133 92c0 151 -442 24 -442 307c0 140 119 236 291 236c173 0 298 -104 298 -247h-146c1 70 -62 120 -148 120c-79 0 -132 -37 -132 -87c0 -145 443 -20 443 -305c0 -142 -121 -243 -302 -243z
M542 934l-132 -135h-127l111 135h148z" />
    <glyph glyph-name="sacute" unicode="&#x15b;" horiz-adv-x="564" 
d="M283 -22c-139 0 -238 81 -238 193h127c0 -51 48 -87 113 -87c55 0 95 26 95 61c-1 103 -330 1 -330 217c1 100 95 172 220 172c137 0 236 -74 237 -177h-132c-1 42 -45 71 -105 71c-47 0 -84 -24 -84 -57c-1 -98 337 -17 338 -210c0 -106 -99 -183 -241 -183zM319 755
h142l-133 -160h-117z" />
    <glyph glyph-name="Scircumflex" unicode="&#x15c;" horiz-adv-x="718" 
d="M364 -25c-181 0 -311 109 -311 259h151c0 -77 69 -132 165 -132c83 0 133 41 133 92c0 151 -442 24 -442 307c0 140 119 236 291 236c173 0 298 -104 298 -247h-146c1 70 -62 120 -148 120c-79 0 -132 -37 -132 -87c0 -145 443 -20 443 -305c0 -142 -121 -243 -302 -243z
M282 794h-109l108 140h149l108 -141l-109 1l-74 78z" />
    <glyph glyph-name="scircumflex" unicode="&#x15d;" horiz-adv-x="564" 
d="M283 -22c-139 0 -238 81 -238 193h127c0 -51 48 -87 113 -87c55 0 95 26 95 61c-1 103 -330 1 -330 217c1 100 95 172 220 172c137 0 236 -74 237 -177h-132c-1 42 -45 71 -105 71c-47 0 -84 -24 -84 -57c-1 -98 337 -17 338 -210c0 -106 -99 -183 -241 -183zM201 595
h-110l110 161h148l110 -161h-111l-73 98z" />
    <glyph glyph-name="Scedilla" unicode="&#x15e;" horiz-adv-x="718" 
d="M335 -120h-52l16 100c-146 23 -246 122 -246 254h151c0 -77 69 -132 165 -132c83 0 133 41 133 92c0 151 -442 24 -442 307c0 140 119 236 291 236c173 0 298 -104 298 -247h-146c1 70 -62 120 -148 120c-79 0 -132 -37 -132 -87c0 -145 443 -20 443 -305
c0 -137 -113 -236 -284 -243l-8 -48c64 0 106 -39 106 -98s-49 -99 -122 -99c-53 0 -98 29 -111 72l54 29c8 -21 28 -35 49 -35c25 0 41 16 41 40c0 26 -23 44 -56 44z" />
    <glyph glyph-name="scedilla" unicode="&#x15f;" horiz-adv-x="564" 
d="M279 -120h-52l16 100c-117 14 -198 90 -198 191h127c0 -51 48 -87 113 -87c55 0 95 26 95 61c-1 103 -330 1 -330 217c1 100 95 172 220 172c137 0 236 -74 237 -177h-132c-1 42 -45 71 -105 71c-47 0 -84 -24 -84 -57c-1 -98 337 -17 338 -210c0 -95 -79 -166 -197 -181
l-9 -53c64 0 106 -39 106 -98s-49 -99 -123 -99c-52 0 -97 29 -110 72l54 29c8 -21 28 -35 49 -35c25 0 41 16 41 40c0 26 -23 44 -56 44z" />
    <glyph glyph-name="Scaron" unicode="&#x160;" horiz-adv-x="718" 
d="M364 -25c-181 0 -311 109 -311 259h151c0 -77 69 -132 165 -132c83 0 133 41 133 92c0 151 -442 24 -442 307c0 140 119 236 291 236c173 0 298 -104 298 -247h-146c1 70 -62 120 -148 120c-79 0 -132 -37 -132 -87c0 -145 443 -20 443 -305c0 -142 -121 -243 -302 -243z
M425 943h113l-112 -150h-149l-111 150h113l73 -87z" />
    <glyph glyph-name="scaron" unicode="&#x161;" horiz-adv-x="564" 
d="M283 -22c-139 0 -238 81 -238 193h127c0 -51 48 -87 113 -87c55 0 95 26 95 61c-1 103 -330 1 -330 217c1 100 95 172 220 172c137 0 236 -74 237 -177h-132c-1 42 -45 71 -105 71c-47 0 -84 -24 -84 -57c-1 -98 337 -17 338 -210c0 -106 -99 -183 -241 -183zM338 755
l111 1l-110 -161h-148l-109 160h110l73 -97z" />
    <glyph glyph-name="Tcommaaccent" unicode="&#x162;" horiz-adv-x="629" 
d="M230 572h-214v140h596v-140h-214v-572h-168v572zM304 -225c-36 0 -61 29 -61 69c0 41 27 69 68 69c47 0 79 -36 79 -89c0 -64 -34 -134 -82 -169l-57 22c30 26 53 67 53 98z" />
    <glyph glyph-name="tcommaaccent" unicode="&#x163;" horiz-adv-x="417" 
d="M104 166v232h-72v114h79l17 129h126v-129h116v-114h-116v-217c0 -43 26 -72 68 -72c14 0 36 3 53 7l-1 -120c-30 -10 -70 -16 -102 -16c-102 0 -168 77 -168 186zM238 -225c-36 0 -60 29 -60 68c0 42 27 70 68 70c47 0 78 -36 78 -89c0 -64 -34 -134 -81 -169l-58 22
c31 26 53 66 53 98z" />
    <glyph glyph-name="Tcaron" unicode="&#x164;" horiz-adv-x="629" 
d="M230 572h-214v140h596v-140h-214v-572h-168v572zM388 943h112l-111 -150h-149l-111 150h112l73 -87z" />
    <glyph glyph-name="tcaron" unicode="&#x165;" horiz-adv-x="451" 
d="M104 166v232h-72v114h79l17 129h126v-129h116v-114h-116v-217c0 -43 26 -72 68 -72c14 0 36 3 53 7l-1 -120c-30 -10 -70 -16 -102 -16c-102 0 -168 77 -168 186zM347 684c-36 0 -60 29 -60 68c0 42 27 70 68 70c46 0 78 -36 78 -89c0 -64 -34 -134 -81 -169l-58 22
c31 26 53 66 53 98z" />
    <glyph glyph-name="Utilde" unicode="&#x168;" horiz-adv-x="785" 
d="M543 299v413h168v-417c0 -189 -130 -320 -318 -320c-189 0 -320 131 -320 320v417h169v-413c0 -92 55 -178 151 -180c90 0 150 75 150 180zM265 828l-71 42c19 50 71 90 128 90c71 0 102 -55 143 -55c24 0 45 18 58 43l71 -42c-19 -50 -72 -90 -133 -90
c-75 0 -102 54 -141 54c-22 0 -41 -17 -55 -42z" />
    <glyph glyph-name="utilde" unicode="&#x169;" 
d="M248 -20c-115 0 -193 89 -193 212v320h150v-294c0 -62 36 -106 95 -106s107 47 107 112v288h150v-512h-146v69c-36 -55 -96 -89 -163 -89zM185 618l-71 36c19 51 72 90 128 90c71 0 101 -54 145 -54c23 0 44 15 55 38l72 -37c-19 -51 -73 -90 -133 -90
c-75 0 -102 54 -144 54c-22 0 -40 -15 -52 -37z" />
    <glyph glyph-name="Umacron" unicode="&#x16a;" horiz-adv-x="785" 
d="M543 299v413h168v-417c0 -189 -130 -320 -318 -320c-189 0 -320 131 -320 320v417h169v-413c0 -92 55 -178 151 -180c90 0 150 75 150 180zM562 909v-90h-338v90h338z" />
    <glyph glyph-name="umacron" unicode="&#x16b;" 
d="M248 -20c-115 0 -193 89 -193 212v320h150v-294c0 -62 36 -106 95 -106s107 47 107 112v288h150v-512h-146v69c-36 -55 -96 -89 -163 -89zM475 710v-90h-339v90h339z" />
    <glyph glyph-name="Ubreve" unicode="&#x16c;" horiz-adv-x="785" 
d="M543 299v413h168v-417c0 -189 -130 -320 -318 -320c-189 0 -320 131 -320 320v417h169v-413c0 -92 55 -178 151 -180c90 0 150 75 150 180zM454 934h94c0 -83 -64 -141 -155 -141c-92 0 -156 58 -156 141h95c0 -34 25 -57 61 -57s61 23 61 57z" />
    <glyph glyph-name="ubreve" unicode="&#x16d;" 
d="M248 -20c-115 0 -193 89 -193 212v320h150v-294c0 -62 36 -106 95 -106s107 47 107 112v288h150v-512h-146v69c-36 -55 -96 -89 -163 -89zM360 744h96c0 -94 -53 -155 -150 -155c-98 0 -150 62 -151 155h96c0 -42 23 -72 55 -72s54 30 54 72z" />
    <glyph glyph-name="Uring" unicode="&#x16e;" horiz-adv-x="785" 
d="M543 299v413h168v-417c0 -189 -130 -320 -318 -320c-189 0 -320 131 -320 320v417h169v-413c0 -92 55 -178 151 -180c90 0 150 75 150 180zM393 772c-85 0 -142 53 -142 130c0 78 57 130 142 130c84 0 141 -52 141 -130c0 -77 -57 -130 -141 -130zM393 960
c-35 0 -59 -23 -58 -58c0 -34 23 -58 58 -58c34 0 58 24 58 58c0 35 -24 58 -58 58z" />
    <glyph glyph-name="uring" unicode="&#x16f;" 
d="M248 -20c-115 0 -193 89 -193 212v320h150v-294c0 -62 36 -106 95 -106s107 47 107 112v288h150v-512h-146v69c-36 -55 -96 -89 -163 -89zM306 561c-85 0 -143 54 -143 131s58 130 143 130c84 0 141 -53 141 -130s-57 -131 -141 -131zM306 750c-35 0 -59 -24 -58 -58
c0 -34 23 -58 58 -58c34 0 57 24 57 58s-23 58 -57 58z" />
    <glyph glyph-name="Uhungarumlaut" unicode="&#x170;" horiz-adv-x="785" 
d="M543 299v413h168v-417c0 -189 -130 -320 -318 -320c-189 0 -320 131 -320 320v417h169v-413c0 -92 55 -178 151 -180c90 0 150 75 150 180zM333 934h134l-119 -141h-109zM527 934h134l-131 -141h-109z" />
    <glyph glyph-name="uhungarumlaut" unicode="&#x171;" horiz-adv-x="597" 
d="M248 -20c-115 0 -193 89 -193 212v320h150v-294c0 -62 36 -106 95 -106s107 47 107 112v288h150v-512h-146v69c-36 -55 -96 -89 -163 -89zM243 751l139 1l-124 -158h-108zM438 751h142l-140 -157h-111z" />
    <glyph glyph-name="Uogonek" unicode="&#x172;" horiz-adv-x="785" 
d="M367 -24c-175 11 -294 139 -294 319v417h169v-413c0 -92 55 -178 151 -180c90 0 150 75 150 180v413h168v-417c0 -165 -99 -286 -250 -314c-41 -21 -59 -47 -59 -78c0 -63 61 -104 148 -106v-77c-139 0 -234 68 -234 163c0 37 18 69 51 93z" />
    <glyph glyph-name="uogonek" unicode="&#x173;" horiz-adv-x="659" 
d="M452 0h-41v69c-36 -55 -96 -89 -163 -89c-115 0 -193 89 -193 212v320h150v-294c0 -62 36 -106 95 -106s107 47 107 112v288h150v-512h-10c-71 -23 -101 -55 -101 -95c0 -63 61 -104 148 -106v-77c-138 0 -234 68 -234 163c0 51 34 92 92 115z" />
    <glyph glyph-name="Wcircumflex" unicode="&#x174;" horiz-adv-x="1181" 
d="M826 138l151 574h170l-193 -712h-242l-121 503l-121 -503h-243l-194 712h171l151 -574l144 574h186zM517 794h-110l109 140h148l109 -141l-110 1l-73 78z" />
    <glyph glyph-name="wcircumflex" unicode="&#x175;" horiz-adv-x="919" 
d="M183 0l-155 512h156l105 -362l100 362h140l107 -365l104 365h151l-156 -512h-190l-86 337l-86 -337h-190zM387 595h-110l109 161h148l110 -161h-111l-73 98z" />
    <glyph glyph-name="Ycircumflex" unicode="&#x176;" horiz-adv-x="703" 
d="M269 248l-252 464h178l158 -316l151 316h181l-248 -464v-248h-168v248zM278 794h-110l109 140h148l109 -141l-109 1l-74 78z" />
    <glyph glyph-name="ycircumflex" unicode="&#x177;" horiz-adv-x="608" 
d="M87 -213v111c17 -6 43 -11 61 -11c64 0 89 46 112 108l-242 517h164l139 -330l114 330h156l-198 -530c-48 -131 -103 -213 -207 -213c-32 0 -71 7 -99 18zM232 595h-110l109 161h148l110 -161h-111l-73 98z" />
    <glyph glyph-name="Ydieresis" unicode="&#x178;" horiz-adv-x="703" 
d="M269 248l-252 464h178l158 -316l151 316h181l-248 -464v-248h-168v248zM227 795c-45 0 -78 32 -78 78c0 45 33 77 78 77c46 0 79 -32 79 -77c0 -46 -33 -78 -79 -78zM475 795c-45 0 -78 32 -78 78c0 45 33 77 78 77c46 0 79 -32 79 -77c0 -46 -33 -78 -79 -78z" />
    <glyph glyph-name="Zacute" unicode="&#x179;" horiz-adv-x="670" 
d="M46 110l350 470h-340v132h558v-110l-344 -470h354v-132h-578v110zM521 934l-132 -135h-127l111 135h148z" />
    <glyph glyph-name="zacute" unicode="&#x17a;" horiz-adv-x="569" 
d="M307 389h-251v123h457v-98l-252 -291h262v-123h-477v98zM324 755h142l-133 -160h-117z" />
    <glyph glyph-name="Zdotaccent" unicode="&#x17b;" horiz-adv-x="670" 
d="M46 110l350 470h-340v132h558v-110l-344 -470h354v-132h-578v110zM335 799c-49 0 -82 32 -83 78c1 46 35 78 83 78c49 0 83 -32 83 -78s-34 -78 -83 -78z" />
    <glyph glyph-name="zdotaccent" unicode="&#x17c;" horiz-adv-x="569" 
d="M307 389h-251v123h457v-98l-252 -291h262v-123h-477v98zM285 602c-48 0 -83 33 -83 80s35 80 83 80s82 -33 82 -80s-34 -80 -82 -80z" />
    <glyph glyph-name="Zcaron" unicode="&#x17d;" horiz-adv-x="670" 
d="M46 110l350 470h-340v132h558v-110l-344 -470h354v-132h-578v110zM405 943h112l-112 -150h-148l-112 150h113l73 -87z" />
    <glyph glyph-name="zcaron" unicode="&#x17e;" horiz-adv-x="569" 
d="M307 389h-251v123h457v-98l-252 -291h262v-123h-477v98zM358 755l111 1l-111 -161h-148l-109 160h110l74 -97z" />
    <glyph glyph-name="Aacutering" unicode="&#x1fa;" horiz-adv-x="757" 
d="M501 712l238 -712h-176l-42 129h-286l-40 -129h-177l239 712h244zM379 568l-108 -318h216zM378 734c-71 0 -121 45 -121 110s49 109 121 109c71 0 121 -45 121 -109c0 -65 -49 -110 -121 -110zM378 881c-22 0 -37 -15 -37 -37s15 -37 37 -37s38 15 38 37
c-1 22 -16 37 -38 37zM545 1074l-109 -101h-125l97 101h137z" />
    <glyph glyph-name="aacutering" unicode="&#x1fb;" horiz-adv-x="676" 
d="M461 441v71h150v-512h-150v71c-40 -57 -101 -91 -174 -91c-144 0 -245 114 -245 276s101 276 245 276c73 0 134 -34 174 -91zM326 112c78 0 134 61 134 144s-56 144 -134 144s-134 -61 -134 -144s56 -144 134 -144zM331 565c-72 0 -122 45 -122 109c0 65 50 110 121 110
c72 0 122 -45 122 -110s-49 -109 -121 -109zM331 711c-22 0 -37 -15 -37 -37s15 -37 37 -37s37 15 37 38c0 21 -15 36 -37 36zM517 928l-110 -113h-123l98 113h135z" />
    <glyph glyph-name="AEacute" unicode="&#x1fc;" horiz-adv-x="997" 
d="M949 135v-135h-452v118h-234l-59 -118h-186l357 712h564v-136h-291v-155h251v-119h-252v-167h302zM497 237v361l-178 -361h178zM755 920l-132 -135h-127l111 135h148z" />
    <glyph glyph-name="aeacute" unicode="&#x1fd;" horiz-adv-x="1058" 
d="M1016 262c0 -16 -1 -43 -3 -56h-401c15 -69 69 -111 139 -111c51 0 90 22 112 64l128 -30c-32 -87 -129 -149 -234 -149c-87 0 -163 42 -196 101v-81h-96v71c-41 -57 -104 -91 -179 -91c-144 0 -244 114 -244 276s100 276 244 276c75 0 138 -35 179 -91v71h96v-81
c34 61 101 101 192 101c153 0 263 -114 263 -270zM192 256c0 -91 57 -156 138 -156c79 0 138 62 138 156c0 92 -57 156 -138 156s-138 -64 -138 -156zM610 291h255c-4 69 -55 122 -129 122c-67 0 -116 -47 -126 -122zM570 753h142l-133 -160h-117z" />
    <glyph glyph-name="Oslashacute" unicode="&#x1fe;" horiz-adv-x="864" 
d="M568 714l75 146l106 1l-96 -188c100 -66 163 -180 163 -317c0 -221 -161 -381 -384 -381c-45 0 -88 7 -127 19l-68 -134h-106l88 173c-106 65 -171 182 -171 323c0 221 161 381 384 381c49 0 94 -8 136 -23zM216 356c0 -76 29 -140 77 -180l206 405c-20 8 -44 12 -67 12
c-125 0 -216 -100 -216 -237zM648 356c0 72 -27 133 -69 174l-205 -403c18 -6 38 -8 58 -8c125 0 216 99 216 237zM609 924l-132 -135h-127l111 135h148z" />
    <glyph glyph-name="oslashacute" unicode="&#x1ff;" horiz-adv-x="664" 
d="M428 519l41 81h92l-59 -114c75 -48 120 -129 120 -230c0 -163 -118 -276 -290 -276c-30 0 -59 4 -85 10l-36 -70h-91l51 100c-80 46 -129 130 -129 236c0 163 118 276 290 276c34 0 67 -5 96 -13zM228 128l148 290c-13 4 -30 6 -44 6c-92 0 -158 -69 -158 -168
c0 -54 20 -99 54 -128zM490 256c0 49 -17 91 -45 121l-146 -286c11 -2 21 -3 33 -3c93 0 158 69 158 168zM515 744l-133 -149h-117l108 149h142z" />
    <glyph glyph-name="Scommaaccent" unicode="&#x218;" horiz-adv-x="718" 
d="M364 -25c-181 0 -311 109 -311 259h151c0 -77 69 -132 165 -132c83 0 133 41 133 92c0 151 -442 24 -442 307c0 140 119 236 291 236c173 0 298 -104 298 -247h-146c1 70 -62 120 -148 120c-79 0 -132 -37 -132 -87c0 -145 443 -20 443 -305c0 -142 -121 -243 -302 -243z
M345 -225c-36 0 -60 29 -60 68c0 42 27 70 68 70c46 0 78 -36 78 -89c0 -64 -34 -135 -82 -169l-57 22c31 26 53 66 53 98z" />
    <glyph glyph-name="scommaaccent" unicode="&#x219;" horiz-adv-x="564" 
d="M283 -22c-139 0 -238 81 -238 193h127c0 -51 48 -87 113 -87c55 0 95 26 95 61c-1 103 -330 1 -330 217c1 100 95 172 220 172c137 0 236 -74 237 -177h-132c-1 42 -45 71 -105 71c-47 0 -84 -24 -84 -57c-1 -98 337 -17 338 -210c0 -106 -99 -183 -241 -183zM267 -225
c-36 0 -60 29 -60 68c0 42 26 70 67 70c47 0 79 -36 79 -89c0 -64 -34 -134 -82 -169l-57 22c30 26 53 66 53 98z" />
    <glyph glyph-name="circumflex" unicode="&#x2c6;" horiz-adv-x="452" 
d="M42 593l109 161h148l110 -161h-110l-73 98l-74 -98h-110z" />
    <glyph glyph-name="caron" unicode="&#x2c7;" horiz-adv-x="452" 
d="M299 753l110 1l-110 -161h-148l-109 160h110l74 -97z" />
    <glyph glyph-name="breve" unicode="&#x2d8;" horiz-adv-x="384" 
d="M247 742h95c1 -93 -52 -155 -150 -155c-97 0 -150 62 -150 155h96c0 -42 22 -71 54 -71s55 29 55 71z" />
    <glyph glyph-name="dotaccent" unicode="&#x2d9;" horiz-adv-x="250" 
d="M125 560c-48 0 -83 34 -83 81c0 46 35 79 83 79s82 -33 82 -79c0 -47 -34 -81 -82 -81z" />
    <glyph glyph-name="ring" unicode="&#x2da;" horiz-adv-x="368" 
d="M184 542c-84 0 -142 53 -142 130c0 78 58 130 142 130c85 0 142 -52 142 -130c0 -77 -57 -130 -142 -130zM184 730c-34 0 -58 -23 -58 -58c0 -34 24 -58 58 -58s58 24 58 58c0 35 -24 58 -58 58z" />
    <glyph glyph-name="ogonek" unicode="&#x2db;" horiz-adv-x="318" 
d="M174 10l62 -10c-76 -23 -108 -56 -108 -97c0 -63 60 -104 148 -106v-77c-139 0 -234 68 -234 163c0 62 50 109 132 127z" />
    <glyph glyph-name="tilde" unicode="&#x2dc;" horiz-adv-x="484" 
d="M113 590l-71 36c19 51 72 90 129 90c70 0 101 -55 144 -55c23 0 44 16 55 38l72 -37c-19 -50 -72 -90 -133 -90c-75 0 -102 54 -144 54c-21 0 -40 -15 -52 -36z" />
    <glyph glyph-name="hungarumlaut" unicode="&#x2dd;" horiz-adv-x="514" 
d="M135 750h139l-124 -157h-108zM330 750h142l-140 -157h-111z" />
    <glyph glyph-name="Wgrave" unicode="&#x1e80;" horiz-adv-x="1181" 
d="M826 138l151 574h170l-193 -712h-242l-121 503l-121 -503h-243l-194 712h171l151 -574l144 574h186zM522 799l-132 135h148l112 -135h-128z" />
    <glyph glyph-name="wgrave" unicode="&#x1e81;" horiz-adv-x="919" 
d="M183 0l-155 512h156l105 -362l100 362h140l107 -365l104 365h151l-156 -512h-190l-86 337l-86 -337h-190zM275 755l142 1l108 -161h-117z" />
    <glyph glyph-name="Wacute" unicode="&#x1e82;" horiz-adv-x="1181" 
d="M826 138l151 574h170l-193 -712h-242l-121 503l-121 -503h-243l-194 712h171l151 -574l144 574h186zM777 934l-132 -135h-128l111 135h149z" />
    <glyph glyph-name="wacute" unicode="&#x1e83;" horiz-adv-x="919" 
d="M183 0l-155 512h156l105 -362l100 362h140l107 -365l104 365h151l-156 -512h-190l-86 337l-86 -337h-190zM499 755h142l-134 -160h-117z" />
    <glyph glyph-name="Wdieresis" unicode="&#x1e84;" horiz-adv-x="1181" 
d="M826 138l151 574h170l-193 -712h-242l-121 503l-121 -503h-243l-194 712h171l151 -574l144 574h186zM466 795c-45 0 -78 32 -78 78c0 45 33 77 78 77c46 0 79 -32 79 -77c0 -46 -33 -78 -79 -78zM715 795c-46 0 -79 32 -79 78c0 45 33 77 79 77s78 -32 78 -77
c0 -46 -32 -78 -78 -78z" />
    <glyph glyph-name="wdieresis" unicode="&#x1e85;" horiz-adv-x="919" 
d="M183 0l-155 512h156l105 -362l100 362h140l107 -365l104 365h151l-156 -512h-190l-86 337l-86 -337h-190zM330 586c-46 0 -79 32 -79 76s33 75 79 75c45 0 78 -31 78 -75s-33 -76 -78 -76zM589 586c-45 0 -78 32 -78 76s33 75 78 75c46 0 79 -31 79 -75s-33 -76 -79 -76z
" />
    <glyph glyph-name="Germandbls" unicode="&#x1e9e;" horiz-adv-x="747" 
d="M239 479v-479h-168v480c0 149 118 253 291 253c159 0 268 -85 268 -207c0 -69 -41 -125 -101 -140c91 -17 161 -99 161 -203c0 -121 -97 -208 -227 -208c-53 0 -112 15 -159 36l32 107c29 -14 61 -23 88 -23c58 0 98 44 98 104c0 73 -44 125 -134 125h-45v102h47
c50 0 84 36 84 87c0 58 -48 99 -115 99c-72 0 -120 -52 -120 -133z" />
    <glyph glyph-name="Ygrave" unicode="&#x1ef2;" horiz-adv-x="703" 
d="M269 248l-252 464h178l158 -316l151 316h181l-248 -464v-248h-168v248zM289 799l-132 135h148l111 -135h-127z" />
    <glyph glyph-name="ygrave" unicode="&#x1ef3;" horiz-adv-x="608" 
d="M87 -213v111c17 -6 43 -11 61 -11c64 0 89 46 112 108l-242 517h164l139 -330l114 330h156l-198 -530c-48 -131 -103 -213 -207 -213c-32 0 -71 7 -99 18zM126 755l142 1l108 -161h-117z" />
    <glyph glyph-name="endash" unicode="&#x2013;" horiz-adv-x="654" 
d="M612 372v-123h-570v123h570z" />
    <glyph glyph-name="emdash" unicode="&#x2014;" horiz-adv-x="823" 
d="M26 372h770v-123h-770v123z" />
    <glyph glyph-name="quoteleft" unicode="&#x2018;" horiz-adv-x="261" 
d="M218 510c0 -49 -36 -84 -84 -84c-55 0 -92 47 -92 118c0 74 40 155 96 196l73 -26c-41 -34 -71 -84 -71 -120c46 0 78 -34 78 -84z" />
    <glyph glyph-name="quoteright" unicode="&#x2019;" horiz-adv-x="261" 
d="M43 656c0 49 36 84 84 84c55 0 92 -47 92 -118c0 -74 -40 -156 -96 -196l-73 26c41 34 71 84 71 120c-46 0 -78 34 -78 84z" />
    <glyph glyph-name="quotesinglbase" unicode="&#x201a;" horiz-adv-x="261" 
d="M43 68c0 49 36 84 84 84c55 0 92 -47 92 -117c0 -74 -40 -156 -96 -197l-73 26c41 34 71 84 71 120c-46 0 -78 35 -78 84z" />
    <glyph glyph-name="quotedblleft" unicode="&#x201c;" horiz-adv-x="492" 
d="M221 510c0 -49 -37 -84 -85 -84c-55 0 -92 47 -92 118c0 74 40 155 96 196l73 -26c-41 -34 -71 -84 -71 -120c46 0 79 -34 79 -84zM447 510c0 -49 -37 -84 -84 -84c-56 0 -92 47 -92 118c0 74 39 155 95 196l74 -26c-42 -34 -71 -84 -71 -120c46 0 78 -34 78 -84z" />
    <glyph glyph-name="quotedblright" unicode="&#x201d;" horiz-adv-x="489" 
d="M45 661c0 49 36 84 84 84c55 0 92 -47 92 -117c0 -74 -40 -156 -95 -197l-74 26c42 34 71 84 71 120c-46 0 -78 35 -78 84zM271 661c0 49 37 84 84 84c56 0 92 -47 92 -117c0 -74 -40 -156 -95 -197l-74 26c42 34 71 84 71 120c-46 0 -78 35 -78 84z" />
    <glyph glyph-name="quotedblbase" unicode="&#x201e;" horiz-adv-x="489" 
d="M45 69c0 49 36 84 84 84c55 0 92 -47 92 -118c0 -74 -40 -156 -95 -196l-74 26c42 34 71 84 71 120c-46 0 -78 34 -78 84zM271 69c0 49 37 84 84 84c56 0 92 -47 92 -118c0 -74 -39 -156 -95 -196l-74 26c42 34 71 84 71 120c-45 0 -78 34 -78 84z" />
    <glyph glyph-name="bullet" unicode="&#x2022;" horiz-adv-x="306" 
d="M153 202c-65 0 -111 45 -111 108s46 108 111 108s111 -45 111 -108s-46 -108 -111 -108z" />
    <glyph glyph-name="ellipsis" unicode="&#x2026;" horiz-adv-x="717" 
d="M42 69c0 49 37 84 87 84c51 0 87 -35 87 -84c0 -50 -36 -85 -87 -85c-50 0 -87 35 -87 85zM272 69c0 49 36 84 87 84c50 0 87 -35 87 -84c0 -50 -37 -85 -87 -85c-51 0 -87 35 -87 85zM501 69c0 49 37 84 87 84c51 0 87 -35 87 -84c0 -50 -36 -85 -87 -85
c-50 0 -87 35 -87 85z" />
    <glyph glyph-name="perthousand" unicode="&#x2030;" horiz-adv-x="1540" 
d="M597 200c0 125 88 214 213 214c126 0 214 -89 214 -214c0 -126 -88 -214 -214 -214c-125 0 -213 88 -213 214zM899 200c0 52 -37 89 -89 89s-88 -37 -88 -89c0 -53 36 -89 88 -89s89 36 89 89zM1070 200c0 125 88 214 214 214c125 0 214 -89 214 -214
c0 -126 -89 -214 -214 -214c-126 0 -214 88 -214 214zM1372 200c0 52 -36 89 -89 89c-52 0 -88 -37 -88 -89c0 -53 36 -89 88 -89c53 0 89 36 89 89zM42 542c0 126 89 214 214 214c126 0 214 -88 214 -214c0 -125 -88 -214 -214 -214c-125 0 -214 89 -214 214zM344 542
c0 53 -35 89 -88 89s-89 -36 -89 -89c0 -52 36 -89 89 -89s88 37 88 89zM716 742h143l-509 -742h-143z" />
    <glyph glyph-name="guilsinglleft" unicode="&#x2039;" horiz-adv-x="401" 
d="M359 512l-188 -252l188 -260h-159l-182 260l182 252h159z" />
    <glyph glyph-name="guilsinglright" unicode="&#x203a;" horiz-adv-x="401" 
d="M383 260l-182 -260h-159l188 260l-188 252h159z" />
    <glyph glyph-name="lira" unicode="&#x20a4;" horiz-adv-x="653" 
d="M46 430h106v85c0 129 87 221 221 221c139 0 224 -89 238 -213l-136 -22c-8 64 -35 110 -88 110c-51 0 -79 -44 -79 -105v-76h222v-78h-222c0 -16 -1 -31 -2 -46h224v-78h-250c-20 -68 -57 -101 -99 -120h429v-108h-568v140c36 8 69 28 86 94h-82v72h105c1 12 1 33 1 46
h-106v78z" />
    <glyph glyph-name="Euro" unicode="&#x20ac;" horiz-adv-x="913" 
d="M707 265l158 -20c-24 -157 -173 -270 -355 -270c-183 0 -325 111 -367 277h-105v79h93c-1 8 -1 17 -1 25c0 9 0 19 1 28h-93v79h106c42 164 184 274 366 274c180 0 328 -116 354 -277l-158 -18c-19 88 -100 151 -192 151c-91 0 -162 -50 -195 -130h213v-79h-233v-53h232
v-79h-213c33 -82 105 -133 196 -133c90 0 171 62 193 146z" />
    <glyph glyph-name="trademark" unicode="&#x2122;" horiz-adv-x="1167" 
d="M152 150v454h-136v108h399v-108h-137v-454h-126zM973 528l-145 -378h-89l-145 378v-378h-119v562h155l153 -395l150 395h159v-562h-119v378z" />
    <glyph glyph-name="minus" unicode="&#x2212;" horiz-adv-x="494" 
d="M42 372h410v-123h-410v123z" />
    <glyph glyph-name="notequal" unicode="&#x2260;" horiz-adv-x="554" 
d="M512 377h-157l-47 -136h204v-119h-243l-56 -162h-102l57 162h-126v119h165l48 136h-213v119h253l50 146h100l-51 -146h118v-119z" />
    <glyph glyph-name="lessequal" unicode="&#x2264;" horiz-adv-x="454" 
d="M412 106v-106h-370v106h370zM42 402l370 120v-103l-272 -85l272 -85v-102l-370 119v136z" />
    <glyph glyph-name="greaterequal" unicode="&#x2265;" horiz-adv-x="454" 
d="M42 106h370v-106h-370v106zM42 249l272 85l-272 85v103l370 -120v-136l-370 -119v102z" />
    <glyph glyph-name="commaaccent" unicode="&#xf6c3;" horiz-adv-x="230" 
d="M102 -33c-36 0 -60 28 -60 68c0 42 27 70 68 70c47 0 78 -36 78 -89c0 -64 -34 -135 -81 -169l-58 22c31 25 53 66 53 98z" />
    <glyph glyph-name="IJacute" horiz-adv-x="791" 
d="M248 712v-712h-168v712h168zM539 241v471h168v-488c0 -145 -101 -244 -240 -244c-47 0 -104 8 -142 20v129c29 -8 68 -14 96 -14c70 0 118 50 118 126zM357 934l-132 -135h-128l112 135h148zM810 934l-132 -135h-127l111 135h148z" />
    <glyph glyph-name="acute.case" horiz-adv-x="343" 
d="M169 607h-127l111 135h148z" />
    <glyph glyph-name="breve.case" horiz-adv-x="395" 
d="M259 742h94c0 -83 -63 -141 -155 -141s-156 58 -156 141h95c0 -34 25 -57 61 -57s61 23 61 57z" />
    <glyph glyph-name="caron.case" horiz-adv-x="449" 
d="M298 742h109l-108 -141h-149l-108 141h110l73 -78z" />
    <glyph glyph-name="circumflex.case" horiz-adv-x="449" 
d="M42 590l108 141h149l108 -141h-109l-73 78l-73 -78h-110z" />
    <glyph glyph-name="dieresis.case" horiz-adv-x="489" 
d="M120 557c-45 0 -78 32 -78 78c0 45 33 77 78 77c46 0 79 -32 79 -77c0 -46 -33 -78 -79 -78zM369 557c-46 0 -79 32 -79 78c0 45 33 77 79 77s78 -32 78 -77c0 -46 -32 -78 -78 -78z" />
    <glyph glyph-name="dotaccent.case" horiz-adv-x="250" 
d="M125 566c-49 0 -83 32 -83 78c1 46 35 78 83 78c49 0 83 -32 82 -78c0 -46 -33 -78 -82 -78z" />
    <glyph glyph-name="grave.case" horiz-adv-x="343" 
d="M174 694l-132 135h148l111 -135h-127z" />
    <glyph glyph-name="hungarumlaut.case" horiz-adv-x="506" 
d="M136 742h134l-118 -141h-110zM330 742h134l-131 -141h-109z" />
    <glyph glyph-name="ijacute" horiz-adv-x="576" 
d="M70 512h150v-512h-150v512zM365 -34v546h150v-552c0 -108 -68 -180 -171 -180c-37 0 -81 6 -111 16v105c20 -5 41 -7 61 -7c43 0 71 29 71 72zM185 742h142l-133 -149h-117zM474 742h142l-133 -149h-117z" />
    <glyph glyph-name="ring.case" horiz-adv-x="327" 
d="M164 540c-72 0 -122 45 -122 110c0 64 49 109 121 109s121 -45 122 -110c0 -64 -50 -109 -121 -109zM164 687c-22 0 -38 -15 -38 -37s16 -38 38 -38s37 16 37 38c0 21 -15 37 -37 37z" />
    <glyph glyph-name="tilde.case" horiz-adv-x="484" 
d="M113 616l-71 41c19 51 71 90 128 90c71 0 102 -54 143 -54c24 0 45 17 58 43l71 -42c-19 -51 -72 -90 -133 -90c-75 0 -102 54 -141 54c-22 0 -41 -17 -55 -42z" />
    </font>
</defs>
</svg>
