<?xml version="1.0" standalone="no"?>
<!DOCTYPE svg PUBLIC "-//W3C//DTD SVG 1.1//EN" "http://www.w3.org/Graphics/SVG/1.1/DTD/svg11.dtd" >
<svg xmlns="http://www.w3.org/2000/svg" xmlns:xlink="http://www.w3.org/1999/xlink" version="1.1">
<metadata>
Created by FontForge 20190801 at Fri May 31 17:19:38 2019
 By Jimmy Wärting
Copyright 2019 The Inter project authors
</metadata>
<defs>
<font id="Inter-Medium" horiz-adv-x="0" >
  <font-face 
    font-family="Inter Medium"
    font-weight="500"
    font-stretch="normal"
    units-per-em="2816"
    panose-1="2 0 6 3 0 0 0 2 0 4"
    ascent="2252"
    descent="-564"
    x-height="1536"
    cap-height="2048"
    bbox="-2131 -764 4650 3072"
    underline-thickness="218"
    underline-position="-563"
    unicode-range="U+0020-1F16B"
  />
<missing-glyph horiz-adv-x="2852" 
d="M262 -640v512h2328v-512h-2328zM262 64v512h2328v-512h-2328zM262 768v512h2328v-512h-2328zM262 1472v512h2328v-512h-2328zM262 2176v512h2328v-512h-2328z" />
    <glyph glyph-name=".notdef" horiz-adv-x="2852" 
d="M262 -640v512h2328v-512h-2328zM262 64v512h2328v-512h-2328zM262 768v512h2328v-512h-2328zM262 1472v512h2328v-512h-2328zM262 2176v512h2328v-512h-2328z" />
    <glyph glyph-name=".null" 
 />
    <glyph glyph-name="uni0041" unicode="A" horiz-adv-x="1971" 
d="M398 0h-328l737 2048h357l737 -2048h-328l-187 542h-800zM676 802h620l-302 874h-16z" />
    <glyph glyph-name="uni00C4" unicode="&#xc4;" horiz-adv-x="1971" 
d="M398 0h-328l737 2048h357l737 -2048h-328l-187 542h-800zM676 802h620l-302 874h-16zM692 2289q-70 0 -123.5 52t-53.5 122q0 74 53.5 124.5t123.5 50.5q75 0 125.5 -50.5t50.5 -124.5q0 -70 -50.5 -122t-125.5 -52zM1280 2289q-70 0 -123.5 52t-53.5 122
q0 74 53.5 124.5t123.5 50.5q75 0 125.5 -50.5t50.5 -124.5q0 -70 -50.5 -122t-125.5 -52z" />
    <glyph glyph-name="uni00C3" unicode="&#xc3;" horiz-adv-x="1971" 
d="M398 0h-328l737 2048h357l737 -2048h-328l-187 542h-800zM676 802h620l-302 874h-16zM685 2252l-201 6q0 166 89.5 265t221.5 99q82 0 138.5 -33.5t108 -67.5t118.5 -34q58 0 94 44t37 109l197 -13q0 -167 -90 -262.5t-221 -96.5q-71 0 -117.5 20.5t-82.5 47.5t-74 47.5
t-91 20.5q-55 0 -91 -43.5t-36 -108.5z" />
    <glyph glyph-name="uni00C0" unicode="&#xc0;" horiz-adv-x="1971" 
d="M398 0h-328l737 2048h357l737 -2048h-328l-187 542h-800zM676 802h620l-302 874h-16zM869 2253l-309 461h315l233 -461h-239z" />
    <glyph glyph-name="uni00C1" unicode="&#xc1;" horiz-adv-x="1971" 
d="M398 0h-328l737 2048h357l737 -2048h-328l-187 542h-800zM676 802h620l-302 874h-16zM862 2253l234 461h315l-310 -461h-239z" />
    <glyph glyph-name="uni00C2" unicode="&#xc2;" horiz-adv-x="1971" 
d="M398 0h-328l737 2048h357l737 -2048h-328l-187 542h-800zM676 802h620l-302 874h-16zM780 2232l206 268l205 -268h271v15l-352 424h-249l-351 -424v-15h270z" />
    <glyph glyph-name="uni00C5" unicode="&#xc5;" horiz-adv-x="1971" 
d="M398 0h-328l737 2048h357l737 -2048h-328l-187 542h-800zM676 802h620l-302 874h-16zM986 2175q-91 0 -166 42t-119.5 113t-44.5 156q0 86 44.5 157t119.5 113t166 42t165.5 -42t119 -113t44.5 -157q0 -85 -44.5 -156t-119 -113t-165.5 -42zM986 2334q65 1 110.5 45
t45.5 107q0 64 -45.5 108.5t-110.5 43.5q-65 0 -111 -44t-46 -108q0 -63 46 -107.5t111 -44.5z" />
    <glyph glyph-name="uni0100" unicode="&#x100;" horiz-adv-x="1971" 
d="M398 0h-328l737 2048h357l737 -2048h-328l-187 542h-800zM676 802h620l-302 874h-16zM1460 2560v-210h-949v210h949z" />
    <glyph glyph-name="uni0102" unicode="&#x102;" horiz-adv-x="1971" 
d="M398 0h-328l737 2048h357l737 -2048h-328l-187 542h-800zM676 802h620l-302 874h-16zM1182 2568h246q0 -169 -119.5 -274.5t-322.5 -105.5q-202 0 -321 105.5t-119 274.5h245q0 -75 44.5 -132.5t150.5 -57.5q105 0 150.5 57t45.5 133z" />
    <glyph glyph-name="uni0104" unicode="&#x104;" horiz-adv-x="1971" 
d="M398 0h-328l737 2048h357l737 -2048h-328l-187 542h-800zM676 802h620l-302 874h-16zM1710 -591q-126 0 -209.5 68t-91.5 196q-7 115 65.5 228.5t248.5 192.5l178 -94q-91 -58 -158.5 -124.5t-67.5 -150.5q0 -46 23 -72t79 -26q41 0 73 11t52 21l26 -190
q-34 -21 -89 -40.5t-129 -19.5z" />
    <glyph glyph-name="uni01CD" unicode="&#x1cd;" horiz-adv-x="1971" 
d="M398 0h-328l737 2048h357l737 -2048h-328l-187 542h-800zM676 802h620l-302 874h-16zM780 2671l206 -268l205 268h271v-15l-352 -424h-249l-351 424v15h270z" />
    <glyph glyph-name="uni01DE" unicode="&#x1de;" horiz-adv-x="1971" 
d="M398 0h-328l737 2048h357l737 -2048h-328l-187 542h-800zM676 802h620l-302 874h-16zM692 2289q-70 0 -123.5 52t-53.5 122q0 74 53.5 124.5t123.5 50.5q75 0 125.5 -50.5t50.5 -124.5q0 -70 -50.5 -122t-125.5 -52zM1280 2289q-70 0 -123.5 52t-53.5 122
q0 74 53.5 124.5t123.5 50.5q75 0 125.5 -50.5t50.5 -124.5q0 -70 -50.5 -122t-125.5 -52zM1460 3072v-210h-949v210h949z" />
    <glyph glyph-name="uni01E0" unicode="&#x1e0;" horiz-adv-x="1971" 
d="M398 0h-328l737 2048h357l737 -2048h-328l-187 542h-800zM676 802h620l-302 874h-16zM986 2215.72q-78 0 -133.5 50.334q-55.5 50.333 -55.5 120.321q0 70.9473 55.5 121.281t133.5 50.334q77 0 133 -50.334t56 -121.281q0 -69.9883 -56 -120.321
q-56 -50.334 -133 -50.334zM1459 2918.21v-199.926h-949v199.926h949z" />
    <glyph glyph-name="uni01FA" unicode="&#x1fa;" horiz-adv-x="1971" 
d="M398 0h-328l737 2048h357l737 -2048h-328l-187 542h-800zM676 802h620l-302 874h-16zM986 2158q-98 0 -170 69t-72 166t72 166t170 69q101 0 171 -69t70 -166t-70 -166t-171 -69zM871 2702l224 262h306l-331 -262h-199zM986 2297q42 0 69.5 28.5t27.5 67.5q0 36 -27.5 64
t-69.5 28q-40 0 -68.5 -28t-28.5 -64q0 -39 28.5 -67.5t68.5 -28.5z" />
    <glyph glyph-name="uni0200" unicode="&#x200;" horiz-adv-x="1971" 
d="M398 0h-328l737 2048h357l737 -2048h-328l-187 542h-800zM676 802h620l-302 874h-16zM1170 2253l-266 371l201 90l209 -372zM724 2253l-337 371l175 90l290 -372z" />
    <glyph glyph-name="uni0202" unicode="&#x202;" horiz-adv-x="1971" 
d="M398 0h-328l737 2048h357l737 -2048h-328l-187 542h-800zM676 802h620l-302 874h-16zM545 2288q0 168 119 277t324 109q203 0 321 -109t119 -277h-246q0 77 -45 134.5t-149 57.5q-109 0 -153 -58.5t-44 -133.5h-246z" />
    <glyph glyph-name="uni0226" unicode="&#x226;" horiz-adv-x="1971" 
d="M398 0h-328l737 2048h357l737 -2048h-328l-187 542h-800zM676 802h620l-302 874h-16zM986 2285q-78 0 -133.5 52.5t-55.5 125.5q0 74 55.5 126.5t133.5 52.5q77 0 133 -52.5t56 -126.5q0 -73 -56 -125.5t-133 -52.5z" />
    <glyph glyph-name="uni1E00" unicode="&#x1e00;" horiz-adv-x="1971" 
d="M398 0h-328l737 2048h357l737 -2048h-328l-187 542h-800zM676 802h620l-302 874h-16zM712 -328q0 101 73 167t179 66q100 0 175 -66t75 -167q0 -105 -75 -169.5t-175 -64.5q-106 0 -179 65t-73 169zM848 -328q0 -49 33 -81.5t83 -32.5q44 0 78.5 32.5t34.5 81.5
q0 48 -34.5 80.5t-78.5 32.5q-50 0 -83 -32.5t-33 -80.5z" />
    <glyph glyph-name="uni1EA0" unicode="&#x1ea0;" horiz-adv-x="1971" 
d="M398 0h-328l737 2048h357l737 -2048h-328l-187 542h-800zM676 802h620l-302 874h-16zM985 -530q-78 0 -133.5 52.5t-55.5 125.5q0 74 55.5 126.5t133.5 52.5q77 0 133 -52.5t56 -126.5q0 -73 -56 -125.5t-133 -52.5z" />
    <glyph glyph-name="uni1EA2" unicode="&#x1ea2;" horiz-adv-x="1971" 
d="M398 0h-328l737 2048h357l737 -2048h-328l-187 542h-800zM676 802h620l-302 874h-16zM1108 2260h-236l-8 204q106 5 150 28.5t43 68.5q1 54 -60 77t-150 23l9 165q227 0 344.5 -72t116.5 -194q1 -98 -64.5 -145t-144.5 -59v-96z" />
    <glyph glyph-name="uni1EA4" unicode="&#x1ea4;" horiz-adv-x="1971" 
d="M398 0h-328l737 2048h357l737 -2048h-328l-187 542h-800zM676 802h620l-302 874h-16zM468 2232l406 347h223l407 -347h-294l-222 198l-224 -198h-296zM1397 2454l209 365h305l-295 -365h-219z" />
    <glyph glyph-name="uni1EA6" unicode="&#x1ea6;" horiz-adv-x="1971" 
d="M398 0h-328l737 2048h357l737 -2048h-328l-187 542h-800zM676 802h620l-302 874h-16zM1095 2574l408 -347h-295l-222 198l-223 -198h-294l403 347h223zM367 2816l206 -367h-215l-298 367h307z" />
    <glyph glyph-name="uni1EA8" unicode="&#x1ea8;" horiz-adv-x="1971" 
d="M398 0h-328l737 2048h357l737 -2048h-328l-187 542h-800zM676 802h620l-302 874h-16zM1116 2556l385 -347h-263l-256 227l-253 -227h-263l384 347h266zM1558 2396h-186l-6 172q84 6 124 23t40 58q0 47 -52 66t-131 19l9 142q188 0 285 -60.5t97 -164.5q0 -85 -56 -125.5
t-124 -49.5v-80z" />
    <glyph glyph-name="uni1EAA" unicode="&#x1eaa;" horiz-adv-x="1971" 
d="M398 0h-328l737 2048h357l737 -2048h-328l-187 542h-800zM676 802h620l-302 874h-16zM1085 2516l415 -327h-264l-253 198l-252 -198h-265l415 327h204zM1221 2864l124 -39q0 -81 -61 -148.5t-154 -67.5q-66 0 -110 23.5t-82.5 47t-91.5 23.5q-39 0 -70.5 -31t-31.5 -68
l-120 32q0 80 59.5 149t152.5 69q55 0 100 -22.5t89.5 -45t94.5 -22.5q38 0 69.5 31.5t31.5 68.5z" />
    <glyph glyph-name="uni1EAC" unicode="&#x1eac;" horiz-adv-x="1971" 
d="M398 0h-328l737 2048h357l737 -2048h-328l-187 542h-800zM676 802h620l-302 874h-16zM780 2232l206 268l205 -268h271v15l-352 424h-249l-351 -424v-15h270zM985 -530q-78 0 -133.5 52.5t-55.5 125.5q0 74 55.5 126.5t133.5 52.5q77 0 133 -52.5t56 -126.5
q0 -73 -56 -125.5t-133 -52.5z" />
    <glyph glyph-name="uni1EAE" unicode="&#x1eae;" horiz-adv-x="1971" 
d="M398 0h-328l737 2048h357l737 -2048h-328l-187 542h-800zM676 802h620l-302 874h-16zM1183 2522h241q0 -133 -120 -217.5t-326 -84.5t-325.5 84.5t-119.5 217.5h240q0 -61 46.5 -108.5t158.5 -47.5q110 0 157.5 47.5t47.5 108.5zM886 2543l158 266h247l-232 -266h-173z
" />
    <glyph glyph-name="uni1EB0" unicode="&#x1eb0;" horiz-adv-x="1971" 
d="M398 0h-328l737 2048h357l737 -2048h-328l-187 542h-800zM676 802h620l-302 874h-16zM1183 2523h241q0 -131 -119.5 -216t-326.5 -85q-206 0 -325.5 85t-119.5 216h240q0 -62 46.5 -109t158.5 -47q110 0 157.5 47t47.5 109zM916 2543l-232 266h247l157 -266h-172z" />
    <glyph glyph-name="uni1EB2" unicode="&#x1eb2;" horiz-adv-x="1971" 
d="M398 0h-328l737 2048h357l737 -2048h-328l-187 542h-800zM676 802h620l-302 874h-16zM1171 2536h236q1 -133 -116 -216.5t-320 -83.5q-200 0 -317.5 83.5t-117.5 216.5h235q1 -62 47 -107.5t153 -45.5q109 0 155 46t45 107zM1085 2570h-212l-11 164q100 3 145 18.5
t44 51.5q1 44 -58.5 59.5t-148.5 15.5l12 127q215 0 323.5 -54.5t108.5 -145.5q0 -76 -63 -111t-140 -44v-81z" />
    <glyph glyph-name="uni1EB4" unicode="&#x1eb4;" horiz-adv-x="1971" 
d="M398 0h-328l737 2048h357l737 -2048h-328l-187 542h-800zM676 802h620l-302 874h-16zM1176 2546h238q0 -135 -118 -221t-322 -86q-201 0 -320 86t-119 221h237q0 -61 46 -108t156 -47q109 0 155 46.5t47 108.5zM1240 2958l139 -42q0 -100 -65.5 -174t-166.5 -74
q-74 0 -121.5 24.5t-90 48.5t-102.5 24q-43 0 -73.5 -34t-30.5 -85l-140 34q0 99 65 177t167 78q60 0 109 -24t97.5 -48.5t107.5 -24.5q42 0 73.5 34.5t31.5 85.5z" />
    <glyph glyph-name="uni1EB6" unicode="&#x1eb6;" horiz-adv-x="1971" 
d="M398 0h-328l737 2048h357l737 -2048h-328l-187 542h-800zM676 802h620l-302 874h-16zM1182 2568h246q0 -169 -119.5 -274.5t-322.5 -105.5q-202 0 -321 105.5t-119 274.5h245q0 -75 44.5 -132.5t150.5 -57.5q105 0 150.5 57t45.5 133zM985 -530q-78 0 -133.5 52.5
t-55.5 125.5q0 74 55.5 126.5t133.5 52.5q77 0 133 -52.5t56 -126.5q0 -73 -56 -125.5t-133 -52.5z" />
    <glyph glyph-name="uni0391" unicode="&#x391;" horiz-adv-x="1971" 
d="M398 0h-328l737 2048h357l737 -2048h-328l-187 542h-800zM676 802h620l-302 874h-16z" />
    <glyph glyph-name="uni0386" unicode="&#x386;" horiz-adv-x="1971" 
d="M398 0h-328l737 2048h357l737 -2048h-328l-187 542h-800zM676 802h620l-302 874h-16zM284 1712l81 470h297l-185 -470h-193z" />
    <glyph glyph-name="uni1F08" unicode="&#x1f08;" horiz-adv-x="1971" 
d="M398 0h-328l737 2048h357l737 -2048h-328l-187 542h-800zM676 802h620l-302 874h-16zM584 2048v-118q0 -123 -64.5 -220.5t-180.5 -157.5l-112 98q112 106 112 288v110h245z" />
    <glyph glyph-name="uni1F09" unicode="&#x1f09;" horiz-adv-x="1971" 
d="M398 0h-328l737 2048h357l737 -2048h-328l-187 542h-800zM676 802h620l-302 874h-16zM257 1930v118h246v-110q1 -90 26.5 -160.5t84.5 -127.5l-112 -98q-112 60 -178.5 157.5t-66.5 220.5z" />
    <glyph glyph-name="uni1F0A" unicode="&#x1f0a;" horiz-adv-x="1971" 
d="M398 0h-328l737 2048h357l737 -2048h-328l-187 542h-800zM676 802h620l-302 874h-16zM58 2048v-112q1 -120 -66 -219t-189 -165l-109 84q55 63 84 136.5t29 171.5v104h251zM571 1604v-20h-129l-320 436v28h292z" />
    <glyph glyph-name="uni1F0B" unicode="&#x1f0b;" horiz-adv-x="1971" 
d="M398 0h-328l737 2048h357l737 -2048h-328l-187 542h-800zM676 802h620l-302 874h-16zM-211 1930v118h247v-110q0 -90 25.5 -160.5t86.5 -127.5l-112 -98q-115 60 -181 157.5t-66 220.5zM584 1607v-24h-130l-319 437v28h295z" />
    <glyph glyph-name="uni1F0C" unicode="&#x1f0c;" horiz-adv-x="1971" 
d="M398 0h-328l737 2048h357l737 -2048h-328l-187 542h-800zM676 802h620l-302 874h-16zM156 2048v-118q0 -123 -66.5 -220.5t-180.5 -157.5l-111 98q110 108 111 288v110h247zM183 1583v24l158 441h291v-28l-319 -437h-130z" />
    <glyph glyph-name="uni1F0D" unicode="&#x1f0d;" horiz-adv-x="1971" 
d="M398 0h-328l737 2048h357l737 -2048h-328l-187 542h-800zM676 802h620l-302 874h-16zM-248 1930v118h246v-110q0 -178 110 -288l-111 -98q-112 59 -178.5 156.5t-66.5 221.5zM169 1583v24l153 441h295v-28l-320 -437h-128z" />
    <glyph glyph-name="uni1F0E" unicode="&#x1f0e;" horiz-adv-x="1971" 
d="M398 0h-328l737 2048h357l737 -2048h-328l-187 542h-800zM676 802h620l-302 874h-16zM612 2378l138 -42q0 -99 -65 -173.5t-167 -74.5q-74 0 -121 24.5t-89 49t-103 24.5q-43 0 -73 -35t-30 -85l-138 37q0 99 63.5 177t165.5 78q62 0 110.5 -25t96.5 -50t106 -25
q44 0 75 34.5t31 85.5zM489 2019v-101q0 -86 -47.5 -171.5t-133.5 -138.5l-117 79q48 50 66.5 108t18.5 123v101h213z" />
    <glyph glyph-name="uni1F0F" unicode="&#x1f0f;" horiz-adv-x="1971" 
d="M398 0h-328l737 2048h357l737 -2048h-328l-187 542h-800zM676 802h620l-302 874h-16zM591 2378l138 -42q0 -99 -65 -173.5t-167 -74.5q-74 0 -121 24.5t-89 49t-103 24.5q-43 0 -73 -35t-30 -85l-138 37q0 99 63.5 177t165.5 78q62 0 110.5 -25t96.5 -50t106 -25
q44 0 75 34.5t31 85.5zM246 1918v101h213v-101q0 -65 18.5 -123t66.5 -108l-121 -79q-84 53 -130.5 138t-46.5 172z" />
    <glyph glyph-name="uni1FB8" unicode="&#x1fb8;" horiz-adv-x="1971" 
d="M398 0h-328l737 2048h357l737 -2048h-328l-187 542h-800zM676 802h620l-302 874h-16zM1182 2568h246q0 -169 -119.5 -274.5t-322.5 -105.5q-202 0 -321 105.5t-119 274.5h245q0 -75 44.5 -132.5t150.5 -57.5q105 0 150.5 57t45.5 133z" />
    <glyph glyph-name="uni1FB9" unicode="&#x1fb9;" horiz-adv-x="1971" 
d="M398 0h-328l737 2048h357l737 -2048h-328l-187 542h-800zM676 802h620l-302 874h-16zM1460 2560v-210h-949v210h949z" />
    <glyph glyph-name="uni1FBA" unicode="&#x1fba;" horiz-adv-x="1971" 
d="M398 0h-328l737 2048h357l737 -2048h-328l-187 542h-800zM676 802h620l-302 874h-16zM569 1580h-128l-319 440v28h291l156 -439v-29z" />
    <glyph glyph-name="uni023A" unicode="&#x23a;" horiz-adv-x="1971" 
d="M1621 2308l-269 -782l549 -1526h-328l-187 542h-374l-276 -802h-239l276 802h-187l-188 -542h-328l737 2048h357l66 -182l152 442h239zM863 802l216 627l-85 247h-16l-302 -874h187zM1199 1083l-97 -281h194z" />
    <glyph glyph-name="uni1FBB" unicode="&#x1fbb;" horiz-adv-x="1971" 
d="M398 0h-328l737 2048h357l737 -2048h-328l-187 542h-800zM676 802h620l-302 874h-16zM289 1728v29l154 439h321v-28l-319 -440h-156z" />
    <glyph glyph-name="uni0410" unicode="&#x410;" horiz-adv-x="1971" 
d="M398 0h-328l737 2048h357l737 -2048h-328l-187 542h-800zM676 802h620l-302 874h-16z" />
    <glyph glyph-name="uni04D0" unicode="&#x4d0;" horiz-adv-x="1971" 
d="M398 0h-328l737 2048h357l737 -2048h-328l-187 542h-800zM676 802h620l-302 874h-16zM1182 2568h246q0 -169 -119.5 -274.5t-322.5 -105.5q-202 0 -321 105.5t-119 274.5h245q0 -75 44.5 -132.5t150.5 -57.5q105 0 150.5 57t45.5 133z" />
    <glyph glyph-name="uni04D2" unicode="&#x4d2;" horiz-adv-x="1971" 
d="M398 0h-328l737 2048h357l737 -2048h-328l-187 542h-800zM676 802h620l-302 874h-16zM692 2289q-70 0 -123.5 52t-53.5 122q0 74 53.5 124.5t123.5 50.5q75 0 125.5 -50.5t50.5 -124.5q0 -70 -50.5 -122t-125.5 -52zM1280 2289q-70 0 -123.5 52t-53.5 122
q0 74 53.5 124.5t123.5 50.5q75 0 125.5 -50.5t50.5 -124.5q0 -70 -50.5 -122t-125.5 -52z" />
    <glyph glyph-name="uni1F88" unicode="&#x1f88;" horiz-adv-x="1971" 
d="M398 0h-328l737 2048h357l737 -2048h-328l-187 542h-800zM676 802h620l-302 874h-16zM1116 -680q-104 0 -172.5 60.5t-68.5 196.5v299h223v-296q0 -99 70 -99q17 0 34.5 2t26.5 2v-148q-19 -7 -46 -12t-67 -5zM584 2048v-118q0 -123 -64.5 -220.5t-180.5 -157.5l-112 98
q112 106 112 288v110h245z" />
    <glyph glyph-name="uni1F89" unicode="&#x1f89;" horiz-adv-x="1971" 
d="M398 0h-328l737 2048h357l737 -2048h-328l-187 542h-800zM676 802h620l-302 874h-16zM1116 -680q-104 0 -172.5 60.5t-68.5 196.5v299h223v-296q0 -99 70 -99q17 0 34.5 2t26.5 2v-148q-19 -7 -46 -12t-67 -5zM257 1930v118h246v-110q1 -90 26.5 -160.5t84.5 -127.5
l-112 -98q-112 60 -178.5 157.5t-66.5 220.5z" />
    <glyph glyph-name="uni1F8A" unicode="&#x1f8a;" horiz-adv-x="1971" 
d="M398 0h-328l737 2048h357l737 -2048h-328l-187 542h-800zM676 802h620l-302 874h-16zM1116 -680q-104 0 -172.5 60.5t-68.5 196.5v299h223v-296q0 -99 70 -99q17 0 34.5 2t26.5 2v-148q-19 -7 -46 -12t-67 -5zM58 2048v-112q1 -120 -66 -219t-189 -165l-109 84
q55 63 84 136.5t29 171.5v104h251zM571 1604v-20h-129l-320 436v28h292z" />
    <glyph glyph-name="uni1F8B" unicode="&#x1f8b;" horiz-adv-x="1971" 
d="M398 0h-328l737 2048h357l737 -2048h-328l-187 542h-800zM676 802h620l-302 874h-16zM1116 -680q-104 0 -172.5 60.5t-68.5 196.5v299h223v-296q0 -99 70 -99q17 0 34.5 2t26.5 2v-148q-19 -7 -46 -12t-67 -5zM-211 1930v118h247v-110q0 -90 25.5 -160.5t86.5 -127.5
l-112 -98q-115 60 -181 157.5t-66 220.5zM584 1607v-24h-130l-319 437v28h295z" />
    <glyph glyph-name="uni1F8C" unicode="&#x1f8c;" horiz-adv-x="1971" 
d="M398 0h-328l737 2048h357l737 -2048h-328l-187 542h-800zM676 802h620l-302 874h-16zM156 2048v-118q0 -123 -66.5 -220.5t-180.5 -157.5l-111 98q110 108 111 288v110h247zM183 1583v24l158 441h291v-28l-319 -437h-130zM1116 -680q-104 0 -172.5 60.5t-68.5 196.5v299
h223v-296q0 -99 70 -99q17 0 34.5 2t26.5 2v-148q-19 -7 -46 -12t-67 -5z" />
    <glyph glyph-name="uni1F8D" unicode="&#x1f8d;" horiz-adv-x="1971" 
d="M398 0h-328l737 2048h357l737 -2048h-328l-187 542h-800zM676 802h620l-302 874h-16zM1116 -680q-104 0 -172.5 60.5t-68.5 196.5v299h223v-296q0 -99 70 -99q17 0 34.5 2t26.5 2v-148q-19 -7 -46 -12t-67 -5zM-248 1930v118h246v-110q0 -178 110 -288l-111 -98
q-112 59 -178.5 156.5t-66.5 221.5zM169 1583v24l153 441h295v-28l-320 -437h-128z" />
    <glyph glyph-name="uni1F8E" unicode="&#x1f8e;" horiz-adv-x="1971" 
d="M398 0h-328l737 2048h357l737 -2048h-328l-187 542h-800zM676 802h620l-302 874h-16zM612 2378l138 -42q0 -99 -65 -173.5t-167 -74.5q-74 0 -121 24.5t-89 49t-103 24.5q-43 0 -73 -35t-30 -85l-138 37q0 99 63.5 177t165.5 78q62 0 110.5 -25t96.5 -50t106 -25
q44 0 75 34.5t31 85.5zM489 2019v-101q0 -86 -47.5 -171.5t-133.5 -138.5l-117 79q48 50 66.5 108t18.5 123v101h213zM1116 -680q-104 0 -172.5 60.5t-68.5 196.5v299h223v-296q0 -99 70 -99q17 0 34.5 2t26.5 2v-148q-19 -7 -46 -12t-67 -5z" />
    <glyph glyph-name="uni1F8F" unicode="&#x1f8f;" horiz-adv-x="1971" 
d="M398 0h-328l737 2048h357l737 -2048h-328l-187 542h-800zM676 802h620l-302 874h-16zM1116 -680q-104 0 -172.5 60.5t-68.5 196.5v299h223v-296q0 -99 70 -99q17 0 34.5 2t26.5 2v-148q-19 -7 -46 -12t-67 -5zM591 2378l138 -42q0 -99 -65 -173.5t-167 -74.5
q-74 0 -121 24.5t-89 49t-103 24.5q-43 0 -73 -35t-30 -85l-138 37q0 99 63.5 177t165.5 78q62 0 110.5 -25t96.5 -50t106 -25q44 0 75 34.5t31 85.5zM246 1918v101h213v-101q0 -65 18.5 -123t66.5 -108l-121 -79q-84 53 -130.5 138t-46.5 172z" />
    <glyph glyph-name="uni1FBC" unicode="&#x1fbc;" horiz-adv-x="1971" 
d="M398 0h-328l737 2048h357l737 -2048h-328l-187 542h-800zM676 802h620l-302 874h-16zM1116 -680q-104 0 -172.5 60.5t-68.5 196.5v299h223v-296q0 -99 70 -99q17 0 34.5 2t26.5 2v-148q-19 -7 -46 -12t-67 -5z" />
    <glyph glyph-name="uni039B" unicode="&#x39b;" horiz-adv-x="1971" 
d="M398 0h-328l737 2048h357l737 -2048h-328l-579 1676h-16z" />
    <glyph glyph-name="uni00C6" unicode="&#xc6;" horiz-adv-x="2826" 
d="M70 0l954 2048h1613v-266h-975v-624h908v-265h-908v-627h987v-266h-1296v542h-698l-245 -542h-340zM773 802h580v957h-147z" />
    <glyph glyph-name="uni01E2" unicode="&#x1e2;" horiz-adv-x="2826" 
d="M70 0l954 2048h1613v-266h-975v-624h908v-265h-908v-627h987v-266h-1296v542h-698l-245 -542h-340zM773 802h580v957h-147zM2303 2560v-210h-949v210h949z" />
    <glyph glyph-name="uni01FC" unicode="&#x1fc;" horiz-adv-x="2826" 
d="M70 0l954 2048h1613v-266h-975v-624h908v-265h-908v-627h987v-266h-1296v542h-698l-245 -542h-340zM773 802h580v957h-147zM1705 2253l234 461h315l-310 -461h-239z" />
    <glyph glyph-name="uni04D4" unicode="&#x4d4;" horiz-adv-x="2826" 
d="M70 0l954 2048h1613v-266h-975v-624h908v-265h-908v-627h987v-266h-1296v542h-698l-245 -542h-340zM773 802h580v957h-147z" />
    <glyph glyph-name="uni0042" unicode="B" horiz-adv-x="1842" 
d="M225 0v2048h750q218 0 361.5 -71.5t214 -193t70.5 -273.5q0 -192 -102 -294t-243 -138v-20q102 -5 199.5 -65.5t161.5 -171.5t64 -270q0 -157 -73.5 -281.5t-226.5 -197t-391 -72.5h-785zM534 265h446q223 0 318.5 86t95.5 215q0 146 -108.5 250.5t-294.5 104.5h-457
v-656zM534 1162h414q156 0 263 88t107 236q0 128 -89 213.5t-273 85.5h-422v-623z" />
    <glyph glyph-name="uni1E02" unicode="&#x1e02;" horiz-adv-x="1842" 
d="M225 0v2048h750q218 0 361.5 -71.5t214 -193t70.5 -273.5q0 -192 -102 -294t-243 -138v-20q102 -5 199.5 -65.5t161.5 -171.5t64 -270q0 -157 -73.5 -281.5t-226.5 -197t-391 -72.5h-785zM534 265h446q223 0 318.5 86t95.5 215q0 146 -108.5 250.5t-294.5 104.5h-457
v-656zM534 1162h414q156 0 263 88t107 236q0 128 -89 213.5t-273 85.5h-422v-623zM884 2285q-78 0 -133.5 52.5t-55.5 125.5q0 74 55.5 126.5t133.5 52.5q77 0 133 -52.5t56 -126.5q0 -73 -56 -125.5t-133 -52.5z" />
    <glyph glyph-name="uni1E04" unicode="&#x1e04;" horiz-adv-x="1842" 
d="M225 0v2048h750q218 0 361.5 -71.5t214 -193t70.5 -273.5q0 -192 -102 -294t-243 -138v-20q102 -5 199.5 -65.5t161.5 -171.5t64 -270q0 -157 -73.5 -281.5t-226.5 -197t-391 -72.5h-785zM534 265h446q223 0 318.5 86t95.5 215q0 146 -108.5 250.5t-294.5 104.5h-457
v-656zM534 1162h414q156 0 263 88t107 236q0 128 -89 213.5t-273 85.5h-422v-623zM893 -530q-78 0 -133.5 52.5t-55.5 125.5q0 74 55.5 126.5t133.5 52.5q77 0 133 -52.5t56 -126.5q0 -73 -56 -125.5t-133 -52.5z" />
    <glyph glyph-name="uni1E06" unicode="&#x1e06;" horiz-adv-x="1842" 
d="M225 0v2048h750q218 0 361.5 -71.5t214 -193t70.5 -273.5q0 -192 -102 -294t-243 -138v-20q102 -5 199.5 -65.5t161.5 -171.5t64 -270q0 -157 -73.5 -281.5t-226.5 -197t-391 -72.5h-785zM534 265h446q223 0 318.5 86t95.5 215q0 146 -108.5 250.5t-294.5 104.5h-457
v-656zM534 1162h414q156 0 263 88t107 236q0 128 -89 213.5t-273 85.5h-422v-623zM1367 -253v-210h-949v210h949z" />
    <glyph glyph-name="uni0243" unicode="&#x243;" horiz-adv-x="2005" 
d="M388 0v2048h750q218 0 361.5 -71.5t214 -193t70.5 -273.5q0 -192 -102 -294t-243 -138v-20q102 -5 199.5 -65.5t161.5 -171.5t64 -270q0 -157 -73.5 -281.5t-226.5 -197t-391 -72.5h-785zM697 265h446q223 0 318.5 86t95.5 215q0 146 -108.5 250.5t-294.5 104.5h-457
v-656zM697 1162h414q156 0 263 88t107 236q0 128 -89 213.5t-273 85.5h-422v-623zM79 489v207h919v-207h-919z" />
    <glyph glyph-name="uni0181" unicode="&#x181;" horiz-adv-x="2320" 
d="M703 0v1783h-109q-81 0 -121 -36t-53 -93.5t-13 -120.5v-91h-283v158q0 193 122 320.5t345 127.5h862q218 0 361.5 -71.5t214 -193t70.5 -273.5q0 -192 -102 -294t-243 -138v-20q102 -5 199.5 -65.5t161.5 -171.5t64 -270q0 -157 -73.5 -281.5t-226.5 -197t-391 -72.5
h-785zM1012 265h446q223 0 318.5 86t95.5 215q0 146 -108.5 250.5t-294.5 104.5h-457v-656zM1012 1162h414q156 0 263 88t107 236q0 128 -89 213.5t-273 85.5h-422v-623z" />
    <glyph glyph-name="uni0412" unicode="&#x412;" horiz-adv-x="1842" 
d="M225 0v2048h750q218 0 361.5 -71.5t214 -193t70.5 -273.5q0 -192 -102 -294t-243 -138v-20q102 -5 199.5 -65.5t161.5 -171.5t64 -270q0 -157 -73.5 -281.5t-226.5 -197t-391 -72.5h-785zM534 265h446q223 0 318.5 86t95.5 215q0 146 -108.5 250.5t-294.5 104.5h-457
v-656zM534 1162h414q156 0 263 88t107 236q0 128 -89 213.5t-273 85.5h-422v-623z" />
    <glyph glyph-name="uni0392" unicode="&#x392;" horiz-adv-x="1842" 
d="M225 0v2048h750q218 0 361.5 -71.5t214 -193t70.5 -273.5q0 -192 -102 -294t-243 -138v-20q102 -5 199.5 -65.5t161.5 -171.5t64 -270q0 -157 -73.5 -281.5t-226.5 -197t-391 -72.5h-785zM534 265h446q223 0 318.5 86t95.5 215q0 146 -108.5 250.5t-294.5 104.5h-457
v-656zM534 1162h414q156 0 263 88t107 236q0 128 -89 213.5t-273 85.5h-422v-623z" />
    <glyph glyph-name="uni0043" unicode="C" horiz-adv-x="2071" 
d="M1926 1382h-312q-38 199 -186.5 305.5t-344.5 106.5q-176 0 -316 -89t-220.5 -260.5t-80.5 -420.5q0 -250 81 -422t220.5 -260t314.5 -88q194 0 343 105t189 301l312 -1q-33 -202 -148 -357t-294 -242.5t-404 -87.5q-266 0 -474 126.5t-327.5 362.5t-119.5 563
q0 328 120 563.5t328 362t473 126.5q217 0 395.5 -82t297 -237.5t153.5 -374.5z" />
    <glyph glyph-name="uni0187" unicode="&#x187;" horiz-adv-x="2234" 
d="M1926 1382h-312q-38 199 -186.5 305.5t-344.5 106.5q-176 0 -316 -89t-220.5 -260.5t-80.5 -420.5q0 -250 81 -422t220.5 -260t314.5 -88q194 0 343 105t189 301l312 -1q-33 -202 -148 -357t-294 -242.5t-404 -87.5q-266 0 -474 126.5t-327.5 362.5t-119.5 563
q0 328 120 563.5t328 362t473 126.5q365 0 602 -220q59 113 170.5 172t247.5 59q41 0 81.5 -1.5t76.5 -10.5v-248q-18 2 -43 4.5t-48 2.5q-96 0 -168.5 -47.5t-72.5 -176.5v-228z" />
    <glyph glyph-name="uni00C7" unicode="&#xc7;" horiz-adv-x="2071" 
d="M1926 1382h-312q-38 199 -186.5 305.5t-344.5 106.5q-176 0 -316 -89t-220.5 -260.5t-80.5 -420.5q0 -250 81 -422t220.5 -260t314.5 -88q194 0 343 105t189 301l312 -1q-33 -202 -148 -357t-294 -242.5t-404 -87.5q-266 0 -474 126.5t-327.5 362.5t-119.5 563
q0 328 120 563.5t328 362t473 126.5q217 0 395.5 -82t297 -237.5t153.5 -374.5zM975 -3h196l-16 -82q86 -13 151.5 -69.5t65.5 -169.5q1 -136 -116.5 -219.5t-339.5 -83.5l-6 167q104 0 168.5 30t65.5 97t-49.5 94.5t-160.5 37.5z" />
    <glyph glyph-name="uni0106" unicode="&#x106;" horiz-adv-x="2071" 
d="M1926 1382h-312q-38 199 -186.5 305.5t-344.5 106.5q-176 0 -316 -89t-220.5 -260.5t-80.5 -420.5q0 -250 81 -422t220.5 -260t314.5 -88q194 0 343 105t189 301l312 -1q-33 -202 -148 -357t-294 -242.5t-404 -87.5q-266 0 -474 126.5t-327.5 362.5t-119.5 563
q0 328 120 563.5t328 362t473 126.5q217 0 395.5 -82t297 -237.5t153.5 -374.5zM957 2253l234 461h315l-310 -461h-239z" />
    <glyph glyph-name="uni0108" unicode="&#x108;" horiz-adv-x="2071" 
d="M1926 1382h-312q-38 199 -186.5 305.5t-344.5 106.5q-176 0 -316 -89t-220.5 -260.5t-80.5 -420.5q0 -250 81 -422t220.5 -260t314.5 -88q194 0 343 105t189 301l312 -1q-33 -202 -148 -357t-294 -242.5t-404 -87.5q-266 0 -474 126.5t-327.5 362.5t-119.5 563
q0 328 120 563.5t328 362t473 126.5q217 0 395.5 -82t297 -237.5t153.5 -374.5zM874 2232l206 268l205 -268h271v15l-352 424h-249l-351 -424v-15h270z" />
    <glyph glyph-name="uni010A" unicode="&#x10a;" horiz-adv-x="2071" 
d="M1926 1382h-312q-38 199 -186.5 305.5t-344.5 106.5q-176 0 -316 -89t-220.5 -260.5t-80.5 -420.5q0 -250 81 -422t220.5 -260t314.5 -88q194 0 343 105t189 301l312 -1q-33 -202 -148 -357t-294 -242.5t-404 -87.5q-266 0 -474 126.5t-327.5 362.5t-119.5 563
q0 328 120 563.5t328 362t473 126.5q217 0 395.5 -82t297 -237.5t153.5 -374.5zM1080 2285q-78 0 -133.5 52.5t-55.5 125.5q0 74 55.5 126.5t133.5 52.5q77 0 133 -52.5t56 -126.5q0 -73 -56 -125.5t-133 -52.5z" />
    <glyph glyph-name="uni010C" unicode="&#x10c;" horiz-adv-x="2071" 
d="M1926 1382h-312q-38 199 -186.5 305.5t-344.5 106.5q-176 0 -316 -89t-220.5 -260.5t-80.5 -420.5q0 -250 81 -422t220.5 -260t314.5 -88q194 0 343 105t189 301l312 -1q-33 -202 -148 -357t-294 -242.5t-404 -87.5q-266 0 -474 126.5t-327.5 362.5t-119.5 563
q0 328 120 563.5t328 362t473 126.5q217 0 395.5 -82t297 -237.5t153.5 -374.5zM874 2671l206 -268l205 268h271v-15l-352 -424h-249l-351 424v15h270z" />
    <glyph glyph-name="uni1E08" unicode="&#x1e08;" horiz-adv-x="2071" 
d="M1926 1382h-312q-38 199 -186.5 305.5t-344.5 106.5q-176 0 -316 -89t-220.5 -260.5t-80.5 -420.5q0 -250 81 -422t220.5 -260t314.5 -88q194 0 343 105t189 301l312 -1q-33 -202 -148 -357t-294 -242.5t-404 -87.5q-266 0 -474 126.5t-327.5 362.5t-119.5 563
q0 328 120 563.5t328 362t473 126.5q217 0 395.5 -82t297 -237.5t153.5 -374.5zM975 -3h196l-16 -82q86 -13 151.5 -69.5t65.5 -169.5q1 -136 -116.5 -219.5t-339.5 -83.5l-6 167q104 0 168.5 30t65.5 97t-49.5 94.5t-160.5 37.5zM957 2253l234 461h315l-310 -461h-239z" />
    <glyph glyph-name="uni023B" unicode="&#x23b;" horiz-adv-x="2071" 
d="M482 -260l124 359q-205 124 -326 360.5t-121 564.5t120 563.5t328 362t473 126.5q104 0 200 -19l87 251h239l-111 -323q169 -83 283 -236.5t148 -366.5h-312q-21 109 -77.5 191t-137.5 134l-492 -1429q83 -24 175 -24q194 0 343 105t189 301l312 -1q-33 -202 -148 -357
t-294 -242.5t-404 -87.5q-140 0 -266 36l-92 -268h-240zM705 388l482 1398q-51 8 -104 8q-176 0 -316 -89t-220.5 -260.5t-80.5 -420.5q0 -221 64.5 -381t174.5 -255z" />
    <glyph glyph-name="uni0186" unicode="&#x186;" horiz-adv-x="2071" 
d="M991 -28q-224 0 -403 87.5t-294 242.5t-148 357l311 1q40 -196 189 -301t343 -105q176 0 315.5 88t220.5 260t81 422q0 249 -80.5 420.5t-220.5 260.5t-317 89q-196 0 -344.5 -106.5t-186.5 -305.5h-311q35 219 153 374.5t297 237.5t395 82q265 0 473 -126.5t328 -362
t120 -563.5q0 -327 -119.5 -563t-327.5 -362.5t-474 -126.5z" />
    <glyph glyph-name="uni03F9" unicode="&#x3f9;" horiz-adv-x="2071" 
d="M1926 1382h-312q-38 199 -186.5 305.5t-344.5 106.5q-176 0 -316 -89t-220.5 -260.5t-80.5 -420.5q0 -250 81 -422t220.5 -260t314.5 -88q194 0 343 105t189 301l312 -1q-33 -202 -148 -357t-294 -242.5t-404 -87.5q-266 0 -474 126.5t-327.5 362.5t-119.5 563
q0 328 120 563.5t328 362t473 126.5q217 0 395.5 -82t297 -237.5t153.5 -374.5z" />
    <glyph glyph-name="uni0044" unicode="D" horiz-adv-x="2032" 
d="M888 0h-663v2048h684q302 0 517.5 -122.5t331 -351t115.5 -547.5q0 -320 -116 -550t-336.5 -353.5t-532.5 -123.5zM534 270h337q350 0 524 196.5t174 560.5q0 362 -171.5 556.5t-507.5 194.5h-356v-1508z" />
    <glyph glyph-name="uni018A" unicode="&#x18a;" horiz-adv-x="2524" 
d="M124 1442v158q0 193 122 320.5t345 127.5h810q302 0 517.5 -122.5t331 -351t115.5 -547.5q0 -320 -116 -550t-336.5 -353.5t-532.5 -123.5h-663v1778h-123q-81 0 -121 -35t-53 -91t-13 -119v-91h-283zM1026 270h337q350 0 524 196.5t174 560.5q0 362 -171.5 556.5
t-507.5 194.5h-356v-1508z" />
    <glyph glyph-name="uni010E" unicode="&#x10e;" horiz-adv-x="2032" 
d="M888 0h-663v2048h684q302 0 517.5 -122.5t331 -351t115.5 -547.5q0 -320 -116 -550t-336.5 -353.5t-532.5 -123.5zM534 270h337q350 0 524 196.5t174 560.5q0 362 -171.5 556.5t-507.5 194.5h-356v-1508zM636 2671l206 -268l205 268h271v-15l-352 -424h-249l-351 424v15
h270z" />
    <glyph glyph-name="uni1E0A" unicode="&#x1e0a;" horiz-adv-x="2032" 
d="M888 0h-663v2048h684q302 0 517.5 -122.5t331 -351t115.5 -547.5q0 -320 -116 -550t-336.5 -353.5t-532.5 -123.5zM534 270h337q350 0 524 196.5t174 560.5q0 362 -171.5 556.5t-507.5 194.5h-356v-1508zM842 2285q-78 0 -133.5 52.5t-55.5 125.5q0 74 55.5 126.5
t133.5 52.5q77 0 133 -52.5t56 -126.5q0 -73 -56 -125.5t-133 -52.5z" />
    <glyph glyph-name="uni1E0C" unicode="&#x1e0c;" horiz-adv-x="2032" 
d="M888 0h-663v2048h684q302 0 517.5 -122.5t331 -351t115.5 -547.5q0 -320 -116 -550t-336.5 -353.5t-532.5 -123.5zM534 270h337q350 0 524 196.5t174 560.5q0 362 -171.5 556.5t-507.5 194.5h-356v-1508zM870 -530q-78 0 -133.5 52.5t-55.5 125.5q0 74 55.5 126.5
t133.5 52.5q77 0 133 -52.5t56 -126.5q0 -73 -56 -125.5t-133 -52.5z" />
    <glyph glyph-name="uni1E0E" unicode="&#x1e0e;" horiz-adv-x="2032" 
d="M888 0h-663v2048h684q302 0 517.5 -122.5t331 -351t115.5 -547.5q0 -320 -116 -550t-336.5 -353.5t-532.5 -123.5zM534 270h337q350 0 524 196.5t174 560.5q0 362 -171.5 556.5t-507.5 194.5h-356v-1508zM1345 -253v-210h-949v210h949z" />
    <glyph glyph-name="uni1E10" unicode="&#x1e10;" horiz-adv-x="2032" 
d="M888 0h-663v2048h684q302 0 517.5 -122.5t331 -351t115.5 -547.5q0 -320 -116 -550t-336.5 -353.5t-532.5 -123.5zM534 270h337q350 0 524 196.5t174 560.5q0 362 -171.5 556.5t-507.5 194.5h-356v-1508zM608 -672l116 510h293l-187 -510h-222z" />
    <glyph glyph-name="uni1E12" unicode="&#x1e12;" horiz-adv-x="2032" 
d="M888 0h-663v2048h684q302 0 517.5 -122.5t331 -351t115.5 -547.5q0 -320 -116 -550t-336.5 -353.5t-532.5 -123.5zM534 270h337q350 0 524 196.5t174 560.5q0 362 -171.5 556.5t-507.5 194.5h-356v-1508zM665 -567l206 268l205 -268h271v15l-352 424h-249l-351 -424v-15
h270z" />
    <glyph glyph-name="uni0189" unicode="&#x189;" horiz-adv-x="2032" 
d="M888 0h-663v2048h684q302 0 517.5 -122.5t331 -351t115.5 -547.5q0 -320 -116 -550t-336.5 -353.5t-532.5 -123.5zM534 270h337q350 0 524 196.5t174 560.5q0 362 -171.5 556.5t-507.5 194.5h-356v-1508zM-81 960v207h919v-207h-919z" />
    <glyph glyph-name="uni01F2" unicode="&#x1f2;" horiz-adv-x="3585" 
d="M888 0h-663v2048h684q302 0 517.5 -122.5t331 -351t115.5 -547.5q0 -320 -116 -550t-336.5 -353.5t-532.5 -123.5zM534 270h337q350 0 524 196.5t174 560.5q0 362 -171.5 556.5t-507.5 194.5h-356v-1508zM2201 0v205l832 1057v14h-805v260h1178v-218l-800 -1044v-14h828
v-260h-1233z" />
    <glyph glyph-name="uni01C5" unicode="&#x1c5;" horiz-adv-x="3585" 
d="M888 0h-663v2048h684q302 0 517.5 -122.5t331 -351t115.5 -547.5q0 -320 -116 -550t-336.5 -353.5t-532.5 -123.5zM534 270h337q350 0 524 196.5t174 560.5q0 362 -171.5 556.5t-507.5 194.5h-356v-1508zM2201 0v205l832 1057v14h-805v260h1178v-218l-800 -1044v-14h828
v-260h-1233zM2601 2159l206 -268l205 268h271v-15l-352 -424h-249l-351 424v15h270z" />
    <glyph glyph-name="uni0045" unicode="E" horiz-adv-x="1698" 
d="M225 0v2048h1284v-266h-975v-624h908v-265h-908v-627h987v-266h-1296z" />
    <glyph glyph-name="uni00C8" unicode="&#xc8;" horiz-adv-x="1698" 
d="M225 0v2048h1284v-266h-975v-624h908v-265h-908v-627h987v-266h-1296zM750 2253l-309 461h315l233 -461h-239z" />
    <glyph glyph-name="uni00C9" unicode="&#xc9;" horiz-adv-x="1698" 
d="M225 0v2048h1284v-266h-975v-624h908v-265h-908v-627h987v-266h-1296zM743 2253l234 461h315l-310 -461h-239z" />
    <glyph glyph-name="uni00CA" unicode="&#xca;" horiz-adv-x="1698" 
d="M225 0v2048h1284v-266h-975v-624h908v-265h-908v-627h987v-266h-1296zM661 2232l206 268l205 -268h271v15l-352 424h-249l-351 -424v-15h270z" />
    <glyph glyph-name="uni00CB" unicode="&#xcb;" horiz-adv-x="1698" 
d="M225 0v2048h1284v-266h-975v-624h908v-265h-908v-627h987v-266h-1296zM573 2289q-70 0 -123.5 52t-53.5 122q0 74 53.5 124.5t123.5 50.5q75 0 125.5 -50.5t50.5 -124.5q0 -70 -50.5 -122t-125.5 -52zM1161 2289q-70 0 -123.5 52t-53.5 122q0 74 53.5 124.5t123.5 50.5
q75 0 125.5 -50.5t50.5 -124.5q0 -70 -50.5 -122t-125.5 -52z" />
    <glyph glyph-name="uni0112" unicode="&#x112;" horiz-adv-x="1698" 
d="M225 0v2048h1284v-266h-975v-624h908v-265h-908v-627h987v-266h-1296zM1341 2560v-210h-949v210h949z" />
    <glyph glyph-name="uni0114" unicode="&#x114;" horiz-adv-x="1698" 
d="M225 0v2048h1284v-266h-975v-624h908v-265h-908v-627h987v-266h-1296zM1063 2568h246q0 -169 -119.5 -274.5t-322.5 -105.5q-202 0 -321 105.5t-119 274.5h245q0 -75 44.5 -132.5t150.5 -57.5q105 0 150.5 57t45.5 133z" />
    <glyph glyph-name="uni0116" unicode="&#x116;" horiz-adv-x="1698" 
d="M225 0v2048h1284v-266h-975v-624h908v-265h-908v-627h987v-266h-1296zM867 2285q-78 0 -133.5 52.5t-55.5 125.5q0 74 55.5 126.5t133.5 52.5q77 0 133 -52.5t56 -126.5q0 -73 -56 -125.5t-133 -52.5z" />
    <glyph glyph-name="uni0118" unicode="&#x118;" horiz-adv-x="1698" 
d="M225 0v2048h1284v-266h-975v-624h908v-265h-908v-627h987v-266h-1296zM1330 -591q-126 0 -209.5 68t-91.5 196q-7 115 65.5 228.5t248.5 192.5l178 -94q-91 -58 -158.5 -124.5t-67.5 -150.5q0 -46 23 -72t79 -26q41 0 73 11t52 21l26 -190q-34 -21 -89 -40.5t-129 -19.5z
" />
    <glyph glyph-name="uni011A" unicode="&#x11a;" horiz-adv-x="1698" 
d="M225 0v2048h1284v-266h-975v-624h908v-265h-908v-627h987v-266h-1296zM661 2671l206 -268l205 268h271v-15l-352 -424h-249l-351 424v15h270z" />
    <glyph glyph-name="uni0204" unicode="&#x204;" horiz-adv-x="1698" 
d="M225 0v2048h1284v-266h-975v-624h908v-265h-908v-627h987v-266h-1296zM1050 2253l-266 371l201 90l209 -372zM604 2253l-337 371l175 90l290 -372z" />
    <glyph glyph-name="uni0206" unicode="&#x206;" horiz-adv-x="1698" 
d="M225 0v2048h1284v-266h-975v-624h908v-265h-908v-627h987v-266h-1296zM426 2288q0 168 119 277t324 109q203 0 321 -109t119 -277h-246q0 77 -45 134.5t-149 57.5q-109 0 -153 -58.5t-44 -133.5h-246z" />
    <glyph glyph-name="uni0228" unicode="&#x228;" horiz-adv-x="1698" 
d="M225 0v2048h1284v-266h-975v-624h908v-265h-908v-627h987v-266h-1296zM752 8h196l-16 -82q86 -13 151.5 -69.5t65.5 -169.5q1 -136 -116.5 -219.5t-339.5 -83.5l-6 167q104 0 168.5 30t65.5 97t-49.5 94.5t-160.5 37.5z" />
    <glyph glyph-name="uni1E14" unicode="&#x1e14;" horiz-adv-x="1698" 
d="M225 0v2048h1284v-266h-975v-624h908v-265h-908v-627h987v-266h-1296zM1341 2507v-210h-949v210h949zM751 2654l-341 321h317l293 -321h-269z" />
    <glyph glyph-name="uni1E16" unicode="&#x1e16;" horiz-adv-x="1698" 
d="M225 0v2048h1284v-266h-975v-624h908v-265h-908v-627h987v-266h-1296zM1341 2507v-210h-949v210h949zM713 2654l293 321h318l-341 -321h-270z" />
    <glyph glyph-name="uni1E18" unicode="&#x1e18;" horiz-adv-x="1698" 
d="M225 0v2048h1284v-266h-975v-624h908v-265h-908v-627h987v-266h-1296zM645 -567l206 268l205 -268h271v15l-352 424h-249l-351 -424v-15h270z" />
    <glyph glyph-name="uni1E1A" unicode="&#x1e1a;" horiz-adv-x="1698" 
d="M225 0v2048h1284v-266h-975v-624h908v-265h-908v-627h987v-266h-1296zM621 -521l-201 6q0 166 89.5 265t221.5 99q82 0 138.5 -33.5t108 -67.5t118.5 -34q58 0 94 44t37 109l197 -13q0 -167 -90 -262.5t-221 -96.5q-71 0 -117.5 20.5t-82.5 47.5t-74 47.5t-91 20.5
q-55 0 -91 -43.5t-36 -108.5z" />
    <glyph glyph-name="uni1E1C" unicode="&#x1e1c;" horiz-adv-x="1698" 
d="M225 0v2048h1284v-266h-975v-624h908v-265h-908v-627h987v-266h-1296zM752 8h196l-16 -82q86 -13 151.5 -69.5t65.5 -169.5q1 -136 -116.5 -219.5t-339.5 -83.5l-6 167q104 0 168.5 30t65.5 97t-49.5 94.5t-160.5 37.5zM1063 2568h246q0 -169 -119.5 -274.5
t-322.5 -105.5q-202 0 -321 105.5t-119 274.5h245q0 -75 44.5 -132.5t150.5 -57.5q105 0 150.5 57t45.5 133z" />
    <glyph glyph-name="uni1EB8" unicode="&#x1eb8;" horiz-adv-x="1698" 
d="M225 0v2048h1284v-266h-975v-624h908v-265h-908v-627h987v-266h-1296zM850 -530q-78 0 -133.5 52.5t-55.5 125.5q0 74 55.5 126.5t133.5 52.5q77 0 133 -52.5t56 -126.5q0 -73 -56 -125.5t-133 -52.5z" />
    <glyph glyph-name="uni1EBA" unicode="&#x1eba;" horiz-adv-x="1698" 
d="M225 0v2048h1284v-266h-975v-624h908v-265h-908v-627h987v-266h-1296zM988 2260h-236l-8 204q106 5 150 28.5t43 68.5q1 54 -60 77t-150 23l9 165q227 0 344.5 -72t116.5 -194q1 -98 -64.5 -145t-144.5 -59v-96z" />
    <glyph glyph-name="uni1EBC" unicode="&#x1ebc;" horiz-adv-x="1698" 
d="M225 0v2048h1284v-266h-975v-624h908v-265h-908v-627h987v-266h-1296zM565 2234l-201 6q0 166 89.5 265t221.5 99q82 0 138.5 -33.5t108 -67.5t118.5 -34q58 0 94 44t37 109l197 -13q0 -167 -90 -262.5t-221 -96.5q-71 0 -117.5 20.5t-82.5 47.5t-74 47.5t-91 20.5
q-55 0 -91 -43.5t-36 -108.5z" />
    <glyph glyph-name="uni1EBE" unicode="&#x1ebe;" horiz-adv-x="1698" 
d="M225 0v2048h1284v-266h-975v-624h908v-265h-908v-627h987v-266h-1296zM349 2232l406 347h223l407 -347h-294l-222 198l-224 -198h-296zM1278 2454l209 365h305l-295 -365h-219z" />
    <glyph glyph-name="uni1EC0" unicode="&#x1ec0;" horiz-adv-x="1698" 
d="M225 0v2048h1284v-266h-975v-624h908v-265h-908v-627h987v-266h-1296zM976 2574l408 -347h-295l-222 198l-223 -198h-294l403 347h223zM248 2816l206 -367h-215l-298 367h307z" />
    <glyph glyph-name="uni1EC2" unicode="&#x1ec2;" horiz-adv-x="1698" 
d="M225 0v2048h1284v-266h-975v-624h908v-265h-908v-627h987v-266h-1296zM997 2556l385 -347h-263l-256 227l-253 -227h-263l384 347h266zM1439 2396h-186l-6 172q84 6 124 23t40 58q0 47 -52 66t-131 19l9 142q188 0 285 -60.5t97 -164.5q0 -85 -56 -125.5t-124 -49.5v-80z
" />
    <glyph glyph-name="uni1EC4" unicode="&#x1ec4;" horiz-adv-x="1698" 
d="M225 0v2048h1284v-266h-975v-624h908v-265h-908v-627h987v-266h-1296zM965 2516l415 -327h-264l-253 198l-252 -198h-265l415 327h204zM1101 2864l124 -39q0 -81 -61 -148.5t-154 -67.5q-66 0 -110 23.5t-82.5 47t-91.5 23.5q-39 0 -70.5 -31t-31.5 -68l-120 32
q0 80 59.5 149t152.5 69q55 0 100 -22.5t89.5 -45t94.5 -22.5q38 0 69.5 31.5t31.5 68.5z" />
    <glyph glyph-name="uni1EC6" unicode="&#x1ec6;" horiz-adv-x="1698" 
d="M225 0v2048h1284v-266h-975v-624h908v-265h-908v-627h987v-266h-1296zM661 2232l206 268l205 -268h271v15l-352 424h-249l-351 -424v-15h270zM850 -530q-78 0 -133.5 52.5t-55.5 125.5q0 74 55.5 126.5t133.5 52.5q77 0 133 -52.5t56 -126.5q0 -73 -56 -125.5t-133 -52.5
z" />
    <glyph glyph-name="uni0246" unicode="&#x246;" horiz-adv-x="1698" 
d="M1412 2308l-75 -260h172v-266h-249l-179 -624h361v-265h-438l-180 -627h697v-266h-774l-75 -260h-228l75 260h-294v2048h884l75 260h228zM1032 1782h-498v-624h319zM776 893h-242v-627h62z" />
    <glyph glyph-name="uni018E" unicode="&#x18e;" horiz-adv-x="1687" 
d="M1455 2048v-2048h-1284v266h975v624h-908v265h908v627h-987v266h1296z" />
    <glyph glyph-name="uni0395" unicode="&#x395;" horiz-adv-x="1698" 
d="M225 0v2048h1284v-266h-975v-624h908v-265h-908v-627h987v-266h-1296z" />
    <glyph glyph-name="uni0388" unicode="&#x388;" horiz-adv-x="2030" 
d="M560 0v2048h1284v-266h-975v-624h908v-265h-908v-627h987v-266h-1296zM111 1712l81 470h297l-185 -470h-193z" />
    <glyph glyph-name="uni1F18" unicode="&#x1f18;" horiz-adv-x="2069" 
d="M599 0v2048h1284v-266h-975v-624h908v-265h-908v-627h987v-266h-1296zM449 2048v-118q0 -123 -64.5 -220.5t-180.5 -157.5l-112 98q112 106 112 288v110h245z" />
    <glyph glyph-name="uni1F19" unicode="&#x1f19;" horiz-adv-x="2057" 
d="M587 0v2048h1284v-266h-975v-624h908v-265h-908v-627h987v-266h-1296zM110 1930v118h246v-110q1 -90 26.5 -160.5t84.5 -127.5l-112 -98q-112 60 -178.5 157.5t-66.5 220.5z" />
    <glyph glyph-name="uni1F1A" unicode="&#x1f1a;" horiz-adv-x="2618" 
d="M1147 0v2048h1284v-266h-975v-624h908v-265h-908v-627h987v-266h-1296zM473 2048v-112q1 -120 -66 -219t-189 -165l-109 84q55 63 84 136.5t29 171.5v104h251zM986 1604v-20h-129l-320 436v28h292z" />
    <glyph glyph-name="uni1F1B" unicode="&#x1f1b;" horiz-adv-x="2521" 
d="M1051 0v2048h1284v-266h-975v-624h908v-265h-908v-627h987v-266h-1296zM107 1930v118h247v-110q0 -90 25.5 -160.5t86.5 -127.5l-112 -98q-115 60 -181 157.5t-66 220.5zM902 1607v-24h-130l-319 437v28h295z" />
    <glyph glyph-name="uni1F1C" unicode="&#x1f1c;" horiz-adv-x="2517" 
d="M1047 0v2048h1284v-266h-975v-624h908v-265h-908v-627h987v-266h-1296zM469 2048v-118q0 -123 -66.5 -220.5t-180.5 -157.5l-111 98q110 108 111 288v110h247zM496 1583v24l158 441h291v-28l-319 -437h-130z" />
    <glyph glyph-name="uni1F1D" unicode="&#x1f1d;" horiz-adv-x="2562" 
d="M1091 0v2048h1284v-266h-975v-624h908v-265h-908v-627h987v-266h-1296zM110 1930v118h246v-110q0 -178 110 -288l-111 -98q-112 59 -178.5 156.5t-66.5 221.5zM527 1583v24l153 441h295v-28l-320 -437h-128z" />
    <glyph glyph-name="uni1FC8" unicode="&#x1fc8;" horiz-adv-x="2190" 
d="M719 0v2048h1284v-266h-975v-624h908v-265h-908v-627h987v-266h-1296zM556 1580h-128l-319 440v28h291l156 -439v-29z" />
    <glyph glyph-name="uni1FC9" unicode="&#x1fc9;" horiz-adv-x="2126" 
d="M655 0v2048h1284v-266h-975v-624h908v-265h-908v-627h987v-266h-1296zM212 1728v29l154 439h321v-28l-319 -440h-156z" />
    <glyph glyph-name="uni0415" unicode="&#x415;" horiz-adv-x="1698" 
d="M225 0v2048h1284v-266h-975v-624h908v-265h-908v-627h987v-266h-1296z" />
    <glyph glyph-name="uni0400" unicode="&#x400;" horiz-adv-x="1698" 
d="M225 0v2048h1284v-266h-975v-624h908v-265h-908v-627h987v-266h-1296zM750 2253l-309 461h315l233 -461h-239z" />
    <glyph glyph-name="uni0401" unicode="&#x401;" horiz-adv-x="1698" 
d="M225 0v2048h1284v-266h-975v-624h908v-265h-908v-627h987v-266h-1296zM573 2289q-70 0 -123.5 52t-53.5 122q0 74 53.5 124.5t123.5 50.5q75 0 125.5 -50.5t50.5 -124.5q0 -70 -50.5 -122t-125.5 -52zM1161 2289q-70 0 -123.5 52t-53.5 122q0 74 53.5 124.5t123.5 50.5
q75 0 125.5 -50.5t50.5 -124.5q0 -70 -50.5 -122t-125.5 -52z" />
    <glyph glyph-name="uni04D6" unicode="&#x4d6;" horiz-adv-x="1698" 
d="M225 0v2048h1284v-266h-975v-624h908v-265h-908v-627h987v-266h-1296zM1063 2568h246q0 -169 -119.5 -274.5t-322.5 -105.5q-202 0 -321 105.5t-119 274.5h245q0 -75 44.5 -132.5t150.5 -57.5q105 0 150.5 57t45.5 133z" />
    <glyph glyph-name="uni0046" unicode="F" horiz-adv-x="1650" 
d="M225 0v2048h1270v-266h-961v-624h870v-265h-870v-893h-309z" />
    <glyph glyph-name="uni0191" unicode="&#x191;" horiz-adv-x="1671" 
d="M246 -138v2186h1270v-266h-961v-624h870v-265h-870v-1034q0 -231 -134.5 -333t-362.5 -102q-18 0 -41.5 1.5t-67.5 9.5v245q33 -6 79 -6q92 0 155 39.5t63 148.5z" />
    <glyph glyph-name="uni1E1E" unicode="&#x1e1e;" horiz-adv-x="1650" 
d="M225 0v2048h1270v-266h-961v-624h870v-265h-870v-893h-309zM882 2285q-78 0 -133.5 52.5t-55.5 125.5q0 74 55.5 126.5t133.5 52.5q77 0 133 -52.5t56 -126.5q0 -73 -56 -125.5t-133 -52.5z" />
    <glyph glyph-name="uni2132" unicode="&#x2132;" horiz-adv-x="1650" 
d="M1425 2048v-2048h-1270v266h961v624h-870v265h870v893h309z" />
    <glyph glyph-name="uni0047" unicode="G" horiz-adv-x="2109" 
d="M1611 1401q-58 182 -193.5 287.5t-339.5 105.5q-173 0 -312 -89t-219.5 -260.5t-80.5 -419.5q0 -249 81 -421t222 -261t321 -89q246 0 397 145.5t156 393.5h-506v255h805v-233q0 -258 -109.5 -447.5t-301.5 -292.5t-441 -103q-277 0 -487 127.5t-327 363.5t-117 560
q0 327 119 563t326 363t472 127q221 0 401 -85.5t298.5 -237.5t152.5 -352h-317z" />
    <glyph glyph-name="uni01E4" unicode="&#x1e4;" horiz-adv-x="2109" 
d="M2067 637v-185h-194q-94 -226 -300.5 -353t-482.5 -127q-277 0 -487 127.5t-327 363.5t-117 560q0 327 119 563t326 363t472 127q221 0 401 -85.5t298.5 -237.5t152.5 -352h-317q-58 182 -193.5 287.5t-339.5 105.5q-173 0 -312 -89t-219.5 -260.5t-80.5 -419.5
q0 -249 81 -421t222 -261t321 -89q144 0 257.5 51.5t186.5 146.5h-397v185h485q19 73 21 156h-506v255h805v-233q0 -92 -15 -178h140z" />
    <glyph glyph-name="uni0193" unicode="&#x193;" horiz-adv-x="2234" 
d="M1928 1401h-318v3q-58 181 -193.5 285.5t-338.5 104.5q-173 0 -312 -89t-219.5 -260.5t-80.5 -419.5q0 -249 81 -421t222 -261t321 -89q246 0 397 145.5t156 393.5h-506v255h805v-233q0 -258 -109.5 -447.5t-301.5 -292.5t-441 -103q-277 0 -487 127.5t-327 363.5
t-117 560q0 327 119 563t326 363t472 127q175 0 326 -55t265 -154q56 117 166 179t262 62q41 0 82 -2.5t76 -13.5v-246q-20 3 -43.5 5.5t-47.5 2.5q-99 0 -168 -41.5t-69 -163.5v-232q2 -8 3 -16z" />
    <glyph glyph-name="uni011C" unicode="&#x11c;" horiz-adv-x="2109" 
d="M1611 1401q-58 182 -193.5 287.5t-339.5 105.5q-173 0 -312 -89t-219.5 -260.5t-80.5 -419.5q0 -249 81 -421t222 -261t321 -89q246 0 397 145.5t156 393.5h-506v255h805v-233q0 -258 -109.5 -447.5t-301.5 -292.5t-441 -103q-277 0 -487 127.5t-327 363.5t-117 560
q0 327 119 563t326 363t472 127q221 0 401 -85.5t298.5 -237.5t152.5 -352h-317zM867 2232l206 268l205 -268h271v15l-352 424h-249l-351 -424v-15h270z" />
    <glyph glyph-name="uni011E" unicode="&#x11e;" horiz-adv-x="2109" 
d="M1611 1401q-58 182 -193.5 287.5t-339.5 105.5q-173 0 -312 -89t-219.5 -260.5t-80.5 -419.5q0 -249 81 -421t222 -261t321 -89q246 0 397 145.5t156 393.5h-506v255h805v-233q0 -258 -109.5 -447.5t-301.5 -292.5t-441 -103q-277 0 -487 127.5t-327 363.5t-117 560
q0 327 119 563t326 363t472 127q221 0 401 -85.5t298.5 -237.5t152.5 -352h-317zM1269 2568h246q0 -169 -119.5 -274.5t-322.5 -105.5q-202 0 -321 105.5t-119 274.5h245q0 -75 44.5 -132.5t150.5 -57.5q105 0 150.5 57t45.5 133z" />
    <glyph glyph-name="uni0120" unicode="&#x120;" horiz-adv-x="2109" 
d="M1611 1401q-58 182 -193.5 287.5t-339.5 105.5q-173 0 -312 -89t-219.5 -260.5t-80.5 -419.5q0 -249 81 -421t222 -261t321 -89q246 0 397 145.5t156 393.5h-506v255h805v-233q0 -258 -109.5 -447.5t-301.5 -292.5t-441 -103q-277 0 -487 127.5t-327 363.5t-117 560
q0 327 119 563t326 363t472 127q221 0 401 -85.5t298.5 -237.5t152.5 -352h-317zM1073 2285q-78 0 -133.5 52.5t-55.5 125.5q0 74 55.5 126.5t133.5 52.5q77 0 133 -52.5t56 -126.5q0 -73 -56 -125.5t-133 -52.5z" />
    <glyph glyph-name="uni0122" unicode="&#x122;" horiz-adv-x="2109" 
d="M1611 1401q-58 182 -193.5 287.5t-339.5 105.5q-173 0 -312 -89t-219.5 -260.5t-80.5 -419.5q0 -249 81 -421t222 -261t321 -89q246 0 397 145.5t156 393.5h-506v255h805v-233q0 -258 -109.5 -447.5t-301.5 -292.5t-441 -103q-277 0 -487 127.5t-327 363.5t-117 560
q0 327 119 563t326 363t472 127q221 0 401 -85.5t298.5 -237.5t152.5 -352h-317zM807 -670l116 510h293l-187 -510h-222z" />
    <glyph glyph-name="uni01E6" unicode="&#x1e6;" horiz-adv-x="2109" 
d="M1611 1401q-58 182 -193.5 287.5t-339.5 105.5q-173 0 -312 -89t-219.5 -260.5t-80.5 -419.5q0 -249 81 -421t222 -261t321 -89q246 0 397 145.5t156 393.5h-506v255h805v-233q0 -258 -109.5 -447.5t-301.5 -292.5t-441 -103q-277 0 -487 127.5t-327 363.5t-117 560
q0 327 119 563t326 363t472 127q221 0 401 -85.5t298.5 -237.5t152.5 -352h-317zM867 2671l206 -268l205 268h271v-15l-352 -424h-249l-351 424v15h270z" />
    <glyph glyph-name="uni01F4" unicode="&#x1f4;" horiz-adv-x="2109" 
d="M1611 1401q-58 182 -193.5 287.5t-339.5 105.5q-173 0 -312 -89t-219.5 -260.5t-80.5 -419.5q0 -249 81 -421t222 -261t321 -89q246 0 397 145.5t156 393.5h-506v255h805v-233q0 -258 -109.5 -447.5t-301.5 -292.5t-441 -103q-277 0 -487 127.5t-327 363.5t-117 560
q0 327 119 563t326 363t472 127q221 0 401 -85.5t298.5 -237.5t152.5 -352h-317zM949 2253l234 461h315l-310 -461h-239z" />
    <glyph glyph-name="uni1E20" unicode="&#x1e20;" horiz-adv-x="2109" 
d="M1611 1401q-58 182 -193.5 287.5t-339.5 105.5q-173 0 -312 -89t-219.5 -260.5t-80.5 -419.5q0 -249 81 -421t222 -261t321 -89q246 0 397 145.5t156 393.5h-506v255h805v-233q0 -258 -109.5 -447.5t-301.5 -292.5t-441 -103q-277 0 -487 127.5t-327 363.5t-117 560
q0 327 119 563t326 363t472 127q221 0 401 -85.5t298.5 -237.5t152.5 -352h-317zM1547 2560v-210h-949v210h949z" />
    <glyph glyph-name="uniE002" unicode="&#xe002;" horiz-adv-x="2128" 
d="M1090 -28q-277 0 -486.5 127.5t-327 363.5t-117.5 560q0 327 121 563t330.5 363t473.5 127q222 0 405 -85.5t304 -237.5t155 -352h-317q-54 183 -197.5 288t-346.5 105q-173 0 -314 -88.5t-224 -260t-83 -420.5t81 -421t222 -261t321 -89q167 0 293.5 68.5t198 190.5
t77.5 280h-522v255h825v-1048h-238l-28 245h-10q-112 -131 -255 -202t-341 -71z" />
    <glyph glyph-name="uniE003" unicode="&#xe003;" horiz-adv-x="2129" 
d="M2087 637v-185h-125v-452h-238l-28 245h-10q-112 -131 -255 -202t-341 -71q-277 0 -486.5 127.5t-327 363.5t-117.5 560q0 327 121 563t330.5 363t473.5 127q222 0 405 -85.5t304 -237.5t155 -352h-317q-54 183 -197.5 288t-346.5 105q-173 0 -314 -88.5t-224 -260
t-83 -420.5t81 -421t222 -261t321 -89q145 0 260 52.5t189 145.5h-402v185h497q22 74 25 156h-522v255h825v-411h125z" />
    <glyph glyph-name="uniE004" unicode="&#xe004;" horiz-adv-x="2234" 
d="M1948 1401h-317q-54 183 -197.5 288t-346.5 105q-173 0 -314 -88.5t-224 -260t-83 -420.5t81 -421t222 -261t321 -89q167 0 293.5 68.5t198 190.5t77.5 280h-522v255h825v-1048h-238l-28 245h-10q-112 -131 -255 -202t-341 -71q-277 0 -486.5 127.5t-327 363.5
t-117.5 560q0 327 121 563t330.5 363t473.5 127q178 0 333 -56.5t271 -157.5q55 120 166 183t264 63q41 0 82 -2.5t76 -13.5v-246q-19 3 -42.5 5.5t-47.5 2.5q-99 0 -168.5 -41.5t-69.5 -163.5v-248z" />
    <glyph glyph-name="uniE005" unicode="&#xe005;" horiz-adv-x="2128" 
d="M1090 -28q-277 0 -486.5 127.5t-327 363.5t-117.5 560q0 327 121 563t330.5 363t473.5 127q222 0 405 -85.5t304 -237.5t155 -352h-317q-54 183 -197.5 288t-346.5 105q-173 0 -314 -88.5t-224 -260t-83 -420.5t81 -421t222 -261t321 -89q167 0 293.5 68.5t198 190.5
t77.5 280h-522v255h825v-1048h-238l-28 245h-10q-112 -131 -255 -202t-341 -71zM867 2232l206 268l205 -268h271v15l-352 424h-249l-351 -424v-15h270z" />
    <glyph glyph-name="uniE006" unicode="&#xe006;" horiz-adv-x="2128" 
d="M1090 -28q-277 0 -486.5 127.5t-327 363.5t-117.5 560q0 327 121 563t330.5 363t473.5 127q222 0 405 -85.5t304 -237.5t155 -352h-317q-54 183 -197.5 288t-346.5 105q-173 0 -314 -88.5t-224 -260t-83 -420.5t81 -421t222 -261t321 -89q167 0 293.5 68.5t198 190.5
t77.5 280h-522v255h825v-1048h-238l-28 245h-10q-112 -131 -255 -202t-341 -71zM1269 2568h246q0 -169 -119.5 -274.5t-322.5 -105.5q-202 0 -321 105.5t-119 274.5h245q0 -75 44.5 -132.5t150.5 -57.5q105 0 150.5 57t45.5 133z" />
    <glyph glyph-name="uniE007" unicode="&#xe007;" horiz-adv-x="2128" 
d="M1090 -28q-277 0 -486.5 127.5t-327 363.5t-117.5 560q0 327 121 563t330.5 363t473.5 127q222 0 405 -85.5t304 -237.5t155 -352h-317q-54 183 -197.5 288t-346.5 105q-173 0 -314 -88.5t-224 -260t-83 -420.5t81 -421t222 -261t321 -89q167 0 293.5 68.5t198 190.5
t77.5 280h-522v255h825v-1048h-238l-28 245h-10q-112 -131 -255 -202t-341 -71zM1073 2285q-78 0 -133.5 52.5t-55.5 125.5q0 74 55.5 126.5t133.5 52.5q77 0 133 -52.5t56 -126.5q0 -73 -56 -125.5t-133 -52.5z" />
    <glyph glyph-name="uniE008" unicode="&#xe008;" horiz-adv-x="2128" 
d="M1090 -28q-277 0 -486.5 127.5t-327 363.5t-117.5 560q0 327 121 563t330.5 363t473.5 127q222 0 405 -85.5t304 -237.5t155 -352h-317q-54 183 -197.5 288t-346.5 105q-173 0 -314 -88.5t-224 -260t-83 -420.5t81 -421t222 -261t321 -89q167 0 293.5 68.5t198 190.5
t77.5 280h-522v255h825v-1048h-238l-28 245h-10q-112 -131 -255 -202t-341 -71zM807 -670l116 510h293l-187 -510h-222z" />
    <glyph glyph-name="uniE009" unicode="&#xe009;" horiz-adv-x="2128" 
d="M1090 -28q-277 0 -486.5 127.5t-327 363.5t-117.5 560q0 327 121 563t330.5 363t473.5 127q222 0 405 -85.5t304 -237.5t155 -352h-317q-54 183 -197.5 288t-346.5 105q-173 0 -314 -88.5t-224 -260t-83 -420.5t81 -421t222 -261t321 -89q167 0 293.5 68.5t198 190.5
t77.5 280h-522v255h825v-1048h-238l-28 245h-10q-112 -131 -255 -202t-341 -71zM867 2671l206 -268l205 268h271v-15l-352 -424h-249l-351 424v15h270z" />
    <glyph glyph-name="uniE00A" unicode="&#xe00a;" horiz-adv-x="2128" 
d="M1090 -28q-277 0 -486.5 127.5t-327 363.5t-117.5 560q0 327 121 563t330.5 363t473.5 127q222 0 405 -85.5t304 -237.5t155 -352h-317q-54 183 -197.5 288t-346.5 105q-173 0 -314 -88.5t-224 -260t-83 -420.5t81 -421t222 -261t321 -89q167 0 293.5 68.5t198 190.5
t77.5 280h-522v255h825v-1048h-238l-28 245h-10q-112 -131 -255 -202t-341 -71zM949 2253l234 461h315l-310 -461h-239z" />
    <glyph glyph-name="uniE00B" unicode="&#xe00b;" horiz-adv-x="2128" 
d="M1090 -28q-277 0 -486.5 127.5t-327 363.5t-117.5 560q0 327 121 563t330.5 363t473.5 127q222 0 405 -85.5t304 -237.5t155 -352h-317q-54 183 -197.5 288t-346.5 105q-173 0 -314 -88.5t-224 -260t-83 -420.5t81 -421t222 -261t321 -89q167 0 293.5 68.5t198 190.5
t77.5 280h-522v255h825v-1048h-238l-28 245h-10q-112 -131 -255 -202t-341 -71zM1547 2560v-210h-949v210h949z" />
    <glyph glyph-name="uni0048" unicode="H" horiz-adv-x="2090" 
d="M225 0v2048h309v-890h1021v890h310v-2048h-310v893h-1021v-893h-309z" />
    <glyph glyph-name="uni1E28" unicode="&#x1e28;" horiz-adv-x="2090" 
d="M225 0v2048h309v-890h1021v890h310v-2048h-310v893h-1021v-893h-309zM300 5h196l-16 -82q86 -13 151.5 -69.5t65.5 -169.5q1 -136 -116.5 -219.5t-339.5 -83.5l-6 167q104 0 168.5 30t65.5 97t-49.5 94.5t-160.5 37.5z" />
    <glyph glyph-name="uni0124" unicode="&#x124;" horiz-adv-x="2090" 
d="M225 0v2048h309v-890h1021v890h310v-2048h-310v893h-1021v-893h-309zM847 2235l206 268l205 -268h271v15l-352 424h-249l-351 -424v-15h270z" />
    <glyph glyph-name="uni021E" unicode="&#x21e;" horiz-adv-x="2090" 
d="M225 0v2048h309v-890h1021v890h310v-2048h-310v893h-1021v-893h-309zM847 2674l206 -268l205 268h271v-15l-352 -424h-249l-351 424v15h270z" />
    <glyph glyph-name="uni1E22" unicode="&#x1e22;" horiz-adv-x="2090" 
d="M225 0v2048h309v-890h1021v890h310v-2048h-310v893h-1021v-893h-309zM1053 2288q-78 0 -133.5 52.5t-55.5 125.5q0 74 55.5 126.5t133.5 52.5q77 0 133 -52.5t56 -126.5q0 -73 -56 -125.5t-133 -52.5z" />
    <glyph glyph-name="uni1E24" unicode="&#x1e24;" horiz-adv-x="2090" 
d="M225 0v2048h309v-890h1021v890h310v-2048h-310v893h-1021v-893h-309zM1043 -530q-78 0 -133.5 52.5t-55.5 125.5q0 74 55.5 126.5t133.5 52.5q77 0 133 -52.5t56 -126.5q0 -73 -56 -125.5t-133 -52.5z" />
    <glyph glyph-name="uni1E26" unicode="&#x1e26;" horiz-adv-x="2090" 
d="M225 0v2048h309v-890h1021v890h310v-2048h-310v893h-1021v-893h-309zM759 2292q-70 0 -123.5 52t-53.5 122q0 74 53.5 124.5t123.5 50.5q75 0 125.5 -50.5t50.5 -124.5q0 -70 -50.5 -122t-125.5 -52zM1347 2292q-70 0 -123.5 52t-53.5 122q0 74 53.5 124.5t123.5 50.5
q75 0 125.5 -50.5t50.5 -124.5q0 -70 -50.5 -122t-125.5 -52z" />
    <glyph glyph-name="uni1E2A" unicode="&#x1e2a;" horiz-adv-x="2090" 
d="M225 0v2048h309v-890h1021v890h310v-2048h-310v893h-1021v-893h-309zM1238 -125h245q0 -170 -118.5 -278.5t-321.5 -108.5q-202 0 -322 109.5t-120 277.5h245q0 -78 45.5 -136t149.5 -58q105 0 151 59.5t46 134.5z" />
    <glyph glyph-name="uni0126" unicode="&#x126;" horiz-adv-x="2219" 
d="M2095 1642v-220h-165v-1422h-310v893h-1021v-893h-309v1422h-166v220h166v406h309v-406h1021v406h310v-406h165zM1620 1422h-1021v-264h1021v264z" />
    <glyph glyph-name="uni04C7" unicode="&#x4c7;" horiz-adv-x="2090" 
d="M225 0v2048h309v-890h1021v890h310v-2190q0 -120 -51 -221t-158.5 -162t-278.5 -61q-40 0 -80 2.5t-63 9.5v251q17 -3 43 -5.5t48 -2.5q95 0 162.5 41t67.5 159v1024h-1021v-893h-309z" />
    <glyph glyph-name="uni04A2" unicode="&#x4a2;" horiz-adv-x="2242" 
d="M225 0v2048h309v-890h1021v890h310v-2048h-310v893h-1021v-893h-309zM2141 245v-740h-296v740h296z" />
    <glyph glyph-name="uni04C9" unicode="&#x4c9;" horiz-adv-x="2236" 
d="M225 0v2048h309v-890h1021v890h310v-2048h-310v893h-1021v-893h-309zM2135 182v-205q-3 -292 -189 -524l-209 60q50 112 89 219t39 234v216h270z" />
    <glyph glyph-name="uni04A4" unicode="&#x4a4;" horiz-adv-x="2795" 
d="M2671 2048v-266h-806v-1782h-310v893h-1021v-893h-309v2048h309v-890h1021v890h1116z" />
    <glyph glyph-name="uni01F6" unicode="&#x1f6;" horiz-adv-x="3145" 
d="M2254 -28q-315 0 -507 177t-192 513v231h-1021v-893h-309v2048h309v-890h1021v890h310v-1386q0 -212 102.5 -314t286.5 -102q185 0 282.5 102t97.5 314v860h310v-860q0 -340 -190.5 -515t-499.5 -175z" />
    <glyph glyph-name="uni0397" unicode="&#x397;" horiz-adv-x="2090" 
d="M225 0v2048h309v-890h1021v890h310v-2048h-310v893h-1021v-893h-309z" />
    <glyph glyph-name="uni0389" unicode="&#x389;" horiz-adv-x="2490" 
d="M626 0v2048h309v-890h1021v890h310v-2048h-310v893h-1021v-893h-309zM191 1712l81 470h297l-185 -470h-193z" />
    <glyph glyph-name="uni1F28" unicode="&#x1f28;" horiz-adv-x="2542" 
d="M678 0v2048h309v-890h1021v890h310v-2048h-310v893h-1021v-893h-309zM543 2048v-118q0 -123 -64.5 -220.5t-180.5 -157.5l-112 98q112 106 112 288v110h245z" />
    <glyph glyph-name="uni1F29" unicode="&#x1f29;" horiz-adv-x="2517" 
d="M652 0v2048h309v-890h1021v890h310v-2048h-310v893h-1021v-893h-309zM190 1930v118h246v-110q1 -90 26.5 -160.5t84.5 -127.5l-112 -98q-112 60 -178.5 157.5t-66.5 220.5z" />
    <glyph glyph-name="uni1F2A" unicode="&#x1f2a;" horiz-adv-x="3078" 
d="M1213 0v2048h309v-890h1021v890h310v-2048h-310v893h-1021v-893h-309zM553 2048v-112q1 -120 -66 -219t-189 -165l-109 84q55 63 84 136.5t29 171.5v104h251zM1066 1604v-20h-129l-320 436v28h292z" />
    <glyph glyph-name="uni1F2B" unicode="&#x1f2b;" horiz-adv-x="2981" 
d="M1116 0v2048h309v-890h1021v890h310v-2048h-310v893h-1021v-893h-309zM187 1930v118h247v-110q0 -90 25.5 -160.5t86.5 -127.5l-112 -98q-115 60 -181 157.5t-66 220.5zM982 1607v-24h-130l-319 437v28h295z" />
    <glyph glyph-name="uni1F2C" unicode="&#x1f2c;" horiz-adv-x="2977" 
d="M1112 0v2048h309v-890h1021v890h310v-2048h-310v893h-1021v-893h-309zM549 2048v-118q0 -123 -66.5 -220.5t-180.5 -157.5l-111 98q110 108 111 288v110h247zM576 1583v24l158 441h291v-28l-319 -437h-130z" />
    <glyph glyph-name="uni1F2D" unicode="&#x1f2d;" horiz-adv-x="3022" 
d="M1157 0v2048h309v-890h1021v890h310v-2048h-310v893h-1021v-893h-309zM190 1930v118h246v-110q0 -178 110 -288l-111 -98q-112 59 -178.5 156.5t-66.5 221.5zM607 1583v24l153 441h295v-28l-320 -437h-128z" />
    <glyph glyph-name="uni1F2E" unicode="&#x1f2e;" horiz-adv-x="2806" 
d="M941 0v2048h309v-890h1021v890h310v-2048h-310v893h-1021v-893h-309zM834 2378l138 -42q0 -99 -65 -173.5t-167 -74.5q-74 0 -121 24.5t-89 49t-103 24.5q-43 0 -73 -35t-30 -85l-138 37q0 99 63.5 177t165.5 78q62 0 110.5 -25t96.5 -50t106 -25q44 0 75 34.5t31 85.5z
M711 2019v-101q0 -86 -47.5 -171.5t-133.5 -138.5l-117 79q48 50 66.5 108t18.5 123v101h213z" />
    <glyph glyph-name="uni1F2F" unicode="&#x1f2f;" horiz-adv-x="2826" 
d="M962 0v2048h309v-890h1021v890h310v-2048h-310v893h-1021v-893h-309zM834 2378l138 -42q0 -99 -65 -173.5t-167 -74.5q-74 0 -121 24.5t-89 49t-103 24.5q-43 0 -73 -35t-30 -85l-138 37q0 99 63.5 177t165.5 78q62 0 110.5 -25t96.5 -50t106 -25q44 0 75 34.5t31 85.5z
M489 1918v101h213v-101q0 -65 18.5 -123t66.5 -108l-121 -79q-84 53 -130.5 138t-46.5 172z" />
    <glyph glyph-name="uni1FCA" unicode="&#x1fca;" horiz-adv-x="2650" 
d="M785 0v2048h309v-890h1021v890h310v-2048h-310v893h-1021v-893h-309zM636 1580h-128l-319 440v28h291l156 -439v-29z" />
    <glyph glyph-name="uni1FCB" unicode="&#x1fcb;" horiz-adv-x="2586" 
d="M721 0v2048h309v-890h1021v890h310v-2048h-310v893h-1021v-893h-309zM292 1728v29l154 439h321v-28l-319 -440h-156z" />
    <glyph glyph-name="uni041D" unicode="&#x41d;" horiz-adv-x="2090" 
d="M225 0v2048h309v-890h1021v890h310v-2048h-310v893h-1021v-893h-309z" />
    <glyph glyph-name="uni1F98" unicode="&#x1f98;" horiz-adv-x="2454" 
d="M590 0v2048h309v-890h1021v890h310v-2048h-310v893h-1021v-893h-309zM1539 -680q-104 0 -172.5 60.5t-68.5 196.5v299h223v-296q0 -99 70 -99q17 0 34.5 2t26.5 2v-148q-19 -7 -46 -12t-67 -5zM455 2048v-118q0 -123 -64.5 -220.5t-180.5 -157.5l-112 98q112 106 112 288
v110h245z" />
    <glyph glyph-name="uni1F99" unicode="&#x1f99;" horiz-adv-x="2517" 
d="M652 0v2048h309v-890h1021v890h310v-2048h-310v893h-1021v-893h-309zM1601 -680q-104 0 -172.5 60.5t-68.5 196.5v299h223v-296q0 -99 70 -99q17 0 34.5 2t26.5 2v-148q-19 -7 -46 -12t-67 -5zM190 1930v118h246v-110q1 -90 26.5 -160.5t84.5 -127.5l-112 -98
q-112 60 -178.5 157.5t-66.5 220.5z" />
    <glyph glyph-name="uni1F9A" unicode="&#x1f9a;" horiz-adv-x="3078" 
d="M1213 0v2048h309v-890h1021v890h310v-2048h-310v893h-1021v-893h-309zM2162 -680q-104 0 -172.5 60.5t-68.5 196.5v299h223v-296q0 -99 70 -99q17 0 34.5 2t26.5 2v-148q-19 -7 -46 -12t-67 -5zM553 2048v-112q1 -120 -66 -219t-189 -165l-109 84q55 63 84 136.5
t29 171.5v104h251zM1066 1604v-20h-129l-320 436v28h292z" />
    <glyph glyph-name="uni1F9B" unicode="&#x1f9b;" horiz-adv-x="2981" 
d="M1116 0v2048h309v-890h1021v890h310v-2048h-310v893h-1021v-893h-309zM2065 -680q-104 0 -172.5 60.5t-68.5 196.5v299h223v-296q0 -99 70 -99q17 0 34.5 2t26.5 2v-148q-19 -7 -46 -12t-67 -5zM187 1930v118h247v-110q0 -90 25.5 -160.5t86.5 -127.5l-112 -98
q-115 60 -181 157.5t-66 220.5zM982 1607v-24h-130l-319 437v28h295z" />
    <glyph glyph-name="uni1F9C" unicode="&#x1f9c;" horiz-adv-x="2977" 
d="M1112 0v2048h309v-890h1021v890h310v-2048h-310v893h-1021v-893h-309zM2061 -680q-104 0 -172.5 60.5t-68.5 196.5v299h223v-296q0 -99 70 -99q17 0 34.5 2t26.5 2v-148q-19 -7 -46 -12t-67 -5zM549 2048v-118q0 -123 -66.5 -220.5t-180.5 -157.5l-111 98
q110 108 111 288v110h247zM576 1583v24l158 441h291v-28l-319 -437h-130z" />
    <glyph glyph-name="uni1F9D" unicode="&#x1f9d;" horiz-adv-x="3022" 
d="M1157 0v2048h309v-890h1021v890h310v-2048h-310v893h-1021v-893h-309zM2106 -680q-104 0 -172.5 60.5t-68.5 196.5v299h223v-296q0 -99 70 -99q17 0 34.5 2t26.5 2v-148q-19 -7 -46 -12t-67 -5zM190 1930v118h246v-110q0 -178 110 -288l-111 -98q-112 59 -178.5 156.5
t-66.5 221.5zM607 1583v24l153 441h295v-28l-320 -437h-128z" />
    <glyph glyph-name="uni1F9E" unicode="&#x1f9e;" horiz-adv-x="2806" 
d="M941 0v2048h309v-890h1021v890h310v-2048h-310v893h-1021v-893h-309zM1890 -680q-104 0 -172.5 60.5t-68.5 196.5v299h223v-296q0 -99 70 -99q17 0 34.5 2t26.5 2v-148q-19 -7 -46 -12t-67 -5zM834 2378l138 -42q0 -99 -65 -173.5t-167 -74.5q-74 0 -121 24.5t-89 49
t-103 24.5q-43 0 -73 -35t-30 -85l-138 37q0 99 63.5 177t165.5 78q62 0 110.5 -25t96.5 -50t106 -25q44 0 75 34.5t31 85.5zM711 2019v-101q0 -86 -47.5 -171.5t-133.5 -138.5l-117 79q48 50 66.5 108t18.5 123v101h213z" />
    <glyph glyph-name="uni1F9F" unicode="&#x1f9f;" horiz-adv-x="2826" 
d="M962 0v2048h309v-890h1021v890h310v-2048h-310v893h-1021v-893h-309zM1911 -680q-104 0 -172.5 60.5t-68.5 196.5v299h223v-296q0 -99 70 -99q17 0 34.5 2t26.5 2v-148q-19 -7 -46 -12t-67 -5zM834 2378l138 -42q0 -99 -65 -173.5t-167 -74.5q-74 0 -121 24.5t-89 49
t-103 24.5q-43 0 -73 -35t-30 -85l-138 37q0 99 63.5 177t165.5 78q62 0 110.5 -25t96.5 -50t106 -25q44 0 75 34.5t31 85.5zM489 1918v101h213v-101q0 -65 18.5 -123t66.5 -108l-121 -79q-84 53 -130.5 138t-46.5 172z" />
    <glyph glyph-name="uni1FCC" unicode="&#x1fcc;" horiz-adv-x="2090" 
d="M225 0v2048h309v-890h1021v890h310v-2048h-310v893h-1021v-893h-309zM1174 -680q-104 0 -172.5 60.5t-68.5 196.5v299h223v-296q0 -99 70 -99q17 0 34.5 2t26.5 2v-148q-19 -7 -46 -12t-67 -5z" />
    <glyph glyph-name="uni0049" unicode="I" horiz-adv-x="759" 
d="M534 2048v-2048h-309v2048h309z" />
    <glyph glyph-name="uni00CF" unicode="&#xcf;" horiz-adv-x="759" 
d="M534 2048v-2048h-309v2048h309zM86 2289q-70 0 -123.5 52t-53.5 122q0 74 53.5 124.5t123.5 50.5q75 0 125.5 -50.5t50.5 -124.5q0 -70 -50.5 -122t-125.5 -52zM674 2289q-70 0 -123.5 52t-53.5 122q0 74 53.5 124.5t123.5 50.5q75 0 125.5 -50.5t50.5 -124.5
q0 -70 -50.5 -122t-125.5 -52z" />
    <glyph glyph-name="uni1E2E" unicode="&#x1e2e;" horiz-adv-x="759" 
d="M534 2048v-2048h-309v2048h309zM670 2200q-70 0 -122.5 51t-52.5 120q0 72 52.5 121.5t122.5 49.5q74 0 123.5 -49.5t49.5 -121.5q0 -69 -49.5 -120t-123.5 -51zM89 2200q-69 0 -121.5 51t-52.5 120q0 72 52.5 121.5t121.5 49.5q74 0 124 -49.5t50 -121.5q0 -69 -50 -120
t-124 -51zM256 2680l287 320h311l-357 -320h-241z" />
    <glyph glyph-name="uni0197" unicode="&#x197;" horiz-adv-x="759" 
d="M534 2048v-2048h-309v2048h309zM-81 960v207h919v-207h-919z" />
    <glyph glyph-name="uni1E2C" unicode="&#x1e2c;" horiz-adv-x="759" 
d="M534 2048v-2048h-309v2048h309zM149 -521l-201 6q0 166 89.5 265t221.5 99q82 0 138.5 -33.5t108 -67.5t118.5 -34q58 0 94 44t37 109l197 -13q0 -167 -90 -262.5t-221 -96.5q-71 0 -117.5 20.5t-82.5 47.5t-74 47.5t-91 20.5q-55 0 -91 -43.5t-36 -108.5z" />
    <glyph glyph-name="uni00CC" unicode="&#xcc;" horiz-adv-x="759" 
d="M534 2048v-2048h-309v2048h309zM264 2253l-309 461h315l233 -461h-239z" />
    <glyph glyph-name="uni00CD" unicode="&#xcd;" horiz-adv-x="759" 
d="M534 2048v-2048h-309v2048h309zM257 2253l234 461h315l-310 -461h-239z" />
    <glyph glyph-name="uni00CE" unicode="&#xce;" horiz-adv-x="759" 
d="M534 2048v-2048h-309v2048h309zM174 2232l206 268l205 -268h271v15l-352 424h-249l-351 -424v-15h270z" />
    <glyph glyph-name="uni0128" unicode="&#x128;" horiz-adv-x="1255" 
d="M781 2048v-2048h-309v2048h309zM326 2234l-201 6q0 166 89.5 265t221.5 99q82 0 138.5 -33.5t108 -67.5t118.5 -34q58 0 94 44t37 109l197 -13q0 -167 -90 -262.5t-221 -96.5q-71 0 -117.5 20.5t-82.5 47.5t-74 47.5t-91 20.5q-55 0 -91 -43.5t-36 -108.5z" />
    <glyph glyph-name="uni012A" unicode="&#x12a;" horiz-adv-x="759" 
d="M534 2048v-2048h-309v2048h309zM855 2560v-210h-949v210h949z" />
    <glyph glyph-name="uni012C" unicode="&#x12c;" horiz-adv-x="759" 
d="M534 2048v-2048h-309v2048h309zM576 2568h246q0 -169 -119.5 -274.5t-322.5 -105.5q-202 0 -321 105.5t-119 274.5h245q0 -75 44.5 -132.5t150.5 -57.5q105 0 150.5 57t45.5 133z" />
    <glyph glyph-name="uni012E" unicode="&#x12e;" horiz-adv-x="757" 
d="M536 2048v-2048h-309v2048h309zM345 -591q-126 0 -209.5 68t-91.5 196q-7 115 65.5 228.5t248.5 192.5l178 -94q-91 -58 -158.5 -124.5t-67.5 -150.5q0 -46 23 -72t79 -26q41 0 73 11t52 21l26 -190q-34 -21 -89 -40.5t-129 -19.5z" />
    <glyph glyph-name="uni0130" unicode="&#x130;" horiz-adv-x="759" 
d="M534 2048v-2048h-309v2048h309zM380 2285q-78 0 -133.5 52.5t-55.5 125.5q0 74 55.5 126.5t133.5 52.5q77 0 133 -52.5t56 -126.5q0 -73 -56 -125.5t-133 -52.5z" />
    <glyph glyph-name="uni01CF" unicode="&#x1cf;" horiz-adv-x="759" 
d="M534 2048v-2048h-309v2048h309zM174 2671l206 -268l205 268h271v-15l-352 -424h-249l-351 424v15h270z" />
    <glyph glyph-name="uni0208" unicode="&#x208;" horiz-adv-x="759" 
d="M534 2048v-2048h-309v2048h309zM564 2253l-266 371l201 90l209 -372zM118 2253l-337 371l175 90l290 -372z" />
    <glyph glyph-name="uni020A" unicode="&#x20a;" horiz-adv-x="759" 
d="M534 2048v-2048h-309v2048h309zM-60 2288q0 168 119 277t324 109q203 0 321 -109t119 -277h-246q0 77 -45 134.5t-149 57.5q-109 0 -153 -58.5t-44 -133.5h-246z" />
    <glyph glyph-name="uni1EC8" unicode="&#x1ec8;" horiz-adv-x="759" 
d="M534 2048v-2048h-309v2048h309zM502 2260h-236l-8 204q106 5 150 28.5t43 68.5q1 54 -60 77t-150 23l9 165q227 0 344.5 -72t116.5 -194q1 -98 -64.5 -145t-144.5 -59v-96z" />
    <glyph glyph-name="uni1ECA" unicode="&#x1eca;" horiz-adv-x="759" 
d="M534 2048v-2048h-309v2048h309zM379 -530q-78 0 -133.5 52.5t-55.5 125.5q0 74 55.5 126.5t133.5 52.5q77 0 133 -52.5t56 -126.5q0 -73 -56 -125.5t-133 -52.5z" />
    <glyph glyph-name="uni0399" unicode="&#x399;" horiz-adv-x="759" 
d="M534 2048v-2048h-309v2048h309z" />
    <glyph glyph-name="uni038A" unicode="&#x38a;" horiz-adv-x="934" 
d="M708 2048v-2048h-309v2048h309zM13 1712l81 470h297l-185 -470h-193z" />
    <glyph glyph-name="uni03AA" unicode="&#x3aa;" horiz-adv-x="759" 
d="M534 2048v-2048h-309v2048h309zM86 2289q-70 0 -123.5 52t-53.5 122q0 74 53.5 124.5t123.5 50.5q75 0 125.5 -50.5t50.5 -124.5q0 -70 -50.5 -122t-125.5 -52zM674 2289q-70 0 -123.5 52t-53.5 122q0 74 53.5 124.5t123.5 50.5q75 0 125.5 -50.5t50.5 -124.5
q0 -70 -50.5 -122t-125.5 -52z" />
    <glyph glyph-name="uni1F38" unicode="&#x1f38;" horiz-adv-x="1162" 
d="M939 2048v-2048h-309v2048h309zM543 2048v-118q0 -123 -64.5 -220.5t-180.5 -157.5l-112 98q112 106 112 288v110h245z" />
    <glyph glyph-name="uni1F39" unicode="&#x1f39;" horiz-adv-x="1136" 
d="M913 2048v-2048h-309v2048h309zM190 1930v118h246v-110q1 -90 26.5 -160.5t84.5 -127.5l-112 -98q-112 60 -178.5 157.5t-66.5 220.5z" />
    <glyph glyph-name="uni1F3A" unicode="&#x1f3a;" horiz-adv-x="1697" 
d="M1474 2048v-2048h-309v2048h309zM553 2048v-112q1 -120 -66 -219t-189 -165l-109 84q55 63 84 136.5t29 171.5v104h251zM1066 1604v-20h-129l-320 436v28h292z" />
    <glyph glyph-name="uni1F3B" unicode="&#x1f3b;" horiz-adv-x="1600" 
d="M1377 2048v-2048h-309v2048h309zM187 1930v118h247v-110q0 -90 25.5 -160.5t86.5 -127.5l-112 -98q-115 60 -181 157.5t-66 220.5zM982 1607v-24h-130l-319 437v28h295z" />
    <glyph glyph-name="uni1F3C" unicode="&#x1f3c;" horiz-adv-x="1596" 
d="M1373 2048v-2048h-309v2048h309zM549 2048v-118q0 -123 -66.5 -220.5t-180.5 -157.5l-111 98q110 108 111 288v110h247zM576 1583v24l158 441h291v-28l-319 -437h-130z" />
    <glyph glyph-name="uni1F3D" unicode="&#x1f3d;" horiz-adv-x="1641" 
d="M1418 2048v-2048h-309v2048h309zM190 1930v118h246v-110q0 -178 110 -288l-111 -98q-112 59 -178.5 156.5t-66.5 221.5zM607 1583v24l153 441h295v-28l-320 -437h-128z" />
    <glyph glyph-name="uni1F3E" unicode="&#x1f3e;" horiz-adv-x="1425" 
d="M1202 2048v-2048h-309v2048h309zM834 2378l138 -42q0 -99 -65 -173.5t-167 -74.5q-74 0 -121 24.5t-89 49t-103 24.5q-43 0 -73 -35t-30 -85l-138 37q0 99 63.5 177t165.5 78q62 0 110.5 -25t96.5 -50t106 -25q44 0 75 34.5t31 85.5zM711 2019v-101q0 -86 -47.5 -171.5
t-133.5 -138.5l-117 79q48 50 66.5 108t18.5 123v101h213z" />
    <glyph glyph-name="uni1F3F" unicode="&#x1f3f;" horiz-adv-x="1446" 
d="M1223 2048v-2048h-309v2048h309zM834 2378l138 -42q0 -99 -65 -173.5t-167 -74.5q-74 0 -121 24.5t-89 49t-103 24.5q-43 0 -73 -35t-30 -85l-138 37q0 99 63.5 177t165.5 78q62 0 110.5 -25t96.5 -50t106 -25q44 0 75 34.5t31 85.5zM489 1918v101h213v-101
q0 -65 18.5 -123t66.5 -108l-121 -79q-84 53 -130.5 138t-46.5 172z" />
    <glyph glyph-name="uni1FD8" unicode="&#x1fd8;" horiz-adv-x="759" 
d="M534 2048v-2048h-309v2048h309zM576 2568h246q0 -169 -119.5 -274.5t-322.5 -105.5q-202 0 -321 105.5t-119 274.5h245q0 -75 44.5 -132.5t150.5 -57.5q105 0 150.5 57t45.5 133z" />
    <glyph glyph-name="uni1FD9" unicode="&#x1fd9;" horiz-adv-x="759" 
d="M534 2048v-2048h-309v2048h309zM855 2560v-210h-949v210h949z" />
    <glyph glyph-name="uni1FDA" unicode="&#x1fda;" horiz-adv-x="1269" 
d="M1046 2048v-2048h-309v2048h309zM636 1580h-128l-319 440v28h291l156 -439v-29z" />
    <glyph glyph-name="uni1FDB" unicode="&#x1fdb;" horiz-adv-x="1205" 
d="M982 2048v-2048h-309v2048h309zM292 1728v29l154 439h321v-28l-319 -440h-156z" />
    <glyph glyph-name="uni0406" unicode="&#x406;" horiz-adv-x="759" 
d="M534 2048v-2048h-309v2048h309z" />
    <glyph glyph-name="uni0407" unicode="&#x407;" horiz-adv-x="759" 
d="M534 2048v-2048h-309v2048h309zM86 2289q-70 0 -123.5 52t-53.5 122q0 74 53.5 124.5t123.5 50.5q75 0 125.5 -50.5t50.5 -124.5q0 -70 -50.5 -122t-125.5 -52zM674 2289q-70 0 -123.5 52t-53.5 122q0 74 53.5 124.5t123.5 50.5q75 0 125.5 -50.5t50.5 -124.5
q0 -70 -50.5 -122t-125.5 -52z" />
    <glyph glyph-name="uniE00C" unicode="&#xe00c;" horiz-adv-x="1282" 
d="M124 1782v266h1034v-266h-362v-1516h362v-266h-1034v266h363v1516h-363z" />
    <glyph glyph-name="uniE00D" unicode="&#xe00d;" horiz-adv-x="1282" 
d="M124 1782v266h1034v-266h-362v-1516h362v-266h-1034v266h363v1516h-363zM348 2289q-70 0 -123.5 52t-53.5 122q0 74 53.5 124.5t123.5 50.5q75 0 125.5 -50.5t50.5 -124.5q0 -70 -50.5 -122t-125.5 -52zM936 2289q-70 0 -123.5 52t-53.5 122q0 74 53.5 124.5t123.5 50.5
q75 0 125.5 -50.5t50.5 -124.5q0 -70 -50.5 -122t-125.5 -52z" />
    <glyph glyph-name="uniE00E" unicode="&#xe00e;" horiz-adv-x="1282" 
d="M124 1782v266h1034v-266h-362v-1516h362v-266h-1034v266h363v1516h-363zM932 2200q-70 0 -122.5 51t-52.5 120q0 72 52.5 121.5t122.5 49.5q74 0 123.5 -49.5t49.5 -121.5q0 -69 -49.5 -120t-123.5 -51zM351 2200q-69 0 -121.5 51t-52.5 120q0 72 52.5 121.5t121.5 49.5
q74 0 124 -49.5t50 -121.5q0 -69 -50 -120t-124 -51zM518 2680l287 320h311l-357 -320h-241z" />
    <glyph glyph-name="uniE00F" unicode="&#xe00f;" horiz-adv-x="1282" 
d="M124 1782v266h1034v-266h-362v-1516h362v-266h-1034v266h363v1516h-363zM181 960v207h919v-207h-919z" />
    <glyph glyph-name="uniE010" unicode="&#xe010;" horiz-adv-x="1282" 
d="M124 1782v266h1034v-266h-362v-1516h362v-266h-1034v266h363v1516h-363zM411 -521l-201 6q0 166 89.5 265t221.5 99q82 0 138.5 -33.5t108 -67.5t118.5 -34q58 0 94 44t37 109l197 -13q0 -167 -90 -262.5t-221 -96.5q-71 0 -117.5 20.5t-82.5 47.5t-74 47.5t-91 20.5
q-55 0 -91 -43.5t-36 -108.5z" />
    <glyph glyph-name="uniE011" unicode="&#xe011;" horiz-adv-x="1282" 
d="M124 1782v266h1034v-266h-362v-1516h362v-266h-1034v266h363v1516h-363zM525 2253l-309 461h315l233 -461h-239z" />
    <glyph glyph-name="uniE012" unicode="&#xe012;" horiz-adv-x="1282" 
d="M124 1782v266h1034v-266h-362v-1516h362v-266h-1034v266h363v1516h-363zM518 2253l234 461h315l-310 -461h-239z" />
    <glyph glyph-name="uniE013" unicode="&#xe013;" horiz-adv-x="1282" 
d="M124 1782v266h1034v-266h-362v-1516h362v-266h-1034v266h363v1516h-363zM436 2232l206 268l205 -268h271v15l-352 424h-249l-351 -424v-15h270z" />
    <glyph glyph-name="uniE014" unicode="&#xe014;" horiz-adv-x="1282" 
d="M124 1782v266h1034v-266h-362v-1516h362v-266h-1034v266h363v1516h-363zM341 2234l-201 6q0 166 89.5 265t221.5 99q82 0 138.5 -33.5t108 -67.5t118.5 -34q58 0 94 44t37 109l197 -13q0 -167 -90 -262.5t-221 -96.5q-71 0 -117.5 20.5t-82.5 47.5t-74 47.5t-91 20.5
q-55 0 -91 -43.5t-36 -108.5z" />
    <glyph glyph-name="uniE015" unicode="&#xe015;" horiz-adv-x="1282" 
d="M124 1782v266h1034v-266h-362v-1516h362v-266h-1034v266h363v1516h-363zM1116 2560v-210h-949v210h949z" />
    <glyph glyph-name="uniE016" unicode="&#xe016;" horiz-adv-x="1282" 
d="M124 1782v266h1034v-266h-362v-1516h362v-266h-1034v266h363v1516h-363zM838 2568h246q0 -169 -119.5 -274.5t-322.5 -105.5q-202 0 -321 105.5t-119 274.5h245q0 -75 44.5 -132.5t150.5 -57.5q105 0 150.5 57t45.5 133z" />
    <glyph glyph-name="uniE017" unicode="&#xe017;" horiz-adv-x="1282" 
d="M124 1782v266h1034v-266h-362v-1516h362v-266h-1034v266h363v1516h-363zM968 -591q-126 0 -209.5 68t-91.5 196q-7 115 65.5 228.5t248.5 192.5l178 -94q-91 -58 -158.5 -124.5t-67.5 -150.5q0 -46 23 -72t79 -26q41 0 73 11t52 21l26 -190q-34 -21 -89 -40.5t-129 -19.5
z" />
    <glyph glyph-name="uniE018" unicode="&#xe018;" horiz-adv-x="1282" 
d="M124 1782v266h1034v-266h-362v-1516h362v-266h-1034v266h363v1516h-363zM642 2285q-78 0 -133.5 52.5t-55.5 125.5q0 74 55.5 126.5t133.5 52.5q77 0 133 -52.5t56 -126.5q0 -73 -56 -125.5t-133 -52.5z" />
    <glyph glyph-name="uniE019" unicode="&#xe019;" horiz-adv-x="1282" 
d="M124 1782v266h1034v-266h-362v-1516h362v-266h-1034v266h363v1516h-363zM436 2671l206 -268l205 268h271v-15l-352 -424h-249l-351 424v15h270z" />
    <glyph glyph-name="uniE01A" unicode="&#xe01a;" horiz-adv-x="1282" 
d="M124 1782v266h1034v-266h-362v-1516h362v-266h-1034v266h363v1516h-363zM826 2253l-266 371l201 90l209 -372zM380 2253l-337 371l175 90l290 -372z" />
    <glyph glyph-name="uniE01B" unicode="&#xe01b;" horiz-adv-x="1282" 
d="M124 1782v266h1034v-266h-362v-1516h362v-266h-1034v266h363v1516h-363zM201 2288q0 168 119 277t324 109q203 0 321 -109t119 -277h-246q0 77 -45 134.5t-149 57.5q-109 0 -153 -58.5t-44 -133.5h-246z" />
    <glyph glyph-name="uniE01C" unicode="&#xe01c;" horiz-adv-x="1282" 
d="M124 1782v266h1034v-266h-362v-1516h362v-266h-1034v266h363v1516h-363zM764 2260h-236l-8 204q106 5 150 28.5t43 68.5q1 54 -60 77t-150 23l9 165q227 0 344.5 -72t116.5 -194q1 -98 -64.5 -145t-144.5 -59v-96z" />
    <glyph glyph-name="uniE01D" unicode="&#xe01d;" horiz-adv-x="1282" 
d="M124 1782v266h1034v-266h-362v-1516h362v-266h-1034v266h363v1516h-363zM641 -530q-78 0 -133.5 52.5t-55.5 125.5q0 74 55.5 126.5t133.5 52.5q77 0 133 -52.5t56 -126.5q0 -73 -56 -125.5t-133 -52.5z" />
    <glyph glyph-name="uniE01E" unicode="&#xe01e;" horiz-adv-x="1726" 
d="M567 1782v266h1034v-266h-362v-1516h362v-266h-1034v266h363v1516h-363zM481 2048v-118q0 -123 -64.5 -220.5t-180.5 -157.5l-112 98q112 106 112 288v110h245z" />
    <glyph glyph-name="uniE01F" unicode="&#xe01f;" horiz-adv-x="1697" 
d="M538 1782v266h1034v-266h-362v-1516h362v-266h-1034v266h363v1516h-363zM125 1930v118h246v-110q1 -90 26.5 -160.5t84.5 -127.5l-112 -98q-112 60 -178.5 157.5t-66.5 220.5z" />
    <glyph glyph-name="uniE020" unicode="&#xe020;" horiz-adv-x="2258" 
d="M1100 1782v266h1034v-266h-362v-1516h362v-266h-1034v266h363v1516h-363zM488 2048v-112q1 -120 -66 -219t-189 -165l-109 84q55 63 84 136.5t29 171.5v104h251zM1001 1604v-20h-129l-320 436v28h292z" />
    <glyph glyph-name="uniE021" unicode="&#xe021;" horiz-adv-x="2163" 
d="M1005 1782v266h1034v-266h-362v-1516h362v-266h-1034v266h363v1516h-363zM123 1930v118h247v-110q0 -90 25.5 -160.5t86.5 -127.5l-112 -98q-115 60 -181 157.5t-66 220.5zM918 1607v-24h-130l-319 437v28h295z" />
    <glyph glyph-name="uniE022" unicode="&#xe022;" horiz-adv-x="2156" 
d="M998 1782v266h1034v-266h-362v-1516h362v-266h-1034v266h363v1516h-363zM483 2048v-118q0 -123 -66.5 -220.5t-180.5 -157.5l-111 98q110 108 111 288v110h247zM510 1583v24l158 441h291v-28l-319 -437h-130z" />
    <glyph glyph-name="uniE023" unicode="&#xe023;" horiz-adv-x="2202" 
d="M1043 1782v266h1034v-266h-362v-1516h362v-266h-1034v266h363v1516h-363zM125 1930v118h246v-110q0 -178 110 -288l-111 -98q-112 59 -178.5 156.5t-66.5 221.5zM542 1583v24l153 441h295v-28l-320 -437h-128z" />
    <glyph glyph-name="uniE024" unicode="&#xe024;" horiz-adv-x="1988" 
d="M830 1782v266h1034v-266h-362v-1516h362v-266h-1034v266h363v1516h-363zM771 2378l138 -42q0 -99 -65 -173.5t-167 -74.5q-74 0 -121 24.5t-89 49t-103 24.5q-43 0 -73 -35t-30 -85l-138 37q0 99 63.5 177t165.5 78q62 0 110.5 -25t96.5 -50t106 -25q44 0 75 34.5
t31 85.5zM648 2019v-101q0 -86 -47.5 -171.5t-133.5 -138.5l-117 79q48 50 66.5 108t18.5 123v101h213z" />
    <glyph glyph-name="uniE025" unicode="&#xe025;" horiz-adv-x="2009" 
d="M850 1782v266h1034v-266h-362v-1516h362v-266h-1034v266h363v1516h-363zM771 2378l138 -42q0 -99 -65 -173.5t-167 -74.5q-74 0 -121 24.5t-89 49t-103 24.5q-43 0 -73 -35t-30 -85l-138 37q0 99 63.5 177t165.5 78q62 0 110.5 -25t96.5 -50t106 -25q44 0 75 34.5
t31 85.5zM426 1918v101h213v-101q0 -65 18.5 -123t66.5 -108l-121 -79q-84 53 -130.5 138t-46.5 172z" />
    <glyph glyph-name="uniE026" unicode="&#xe026;" horiz-adv-x="1282" 
d="M124 1782v266h1034v-266h-362v-1516h362v-266h-1034v266h363v1516h-363zM838 2568h246q0 -169 -119.5 -274.5t-322.5 -105.5q-202 0 -321 105.5t-119 274.5h245q0 -75 44.5 -132.5t150.5 -57.5q105 0 150.5 57t45.5 133z" />
    <glyph glyph-name="uniE027" unicode="&#xe027;" horiz-adv-x="1282" 
d="M124 1782v266h1034v-266h-362v-1516h362v-266h-1034v266h363v1516h-363zM1116 2560v-210h-949v210h949z" />
    <glyph glyph-name="uniE028" unicode="&#xe028;" horiz-adv-x="1830" 
d="M672 1782v266h1034v-266h-362v-1516h362v-266h-1034v266h363v1516h-363zM571 1580h-128l-319 440v28h291l156 -439v-29z" />
    <glyph glyph-name="uniE029" unicode="&#xe029;" horiz-adv-x="1766" 
d="M608 1782v266h1034v-266h-362v-1516h362v-266h-1034v266h363v1516h-363zM227 1728v29l154 439h321v-28l-319 -440h-156z" />
    <glyph glyph-name="uniE02A" unicode="&#xe02a;" horiz-adv-x="1282" 
d="M124 1782v266h1034v-266h-362v-1516h362v-266h-1034v266h363v1516h-363z" />
    <glyph glyph-name="uniE02B" unicode="&#xe02b;" horiz-adv-x="1282" 
d="M124 1782v266h1034v-266h-362v-1516h362v-266h-1034v266h363v1516h-363zM348 2289q-70 0 -123.5 52t-53.5 122q0 74 53.5 124.5t123.5 50.5q75 0 125.5 -50.5t50.5 -124.5q0 -70 -50.5 -122t-125.5 -52zM936 2289q-70 0 -123.5 52t-53.5 122q0 74 53.5 124.5t123.5 50.5
q75 0 125.5 -50.5t50.5 -124.5q0 -70 -50.5 -122t-125.5 -52z" />
    <glyph glyph-name="uni004A" unicode="J" horiz-adv-x="1554" 
d="M1021 2048h308v-1452q-1 -295 -171 -459.5t-452 -164.5q-173 0 -310.5 63t-217 183.5t-79.5 293.5h307q1 -127 86.5 -202.5t221.5 -75.5q147 0 226.5 92.5t80.5 269.5v1452z" />
    <glyph glyph-name="uni0134" unicode="&#x134;" horiz-adv-x="1554" 
d="M1021 2048h308v-1452q-1 -295 -171 -459.5t-452 -164.5q-173 0 -310.5 63t-217 183.5t-79.5 293.5h307q1 -127 86.5 -202.5t221.5 -75.5q147 0 226.5 92.5t80.5 269.5v1452zM969 2232l206 268l205 -268h271v15l-352 424h-249l-351 -424v-15h270z" />
    <glyph glyph-name="uni0248" unicode="&#x248;" horiz-adv-x="1554" 
d="M1021 2048h308v-1452q-1 -295 -171 -459.5t-452 -164.5q-173 0 -310.5 63t-217 183.5t-79.5 293.5h307q1 -127 86.5 -202.5t221.5 -75.5q147 0 226.5 92.5t80.5 269.5v1452zM714 1115v207h919v-207h-919z" />
    <glyph glyph-name="uni037F" unicode="&#x37f;" horiz-adv-x="1554" 
d="M1021 2048h308v-1452q-1 -295 -171 -459.5t-452 -164.5q-173 0 -310.5 63t-217 183.5t-79.5 293.5h307q1 -127 86.5 -202.5t221.5 -75.5q147 0 226.5 92.5t80.5 269.5v1452z" />
    <glyph glyph-name="uni0408" unicode="&#x408;" horiz-adv-x="1554" 
d="M1021 2048h308v-1452q-1 -295 -171 -459.5t-452 -164.5q-173 0 -310.5 63t-217 183.5t-79.5 293.5h307q1 -127 86.5 -202.5t221.5 -75.5q147 0 226.5 92.5t80.5 269.5v1452z" />
    <glyph glyph-name="uni004B" unicode="K" horiz-adv-x="1871" 
d="M225 0v2048h309v-978h25l859 978h389l-826 -922l829 -1126h-372l-662 915l-242 -278v-637h-309z" />
    <glyph glyph-name="uni0136" unicode="&#x136;" horiz-adv-x="1871" 
d="M225 0v2048h309v-978h25l859 978h389l-826 -922l829 -1126h-372l-662 915l-242 -278v-637h-309zM672 -671l116 510h293l-187 -510h-222z" />
    <glyph glyph-name="uni01E8" unicode="&#x1e8;" horiz-adv-x="1871" 
d="M225 0v2048h309v-978h25l859 978h389l-826 -922l829 -1126h-372l-662 915l-242 -278v-637h-309zM736 2671l206 -268l205 268h271v-15l-352 -424h-249l-351 424v15h270z" />
    <glyph glyph-name="uni1E30" unicode="&#x1e30;" horiz-adv-x="1871" 
d="M225 0v2048h309v-978h25l859 978h389l-826 -922l829 -1126h-372l-662 915l-242 -278v-637h-309zM818 2253l234 461h315l-310 -461h-239z" />
    <glyph glyph-name="uni1E32" unicode="&#x1e32;" horiz-adv-x="1871" 
d="M225 0v2048h309v-978h25l859 978h389l-826 -922l829 -1126h-372l-662 915l-242 -278v-637h-309zM934 -529q-78 0 -133.5 52.5t-55.5 125.5q0 74 55.5 126.5t133.5 52.5q77 0 133 -52.5t56 -126.5q0 -73 -56 -125.5t-133 -52.5z" />
    <glyph glyph-name="uni1E34" unicode="&#x1e34;" horiz-adv-x="1871" 
d="M225 0v2048h309v-978h25l859 978h389l-826 -922l829 -1126h-372l-662 915l-242 -278v-637h-309zM1409 -252v-210h-949v210h949z" />
    <glyph glyph-name="uni04A0" unicode="&#x4a0;" horiz-adv-x="2197" 
d="M1735 0l-692 918h-212v-918h-309v1789h-491v259h800v-865h106l797 865h383l-850 -926l845 -1122h-377z" />
    <glyph glyph-name="uni049A" unicode="&#x49a;" horiz-adv-x="2085" 
d="M1440 0l-692 918h-212v-918h-309v2048h309v-865h106l797 865h383l-850 -926l845 -1122h-377zM1905 218v-740h-296v740h296z" />
    <glyph glyph-name="uni0198" unicode="&#x198;" horiz-adv-x="1946" 
d="M225 0v2048h309v-971h25l766 834q133 143 292.5 159.5t305.5 -79.5l-113 -225q-72 43 -138 29.5t-140 -92.5l-550 -586l855 -1117h-373l-675 900l-255 -282v-618h-309z" />
    <glyph glyph-name="uni039A" unicode="&#x39a;" horiz-adv-x="1871" 
d="M225 0v2048h309v-978h25l859 978h389l-826 -922l829 -1126h-372l-662 915l-242 -278v-637h-309z" />
    <glyph glyph-name="uni004C" unicode="L" horiz-adv-x="1589" 
d="M225 0v2048h309v-1782h928v-266h-1237z" />
    <glyph glyph-name="uni0139" unicode="&#x139;" horiz-adv-x="1589" 
d="M225 0v2048h309v-1782h928v-266h-1237zM255 2253l234 461h315l-310 -461h-239z" />
    <glyph glyph-name="uni013B" unicode="&#x13b;" horiz-adv-x="1589" 
d="M225 0v2048h309v-1782h928v-266h-1237zM581 -672l116 510h293l-187 -510h-222z" />
    <glyph glyph-name="uni013D" unicode="&#x13d;" horiz-adv-x="1589" 
d="M225 0v2048h309v-1782h928v-266h-1237zM868 1626v521h268l-70 -521h-198z" />
    <glyph glyph-name="uni1E36" unicode="&#x1e36;" horiz-adv-x="1589" 
d="M225 0v2048h309v-1782h928v-266h-1237zM843 -530q-78 0 -133.5 52.5t-55.5 125.5q0 74 55.5 126.5t133.5 52.5q77 0 133 -52.5t56 -126.5q0 -73 -56 -125.5t-133 -52.5z" />
    <glyph glyph-name="uni1E38" unicode="&#x1e38;" horiz-adv-x="1589" 
d="M225 0v2048h309v-1782h928v-266h-1237zM843 -530q-78 0 -133.5 52.5t-55.5 125.5q0 74 55.5 126.5t133.5 52.5q77 0 133 -52.5t56 -126.5q0 -73 -56 -125.5t-133 -52.5zM853 2560v-210h-949v210h949z" />
    <glyph glyph-name="uni1E3A" unicode="&#x1e3a;" horiz-adv-x="1589" 
d="M225 0v2048h309v-1782h928v-266h-1237zM1318 -253v-210h-949v210h949z" />
    <glyph glyph-name="uni1E3C" unicode="&#x1e3c;" horiz-adv-x="1589" 
d="M225 0v2048h309v-1782h928v-266h-1237zM638 -567l206 268l205 -268h271v15l-352 424h-249l-351 -424v-15h270z" />
    <glyph glyph-name="uni0141" unicode="&#x141;" horiz-adv-x="1606" 
d="M904 1294v-199l-341 -103v-726h928v-266h-1237v899l-200 -60v199l200 60v950h309v-857z" />
    <glyph glyph-name="uni023D" unicode="&#x23d;" horiz-adv-x="1589" 
d="M225 0v2048h309v-1782h928v-266h-1237zM-81 960v207h919v-207h-919z" />
    <glyph glyph-name="uni01C8" unicode="&#x1c8;" horiz-adv-x="2290" 
d="M225 0v2048h309v-1782h928v-266h-1237zM1790 1536h299v-1634q0 -231 -124.5 -355t-365.5 -121h-58v258q14 -1 24.5 -1h23.5q107 0 154 57t47 164v1632zM1938 1773q-78 0 -133.5 52.5t-55.5 125.5q0 74 55.5 126.5t133.5 52.5q77 0 133 -52.5t56 -126.5q0 -73 -56 -125.5
t-133 -52.5z" />
    <glyph glyph-name="uni004D" unicode="M" horiz-adv-x="2528" 
d="M225 2048h375l652 -1592h24l652 1592h375v-2048h-294v1482h-19l-604 -1479h-244l-604 1480h-19v-1483h-294v2048z" />
    <glyph glyph-name="uni1E3E" unicode="&#x1e3e;" horiz-adv-x="2528" 
d="M225 2048h375l652 -1592h24l652 1592h375v-2048h-294v1482h-19l-604 -1479h-244l-604 1480h-19v-1483h-294v2048zM1141 2253l234 461h315l-310 -461h-239z" />
    <glyph glyph-name="uni1E40" unicode="&#x1e40;" horiz-adv-x="2528" 
d="M225 2048h375l652 -1592h24l652 1592h375v-2048h-294v1482h-19l-604 -1479h-244l-604 1480h-19v-1483h-294v2048zM1264 2285q-78 0 -133.5 52.5t-55.5 125.5q0 74 55.5 126.5t133.5 52.5q77 0 133 -52.5t56 -126.5q0 -73 -56 -125.5t-133 -52.5z" />
    <glyph glyph-name="uni1E42" unicode="&#x1e42;" horiz-adv-x="2528" 
d="M225 2048h375l652 -1592h24l652 1592h375v-2048h-294v1482h-19l-604 -1479h-244l-604 1480h-19v-1483h-294v2048zM1264 -530q-78 0 -133.5 52.5t-55.5 125.5q0 74 55.5 126.5t133.5 52.5q77 0 133 -52.5t56 -126.5q0 -73 -56 -125.5t-133 -52.5z" />
    <glyph glyph-name="uni04CD" unicode="&#x4cd;" horiz-adv-x="2590" 
d="M225 2048h375l652 -1592h24l652 1592h375v-2048h-294v1482h-19l-604 -1479h-244l-604 1480h-19v-1483h-294v2048zM2573 182v-205q-3 -292 -189 -524l-209 60q50 112 89 219t39 234v216h270z" />
    <glyph glyph-name="uni039C" unicode="&#x39c;" horiz-adv-x="2528" 
d="M225 2048h375l652 -1592h24l652 1592h375v-2048h-294v1482h-19l-604 -1479h-244l-604 1480h-19v-1483h-294v2048z" />
    <glyph glyph-name="uni03FA" unicode="&#x3fa;" horiz-adv-x="2528" 
d="M225 2048h375l652 -1592h24l652 1592h375v-2048h-294v1482h-19l-604 -1479h-244l-604 1480h-19v-1483h-294v2048z" />
    <glyph glyph-name="uni041C" unicode="&#x41c;" horiz-adv-x="2528" 
d="M225 2048h375l652 -1592h24l652 1592h375v-2048h-294v1482h-19l-604 -1479h-244l-604 1480h-19v-1483h-294v2048z" />
    <glyph glyph-name="uni004E" unicode="N" horiz-adv-x="2103" 
d="M1878 2048v-2048h-284l-1041 1502h-19v-1502h-309v2048h286l1042 -1504h19v1504h306z" />
    <glyph glyph-name="uni00D1" unicode="&#xd1;" horiz-adv-x="2103" 
d="M1878 2048v-2048h-284l-1041 1502h-19v-1502h-309v2048h286l1042 -1504h19v1504h306zM751 2234l-201 6q0 166 89.5 265t221.5 99q82 0 138.5 -33.5t108 -67.5t118.5 -34q58 0 94 44t37 109l197 -13q0 -167 -90 -262.5t-221 -96.5q-71 0 -117.5 20.5t-82.5 47.5t-74 47.5
t-91 20.5q-55 0 -91 -43.5t-36 -108.5z" />
    <glyph glyph-name="uni0143" unicode="&#x143;" horiz-adv-x="2103" 
d="M1878 2048v-2048h-284l-1041 1502h-19v-1502h-309v2048h286l1042 -1504h19v1504h306zM929 2253l234 461h315l-310 -461h-239z" />
    <glyph glyph-name="uni0145" unicode="&#x145;" horiz-adv-x="2103" 
d="M1878 2048v-2048h-284l-1041 1502h-19v-1502h-309v2048h286l1042 -1504h19v1504h306zM790 -672l116 510h293l-187 -510h-222z" />
    <glyph glyph-name="uni0147" unicode="&#x147;" horiz-adv-x="2103" 
d="M1878 2048v-2048h-284l-1041 1502h-19v-1502h-309v2048h286l1042 -1504h19v1504h306zM846 2671l206 -268l205 268h271v-15l-352 -424h-249l-351 424v15h270z" />
    <glyph glyph-name="uni01F8" unicode="&#x1f8;" horiz-adv-x="2103" 
d="M1878 2048v-2048h-284l-1041 1502h-19v-1502h-309v2048h286l1042 -1504h19v1504h306zM936 2253l-309 461h315l233 -461h-239z" />
    <glyph glyph-name="uni1E44" unicode="&#x1e44;" horiz-adv-x="2103" 
d="M1878 2048v-2048h-284l-1041 1502h-19v-1502h-309v2048h286l1042 -1504h19v1504h306zM1052 2285q-78 0 -133.5 52.5t-55.5 125.5q0 74 55.5 126.5t133.5 52.5q77 0 133 -52.5t56 -126.5q0 -73 -56 -125.5t-133 -52.5z" />
    <glyph glyph-name="uni1E46" unicode="&#x1e46;" horiz-adv-x="2103" 
d="M1878 2048v-2048h-284l-1041 1502h-19v-1502h-309v2048h286l1042 -1504h19v1504h306zM1052 -530q-78 0 -133.5 52.5t-55.5 125.5q0 74 55.5 126.5t133.5 52.5q77 0 133 -52.5t56 -126.5q0 -73 -56 -125.5t-133 -52.5z" />
    <glyph glyph-name="uni1E48" unicode="&#x1e48;" horiz-adv-x="2103" 
d="M1878 2048v-2048h-284l-1041 1502h-19v-1502h-309v2048h286l1042 -1504h19v1504h306zM1526 -253v-210h-949v210h949z" />
    <glyph glyph-name="uni1E4A" unicode="&#x1e4a;" horiz-adv-x="2103" 
d="M1878 2048v-2048h-284l-1041 1502h-19v-1502h-309v2048h286l1042 -1504h19v1504h306zM847 -567l206 268l205 -268h271v15l-352 424h-249l-351 -424v-15h270z" />
    <glyph glyph-name="uni019D" unicode="&#x19d;" horiz-adv-x="2127" 
d="M1902 2048v-2048h-284l-1041 1502h-19v-1643q0 -154 -63 -250t-165 -140.5t-221 -44.5q-37 0 -82 1.5t-75 9.5v245q33 -6 79 -6q92 0 155 39.5t63 148.5v2186h286l1042 -1504h19v1504h306z" />
    <glyph glyph-name="uni014A" unicode="&#x14a;" horiz-adv-x="2103" 
d="M1594 0l-1041 1502h-19v-1502h-309v2048h286l1042 -1504h19v1504h306v-2185q0 -229 -134.5 -339t-337.5 -110q-37 0 -75 2.5t-68 12.5v243q45 -10 100 -10q99 0 165 45t66 157v136z" />
    <glyph glyph-name="uni0418" unicode="&#x418;" horiz-adv-x="2103" 
d="M225 2048v-2048h284l1041 1502h19v-1502h309v2048h-286l-1042 -1504h-19v1504h-306z" />
    <glyph glyph-name="uni040D" unicode="&#x40d;" horiz-adv-x="2103" 
d="M225 2048v-2048h284l1041 1502h19v-1502h309v2048h-286l-1042 -1504h-19v1504h-306zM935 2253l-309 461h315l233 -461h-239z" />
    <glyph glyph-name="uni0419" unicode="&#x419;" horiz-adv-x="2103" 
d="M225 2048v-2048h284l1041 1502h19v-1502h309v2048h-286l-1042 -1504h-19v1504h-306zM1248 2568h246q0 -169 -119.5 -274.5t-322.5 -105.5q-202 0 -321 105.5t-119 274.5h245q0 -75 44.5 -132.5t150.5 -57.5q105 0 150.5 57t45.5 133z" />
    <glyph glyph-name="uni04E2" unicode="&#x4e2;" horiz-adv-x="2103" 
d="M225 2048v-2048h284l1041 1502h19v-1502h309v2048h-286l-1042 -1504h-19v1504h-306zM1526 2560v-210h-949v210h949z" />
    <glyph glyph-name="uni04E4" unicode="&#x4e4;" horiz-adv-x="2103" 
d="M225 2048v-2048h284l1041 1502h19v-1502h309v2048h-286l-1042 -1504h-19v1504h-306zM758 2289q-70 0 -123.5 52t-53.5 122q0 74 53.5 124.5t123.5 50.5q75 0 125.5 -50.5t50.5 -124.5q0 -70 -50.5 -122t-125.5 -52zM1346 2289q-70 0 -123.5 52t-53.5 122q0 74 53.5 124.5
t123.5 50.5q75 0 125.5 -50.5t50.5 -124.5q0 -70 -50.5 -122t-125.5 -52z" />
    <glyph glyph-name="uni048A" unicode="&#x48a;" horiz-adv-x="2103" 
d="M225 2048v-2048h284l1041 1502h19v-1502h309v2048h-286l-1042 -1504h-19v1504h-306zM1248 2568h246q0 -169 -119.5 -274.5t-322.5 -105.5q-202 0 -321 105.5t-119 274.5h245q0 -75 44.5 -132.5t150.5 -57.5q105 0 150.5 57t45.5 133zM2146 182v-205q-3 -292 -189 -524
l-209 60q50 112 89 219t39 234v216h270z" />
    <glyph glyph-name="uni0376" unicode="&#x376;" horiz-adv-x="2141" 
d="M243 2048v-2048h284l1041 1502h19v-1502h309v2048h-286l-1042 -1504h-19v1504h-306z" />
    <glyph glyph-name="uni039D" unicode="&#x39d;" horiz-adv-x="2103" 
d="M1878 2048v-2048h-284l-1041 1502h-19v-1502h-309v2048h286l1042 -1504h19v1504h306z" />
    <glyph glyph-name="uni01CB" unicode="&#x1cb;" horiz-adv-x="2753" 
d="M1878 2048v-2048h-284l-1041 1502h-19v-1502h-309v2048h286l1042 -1504h19v1504h306zM2253 1536h299v-1634q0 -231 -124.5 -355t-365.5 -121h-58v258q14 -1 24.5 -1h23.5q107 0 154 57t47 164v1632zM2401 1773q-78 0 -133.5 52.5t-55.5 125.5q0 74 55.5 126.5t133.5 52.5
q77 0 133 -52.5t56 -126.5q0 -73 -56 -125.5t-133 -52.5z" />
    <glyph glyph-name="uni004F" unicode="O" horiz-adv-x="2163" 
d="M2004 1024q0 -327 -120 -563t-328.5 -362.5t-473.5 -126.5q-266 0 -474.5 126.5t-328.5 362.5t-120 563q0 328 120 563.5t328.5 362t474.5 126.5q265 0 473.5 -126.5t328.5 -362t120 -563.5zM1698 1024q0 250 -80.5 421.5t-220 260t-315.5 88.5t-315.5 -88.5t-220 -260
t-80.5 -421.5q0 -249 80.5 -421t220 -260.5t315.5 -88.5t315.5 88.5t220 260.5t80.5 421z" />
    <glyph glyph-name="uni00D6" unicode="&#xd6;" horiz-adv-x="2163" 
d="M2004 1024q0 -327 -120 -563t-328.5 -362.5t-473.5 -126.5q-266 0 -474.5 126.5t-328.5 362.5t-120 563q0 328 120 563.5t328.5 362t474.5 126.5q265 0 473.5 -126.5t328.5 -362t120 -563.5zM1698 1024q0 250 -80.5 421.5t-220 260t-315.5 88.5t-315.5 -88.5t-220 -260
t-80.5 -421.5q0 -249 80.5 -421t220 -260.5t315.5 -88.5t315.5 88.5t220 260.5t80.5 421zM788 2289q-70 0 -123.5 52t-53.5 122q0 74 53.5 124.5t123.5 50.5q75 0 125.5 -50.5t50.5 -124.5q0 -70 -50.5 -122t-125.5 -52zM1376 2289q-70 0 -123.5 52t-53.5 122
q0 74 53.5 124.5t123.5 50.5q75 0 125.5 -50.5t50.5 -124.5q0 -70 -50.5 -122t-125.5 -52z" />
    <glyph glyph-name="uni00D5" unicode="&#xd5;" horiz-adv-x="2163" 
d="M2004 1024q0 -327 -120 -563t-328.5 -362.5t-473.5 -126.5q-266 0 -474.5 126.5t-328.5 362.5t-120 563q0 328 120 563.5t328.5 362t474.5 126.5q265 0 473.5 -126.5t328.5 -362t120 -563.5zM1698 1024q0 250 -80.5 421.5t-220 260t-315.5 88.5t-315.5 -88.5t-220 -260
t-80.5 -421.5q0 -249 80.5 -421t220 -260.5t315.5 -88.5t315.5 88.5t220 260.5t80.5 421zM781 2252l-201 6q0 166 89.5 265t221.5 99q82 0 138.5 -33.5t108 -67.5t118.5 -34q58 0 94 44t37 109l197 -13q0 -167 -90 -262.5t-221 -96.5q-71 0 -117.5 20.5t-82.5 47.5t-74 47.5
t-91 20.5q-55 0 -91 -43.5t-36 -108.5z" />
    <glyph glyph-name="uni00D8" unicode="&#xd8;" horiz-adv-x="2163" 
d="M442 -89l-166 114l151 221q-126 136 -197 333t-71 445q0 328 120 563.5t328.5 362t474.5 126.5q280 0 497 -141l135 198l167 -114l-147 -215q127 -136 198.5 -333.5t71.5 -446.5q0 -327 -120 -563t-328.5 -362.5t-473.5 -126.5q-283 0 -501 143zM1698 1024
q0 165 -36.5 296.5t-102.5 226.5l-813 -1191q144 -102 336 -102q176 0 315.5 88.5t220 260.5t80.5 421zM603 504l812 1190q-144 100 -333 100q-176 0 -315.5 -88.5t-220 -260t-80.5 -421.5q0 -164 36 -294.5t101 -225.5z" />
    <glyph glyph-name="uni01A0" unicode="&#x1a0;" horiz-adv-x="2217" 
d="M1930 2180h248q0 -215 -79 -355.5t-239 -193.5q69 -123 106.5 -275.5t37.5 -331.5q0 -327 -120 -563t-328.5 -362.5t-473.5 -126.5q-266 0 -474.5 126.5t-328.5 362.5t-120 563q0 328 120 563.5t328.5 362t474.5 126.5q392 0 645 -264q107 25 155 120.5t48 247.5z
M1698 1024q0 250 -80.5 421.5t-220 260t-315.5 88.5t-315.5 -88.5t-220 -260t-80.5 -421.5q0 -249 80.5 -421t220 -260.5t315.5 -88.5t315.5 88.5t220 260.5t80.5 421z" />
    <glyph glyph-name="uni00D2" unicode="&#xd2;" horiz-adv-x="2163" 
d="M2004 1024q0 -327 -120 -563t-328.5 -362.5t-473.5 -126.5q-266 0 -474.5 126.5t-328.5 362.5t-120 563q0 328 120 563.5t328.5 362t474.5 126.5q265 0 473.5 -126.5t328.5 -362t120 -563.5zM1698 1024q0 250 -80.5 421.5t-220 260t-315.5 88.5t-315.5 -88.5t-220 -260
t-80.5 -421.5q0 -249 80.5 -421t220 -260.5t315.5 -88.5t315.5 88.5t220 260.5t80.5 421zM965 2253l-309 461h315l233 -461h-239z" />
    <glyph glyph-name="uni00D3" unicode="&#xd3;" horiz-adv-x="2163" 
d="M2004 1024q0 -327 -120 -563t-328.5 -362.5t-473.5 -126.5q-266 0 -474.5 126.5t-328.5 362.5t-120 563q0 328 120 563.5t328.5 362t474.5 126.5q265 0 473.5 -126.5t328.5 -362t120 -563.5zM1698 1024q0 250 -80.5 421.5t-220 260t-315.5 88.5t-315.5 -88.5t-220 -260
t-80.5 -421.5q0 -249 80.5 -421t220 -260.5t315.5 -88.5t315.5 88.5t220 260.5t80.5 421zM958 2253l234 461h315l-310 -461h-239z" />
    <glyph glyph-name="uni00D4" unicode="&#xd4;" horiz-adv-x="2163" 
d="M2004 1024q0 -327 -120 -563t-328.5 -362.5t-473.5 -126.5q-266 0 -474.5 126.5t-328.5 362.5t-120 563q0 328 120 563.5t328.5 362t474.5 126.5q265 0 473.5 -126.5t328.5 -362t120 -563.5zM1698 1024q0 250 -80.5 421.5t-220 260t-315.5 88.5t-315.5 -88.5t-220 -260
t-80.5 -421.5q0 -249 80.5 -421t220 -260.5t315.5 -88.5t315.5 88.5t220 260.5t80.5 421zM876 2232l206 268l205 -268h271v15l-352 424h-249l-351 -424v-15h270z" />
    <glyph glyph-name="uni014C" unicode="&#x14c;" horiz-adv-x="2163" 
d="M2004 1024q0 -327 -120 -563t-328.5 -362.5t-473.5 -126.5q-266 0 -474.5 126.5t-328.5 362.5t-120 563q0 328 120 563.5t328.5 362t474.5 126.5q265 0 473.5 -126.5t328.5 -362t120 -563.5zM1698 1024q0 250 -80.5 421.5t-220 260t-315.5 88.5t-315.5 -88.5t-220 -260
t-80.5 -421.5q0 -249 80.5 -421t220 -260.5t315.5 -88.5t315.5 88.5t220 260.5t80.5 421zM1556 2560v-210h-949v210h949z" />
    <glyph glyph-name="uni014E" unicode="&#x14e;" horiz-adv-x="2163" 
d="M2004 1024q0 -327 -120 -563t-328.5 -362.5t-473.5 -126.5q-266 0 -474.5 126.5t-328.5 362.5t-120 563q0 328 120 563.5t328.5 362t474.5 126.5q265 0 473.5 -126.5t328.5 -362t120 -563.5zM1698 1024q0 250 -80.5 421.5t-220 260t-315.5 88.5t-315.5 -88.5t-220 -260
t-80.5 -421.5q0 -249 80.5 -421t220 -260.5t315.5 -88.5t315.5 88.5t220 260.5t80.5 421zM1278 2568h246q0 -169 -119.5 -274.5t-322.5 -105.5q-202 0 -321 105.5t-119 274.5h245q0 -75 44.5 -132.5t150.5 -57.5q105 0 150.5 57t45.5 133z" />
    <glyph glyph-name="uni0150" unicode="&#x150;" horiz-adv-x="2163" 
d="M2004 1024q0 -327 -120 -563t-328.5 -362.5t-473.5 -126.5q-266 0 -474.5 126.5t-328.5 362.5t-120 563q0 328 120 563.5t328.5 362t474.5 126.5q265 0 473.5 -126.5t328.5 -362t120 -563.5zM1698 1024q0 250 -80.5 421.5t-220 260t-315.5 88.5t-315.5 -88.5t-220 -260
t-80.5 -421.5q0 -249 80.5 -421t220 -260.5t315.5 -88.5t315.5 88.5t220 260.5t80.5 421zM1146 2219l311 421h296l-368 -421h-239zM701 2219l238 421h293l-307 -421h-224z" />
    <glyph glyph-name="uni01D1" unicode="&#x1d1;" horiz-adv-x="2163" 
d="M2004 1024q0 -327 -120 -563t-328.5 -362.5t-473.5 -126.5q-266 0 -474.5 126.5t-328.5 362.5t-120 563q0 328 120 563.5t328.5 362t474.5 126.5q265 0 473.5 -126.5t328.5 -362t120 -563.5zM1698 1024q0 250 -80.5 421.5t-220 260t-315.5 88.5t-315.5 -88.5t-220 -260
t-80.5 -421.5q0 -249 80.5 -421t220 -260.5t315.5 -88.5t315.5 88.5t220 260.5t80.5 421zM876 2671l206 -268l205 268h271v-15l-352 -424h-249l-351 424v15h270z" />
    <glyph glyph-name="uni01EA" unicode="&#x1ea;" horiz-adv-x="2163" 
d="M2004 1024q0 -327 -120 -563t-328.5 -362.5t-473.5 -126.5q-266 0 -474.5 126.5t-328.5 362.5t-120 563q0 328 120 563.5t328.5 362t474.5 126.5q265 0 473.5 -126.5t328.5 -362t120 -563.5zM1698 1024q0 250 -80.5 421.5t-220 260t-315.5 88.5t-315.5 -88.5t-220 -260
t-80.5 -421.5q0 -249 80.5 -421t220 -260.5t315.5 -88.5t315.5 88.5t220 260.5t80.5 421zM1105 -596q-126 0 -209.5 68t-91.5 196q-7 115 65.5 228.5t248.5 192.5l178 -94q-91 -58 -158.5 -124.5t-67.5 -150.5q0 -46 23 -72t79 -26q41 0 73 11t52 21l26 -190
q-34 -21 -89 -40.5t-129 -19.5z" />
    <glyph glyph-name="uni01EC" unicode="&#x1ec;" horiz-adv-x="2163" 
d="M2004 1024q0 -327 -120 -563t-328.5 -362.5t-473.5 -126.5q-266 0 -474.5 126.5t-328.5 362.5t-120 563q0 328 120 563.5t328.5 362t474.5 126.5q265 0 473.5 -126.5t328.5 -362t120 -563.5zM1698 1024q0 250 -80.5 421.5t-220 260t-315.5 88.5t-315.5 -88.5t-220 -260
t-80.5 -421.5q0 -249 80.5 -421t220 -260.5t315.5 -88.5t315.5 88.5t220 260.5t80.5 421zM1105 -596q-126 0 -209.5 68t-91.5 196q-7 115 65.5 228.5t248.5 192.5l178 -94q-91 -58 -158.5 -124.5t-67.5 -150.5q0 -46 23 -72t79 -26q41 0 73 11t52 21l26 -190
q-34 -21 -89 -40.5t-129 -19.5zM1556 2560v-210h-949v210h949z" />
    <glyph glyph-name="uni020C" unicode="&#x20c;" horiz-adv-x="2163" 
d="M2004 1024q0 -327 -120 -563t-328.5 -362.5t-473.5 -126.5q-266 0 -474.5 126.5t-328.5 362.5t-120 563q0 328 120 563.5t328.5 362t474.5 126.5q265 0 473.5 -126.5t328.5 -362t120 -563.5zM1698 1024q0 250 -80.5 421.5t-220 260t-315.5 88.5t-315.5 -88.5t-220 -260
t-80.5 -421.5q0 -249 80.5 -421t220 -260.5t315.5 -88.5t315.5 88.5t220 260.5t80.5 421zM1266 2253l-266 371l201 90l209 -372zM820 2253l-337 371l175 90l290 -372z" />
    <glyph glyph-name="uni020E" unicode="&#x20e;" horiz-adv-x="2163" 
d="M2004 1024q0 -327 -120 -563t-328.5 -362.5t-473.5 -126.5q-266 0 -474.5 126.5t-328.5 362.5t-120 563q0 328 120 563.5t328.5 362t474.5 126.5q265 0 473.5 -126.5t328.5 -362t120 -563.5zM1698 1024q0 250 -80.5 421.5t-220 260t-315.5 88.5t-315.5 -88.5t-220 -260
t-80.5 -421.5q0 -249 80.5 -421t220 -260.5t315.5 -88.5t315.5 88.5t220 260.5t80.5 421zM641 2288q0 168 119 277t324 109q203 0 321 -109t119 -277h-246q0 77 -45 134.5t-149 57.5q-109 0 -153 -58.5t-44 -133.5h-246z" />
    <glyph glyph-name="uni022A" unicode="&#x22a;" horiz-adv-x="2163" 
d="M2004 1024q0 -327 -120 -563t-328.5 -362.5t-473.5 -126.5q-266 0 -474.5 126.5t-328.5 362.5t-120 563q0 328 120 563.5t328.5 362t474.5 126.5q265 0 473.5 -126.5t328.5 -362t120 -563.5zM1698 1024q0 250 -80.5 421.5t-220 260t-315.5 88.5t-315.5 -88.5t-220 -260
t-80.5 -421.5q0 -249 80.5 -421t220 -260.5t315.5 -88.5t315.5 88.5t220 260.5t80.5 421zM788 2289q-70 0 -123.5 52t-53.5 122q0 74 53.5 124.5t123.5 50.5q75 0 125.5 -50.5t50.5 -124.5q0 -70 -50.5 -122t-125.5 -52zM1376 2289q-70 0 -123.5 52t-53.5 122
q0 74 53.5 124.5t123.5 50.5q75 0 125.5 -50.5t50.5 -124.5q0 -70 -50.5 -122t-125.5 -52zM1556 3072v-210h-949v210h949z" />
    <glyph glyph-name="uni022C" unicode="&#x22c;" horiz-adv-x="2163" 
d="M2004 1024q0 -327 -120 -563t-328.5 -362.5t-473.5 -126.5q-266 0 -474.5 126.5t-328.5 362.5t-120 563q0 328 120 563.5t328.5 362t474.5 126.5q265 0 473.5 -126.5t328.5 -362t120 -563.5zM1698 1024q0 250 -80.5 421.5t-220 260t-315.5 88.5t-315.5 -88.5t-220 -260
t-80.5 -421.5q0 -249 80.5 -421t220 -260.5t315.5 -88.5t315.5 88.5t220 260.5t80.5 421zM1559 2905v-217h-953v217h953zM1338 2550l139 -37q-1 -101 -66 -176t-167 -75q-74 0 -121.5 25t-89.5 50t-103 25q-43 0 -72.5 -37.5t-29.5 -85.5l-138 38q0 98 64 176t164 78
q62 0 111 -24t97 -48.5t106 -24.5q42 0 74 33t32 83z" />
    <glyph glyph-name="uni022E" unicode="&#x22e;" horiz-adv-x="2163" 
d="M2004 1024q0 -327 -120 -563t-328.5 -362.5t-473.5 -126.5q-266 0 -474.5 126.5t-328.5 362.5t-120 563q0 328 120 563.5t328.5 362t474.5 126.5q265 0 473.5 -126.5t328.5 -362t120 -563.5zM1698 1024q0 250 -80.5 421.5t-220 260t-315.5 88.5t-315.5 -88.5t-220 -260
t-80.5 -421.5q0 -249 80.5 -421t220 -260.5t315.5 -88.5t315.5 88.5t220 260.5t80.5 421zM1082 2285q-78 0 -133.5 52.5t-55.5 125.5q0 74 55.5 126.5t133.5 52.5q77 0 133 -52.5t56 -126.5q0 -73 -56 -125.5t-133 -52.5z" />
    <glyph glyph-name="uni0230" unicode="&#x230;" horiz-adv-x="2163" 
d="M2004 1024q0 -327 -120 -563t-328.5 -362.5t-473.5 -126.5q-266 0 -474.5 126.5t-328.5 362.5t-120 563q0 328 120 563.5t328.5 362t474.5 126.5q265 0 473.5 -126.5t328.5 -362t120 -563.5zM1698 1024q0 250 -80.5 421.5t-220 260t-315.5 88.5t-315.5 -88.5t-220 -260
t-80.5 -421.5q0 -249 80.5 -421t220 -260.5t315.5 -88.5t315.5 88.5t220 260.5t80.5 421zM1082 2215.72q-78 0 -133.5 50.334q-55.5 50.333 -55.5 120.321q0 70.9473 55.5 121.281t133.5 50.334q77 0 133 -50.334t56 -121.281q0 -69.9883 -56 -120.321
q-56 -50.334 -133 -50.334zM1555 2918.21v-199.926h-949v199.926h949z" />
    <glyph glyph-name="uni1E4C" unicode="&#x1e4c;" horiz-adv-x="2163" 
d="M2004 1024q0 -327 -120 -563t-328.5 -362.5t-473.5 -126.5q-266 0 -474.5 126.5t-328.5 362.5t-120 563q0 328 120 563.5t328.5 362t474.5 126.5q265 0 473.5 -126.5t328.5 -362t120 -563.5zM1698 1024q0 250 -80.5 421.5t-220 260t-315.5 88.5t-315.5 -88.5t-220 -260
t-80.5 -421.5q0 -249 80.5 -421t220 -260.5t315.5 -88.5t315.5 88.5t220 260.5t80.5 421zM785 2229l-199 6q0 162 88.5 259t218.5 97q81 0 136.5 -33t106.5 -66t118 -33q57 0 92.5 43t36.5 106l194 -12q0 -164 -88.5 -257.5t-218.5 -93.5q-70 0 -116 20t-81.5 46t-72.5 46.5
t-90 20.5q-55 0 -90 -42.5t-35 -106.5zM932 2680l287 320h311l-357 -320h-241z" />
    <glyph glyph-name="uni1E4E" unicode="&#x1e4e;" horiz-adv-x="2163" 
d="M2004 1024q0 -327 -120 -563t-328.5 -362.5t-473.5 -126.5q-266 0 -474.5 126.5t-328.5 362.5t-120 563q0 328 120 563.5t328.5 362t474.5 126.5q265 0 473.5 -126.5t328.5 -362t120 -563.5zM1698 1024q0 250 -80.5 421.5t-220 260t-315.5 88.5t-315.5 -88.5t-220 -260
t-80.5 -421.5q0 -249 80.5 -421t220 -260.5t315.5 -88.5t315.5 88.5t220 260.5t80.5 421zM1337 2542l139 -37q-1 -101 -66 -176t-166 -75q-74 0 -121.5 25t-89.5 50t-103 25q-43 0 -73 -36.5t-29 -86.5l-138 38q0 98 63 176t165 78q62 0 111 -24t97 -48.5t106 -24.5
q42 0 73.5 34t31.5 82zM1228 2780q-1 66 44.5 112t126.5 46q78 0 123 -45.5t45 -110.5t-43.5 -110.5t-125.5 -45.5q-80 0 -125.5 44t-44.5 110zM595 2782q0 65 43.5 110.5t123.5 45.5q81 0 126.5 -44.5t45.5 -111.5q0 -65 -45 -108.5t-127 -43.5q-78 0 -122.5 43.5
t-44.5 108.5z" />
    <glyph glyph-name="uni1E50" unicode="&#x1e50;" horiz-adv-x="2163" 
d="M2004 1024q0 -327 -120 -563t-328.5 -362.5t-473.5 -126.5q-266 0 -474.5 126.5t-328.5 362.5t-120 563q0 328 120 563.5t328.5 362t474.5 126.5q265 0 473.5 -126.5t328.5 -362t120 -563.5zM1698 1024q0 250 -80.5 421.5t-220 260t-315.5 88.5t-315.5 -88.5t-220 -260
t-80.5 -421.5q0 -249 80.5 -421t220 -260.5t315.5 -88.5t315.5 88.5t220 260.5t80.5 421zM1557 2507v-210h-949v210h949zM967 2654l-341 321h317l293 -321h-269z" />
    <glyph glyph-name="uni1E52" unicode="&#x1e52;" horiz-adv-x="2163" 
d="M2004 1024q0 -327 -120 -563t-328.5 -362.5t-473.5 -126.5q-266 0 -474.5 126.5t-328.5 362.5t-120 563q0 328 120 563.5t328.5 362t474.5 126.5q265 0 473.5 -126.5t328.5 -362t120 -563.5zM1698 1024q0 250 -80.5 421.5t-220 260t-315.5 88.5t-315.5 -88.5t-220 -260
t-80.5 -421.5q0 -249 80.5 -421t220 -260.5t315.5 -88.5t315.5 88.5t220 260.5t80.5 421zM1557 2507v-210h-949v210h949zM929 2654l293 321h318l-341 -321h-270z" />
    <glyph glyph-name="uni1ECC" unicode="&#x1ecc;" horiz-adv-x="2163" 
d="M2004 1024q0 -327 -120 -563t-328.5 -362.5t-473.5 -126.5q-266 0 -474.5 126.5t-328.5 362.5t-120 563q0 328 120 563.5t328.5 362t474.5 126.5q265 0 473.5 -126.5t328.5 -362t120 -563.5zM1698 1024q0 250 -80.5 421.5t-220 260t-315.5 88.5t-315.5 -88.5t-220 -260
t-80.5 -421.5q0 -249 80.5 -421t220 -260.5t315.5 -88.5t315.5 88.5t220 260.5t80.5 421zM1081 -530q-78 0 -133.5 52.5t-55.5 125.5q0 74 55.5 126.5t133.5 52.5q77 0 133 -52.5t56 -126.5q0 -73 -56 -125.5t-133 -52.5z" />
    <glyph glyph-name="uni1ECE" unicode="&#x1ece;" horiz-adv-x="2163" 
d="M2004 1024q0 -327 -120 -563t-328.5 -362.5t-473.5 -126.5q-266 0 -474.5 126.5t-328.5 362.5t-120 563q0 328 120 563.5t328.5 362t474.5 126.5q265 0 473.5 -126.5t328.5 -362t120 -563.5zM1698 1024q0 250 -80.5 421.5t-220 260t-315.5 88.5t-315.5 -88.5t-220 -260
t-80.5 -421.5q0 -249 80.5 -421t220 -260.5t315.5 -88.5t315.5 88.5t220 260.5t80.5 421zM1204 2260h-236l-8 204q106 5 150 28.5t43 68.5q1 54 -60 77t-150 23l9 165q227 0 344.5 -72t116.5 -194q1 -98 -64.5 -145t-144.5 -59v-96z" />
    <glyph glyph-name="uni1ED0" unicode="&#x1ed0;" horiz-adv-x="2163" 
d="M2004 1024q0 -327 -120 -563t-328.5 -362.5t-473.5 -126.5q-266 0 -474.5 126.5t-328.5 362.5t-120 563q0 328 120 563.5t328.5 362t474.5 126.5q265 0 473.5 -126.5t328.5 -362t120 -563.5zM1698 1024q0 250 -80.5 421.5t-220 260t-315.5 88.5t-315.5 -88.5t-220 -260
t-80.5 -421.5q0 -249 80.5 -421t220 -260.5t315.5 -88.5t315.5 88.5t220 260.5t80.5 421zM564 2232l406 347h223l407 -347h-294l-222 198l-224 -198h-296zM1493 2454l209 365h305l-295 -365h-219z" />
    <glyph glyph-name="uni1ED2" unicode="&#x1ed2;" horiz-adv-x="2163" 
d="M2004 1024q0 -327 -120 -563t-328.5 -362.5t-473.5 -126.5q-266 0 -474.5 126.5t-328.5 362.5t-120 563q0 328 120 563.5t328.5 362t474.5 126.5q265 0 473.5 -126.5t328.5 -362t120 -563.5zM1698 1024q0 250 -80.5 421.5t-220 260t-315.5 88.5t-315.5 -88.5t-220 -260
t-80.5 -421.5q0 -249 80.5 -421t220 -260.5t315.5 -88.5t315.5 88.5t220 260.5t80.5 421zM1191 2574l408 -347h-295l-222 198l-223 -198h-294l403 347h223zM463 2816l206 -367h-215l-298 367h307z" />
    <glyph glyph-name="uni1ED4" unicode="&#x1ed4;" horiz-adv-x="2163" 
d="M2004 1024q0 -327 -120 -563t-328.5 -362.5t-473.5 -126.5q-266 0 -474.5 126.5t-328.5 362.5t-120 563q0 328 120 563.5t328.5 362t474.5 126.5q265 0 473.5 -126.5t328.5 -362t120 -563.5zM1698 1024q0 250 -80.5 421.5t-220 260t-315.5 88.5t-315.5 -88.5t-220 -260
t-80.5 -421.5q0 -249 80.5 -421t220 -260.5t315.5 -88.5t315.5 88.5t220 260.5t80.5 421zM1212 2556l385 -347h-263l-256 227l-253 -227h-263l384 347h266zM1654 2396h-186l-6 172q84 6 124 23t40 58q0 47 -52 66t-131 19l9 142q188 0 285 -60.5t97 -164.5q0 -85 -56 -125.5
t-124 -49.5v-80z" />
    <glyph glyph-name="uni1ED6" unicode="&#x1ed6;" horiz-adv-x="2163" 
d="M2004 1024q0 -327 -120 -563t-328.5 -362.5t-473.5 -126.5q-266 0 -474.5 126.5t-328.5 362.5t-120 563q0 328 120 563.5t328.5 362t474.5 126.5q265 0 473.5 -126.5t328.5 -362t120 -563.5zM1698 1024q0 250 -80.5 421.5t-220 260t-315.5 88.5t-315.5 -88.5t-220 -260
t-80.5 -421.5q0 -249 80.5 -421t220 -260.5t315.5 -88.5t315.5 88.5t220 260.5t80.5 421zM1181 2516l415 -327h-264l-253 198l-252 -198h-265l415 327h204zM1317 2864l124 -39q0 -81 -61 -148.5t-154 -67.5q-66 0 -110 23.5t-82.5 47t-91.5 23.5q-39 0 -70.5 -31t-31.5 -68
l-120 32q0 80 59.5 149t152.5 69q55 0 100 -22.5t89.5 -45t94.5 -22.5q38 0 69.5 31.5t31.5 68.5z" />
    <glyph glyph-name="uni1ED8" unicode="&#x1ed8;" horiz-adv-x="2163" 
d="M2004 1024q0 -327 -120 -563t-328.5 -362.5t-473.5 -126.5q-266 0 -474.5 126.5t-328.5 362.5t-120 563q0 328 120 563.5t328.5 362t474.5 126.5q265 0 473.5 -126.5t328.5 -362t120 -563.5zM1698 1024q0 250 -80.5 421.5t-220 260t-315.5 88.5t-315.5 -88.5t-220 -260
t-80.5 -421.5q0 -249 80.5 -421t220 -260.5t315.5 -88.5t315.5 88.5t220 260.5t80.5 421zM876 2232l206 268l205 -268h271v15l-352 424h-249l-351 -424v-15h270zM1081 -530q-78 0 -133.5 52.5t-55.5 125.5q0 74 55.5 126.5t133.5 52.5q77 0 133 -52.5t56 -126.5
q0 -73 -56 -125.5t-133 -52.5z" />
    <glyph glyph-name="uni1EDA" unicode="&#x1eda;" horiz-adv-x="2217" 
d="M1930 2180h248q0 -215 -79 -355.5t-239 -193.5q69 -123 106.5 -275.5t37.5 -331.5q0 -327 -120 -563t-328.5 -362.5t-473.5 -126.5q-266 0 -474.5 126.5t-328.5 362.5t-120 563q0 328 120 563.5t328.5 362t474.5 126.5q392 0 645 -264q107 25 155 120.5t48 247.5z
M1698 1024q0 250 -80.5 421.5t-220 260t-315.5 88.5t-315.5 -88.5t-220 -260t-80.5 -421.5q0 -249 80.5 -421t220 -260.5t315.5 -88.5t315.5 88.5t220 260.5t80.5 421zM958 2253l234 461h315l-310 -461h-239z" />
    <glyph glyph-name="uni1EDC" unicode="&#x1edc;" horiz-adv-x="2217" 
d="M1930 2180h248q0 -215 -79 -355.5t-239 -193.5q69 -123 106.5 -275.5t37.5 -331.5q0 -327 -120 -563t-328.5 -362.5t-473.5 -126.5q-266 0 -474.5 126.5t-328.5 362.5t-120 563q0 328 120 563.5t328.5 362t474.5 126.5q392 0 645 -264q107 25 155 120.5t48 247.5z
M1698 1024q0 250 -80.5 421.5t-220 260t-315.5 88.5t-315.5 -88.5t-220 -260t-80.5 -421.5q0 -249 80.5 -421t220 -260.5t315.5 -88.5t315.5 88.5t220 260.5t80.5 421zM965 2253l-309 461h315l233 -461h-239z" />
    <glyph glyph-name="uni1EDE" unicode="&#x1ede;" horiz-adv-x="2217" 
d="M1930 2180h248q0 -215 -79 -355.5t-239 -193.5q69 -123 106.5 -275.5t37.5 -331.5q0 -327 -120 -563t-328.5 -362.5t-473.5 -126.5q-266 0 -474.5 126.5t-328.5 362.5t-120 563q0 328 120 563.5t328.5 362t474.5 126.5q392 0 645 -264q107 25 155 120.5t48 247.5z
M1698 1024q0 250 -80.5 421.5t-220 260t-315.5 88.5t-315.5 -88.5t-220 -260t-80.5 -421.5q0 -249 80.5 -421t220 -260.5t315.5 -88.5t315.5 88.5t220 260.5t80.5 421zM1204 2260h-236l-8 204q106 5 150 28.5t43 68.5q1 54 -60 77t-150 23l9 165q227 0 344.5 -72t116.5 -194
q1 -98 -64.5 -145t-144.5 -59v-96z" />
    <glyph glyph-name="uni1EE0" unicode="&#x1ee0;" horiz-adv-x="2217" 
d="M1930 2180h248q0 -215 -79 -355.5t-239 -193.5q69 -123 106.5 -275.5t37.5 -331.5q0 -327 -120 -563t-328.5 -362.5t-473.5 -126.5q-266 0 -474.5 126.5t-328.5 362.5t-120 563q0 328 120 563.5t328.5 362t474.5 126.5q392 0 645 -264q107 25 155 120.5t48 247.5z
M1698 1024q0 250 -80.5 421.5t-220 260t-315.5 88.5t-315.5 -88.5t-220 -260t-80.5 -421.5q0 -249 80.5 -421t220 -260.5t315.5 -88.5t315.5 88.5t220 260.5t80.5 421zM781 2234l-201 6q0 166 89.5 265t221.5 99q82 0 138.5 -33.5t108 -67.5t118.5 -34q58 0 94 44t37 109
l197 -13q0 -167 -90 -262.5t-221 -96.5q-71 0 -117.5 20.5t-82.5 47.5t-74 47.5t-91 20.5q-55 0 -91 -43.5t-36 -108.5z" />
    <glyph glyph-name="uni1EE2" unicode="&#x1ee2;" horiz-adv-x="2217" 
d="M1930 2180h248q0 -215 -79 -355.5t-239 -193.5q69 -123 106.5 -275.5t37.5 -331.5q0 -327 -120 -563t-328.5 -362.5t-473.5 -126.5q-266 0 -474.5 126.5t-328.5 362.5t-120 563q0 328 120 563.5t328.5 362t474.5 126.5q392 0 645 -264q107 25 155 120.5t48 247.5z
M1698 1024q0 250 -80.5 421.5t-220 260t-315.5 88.5t-315.5 -88.5t-220 -260t-80.5 -421.5q0 -249 80.5 -421t220 -260.5t315.5 -88.5t315.5 88.5t220 260.5t80.5 421zM1081 -530q-78 0 -133.5 52.5t-55.5 125.5q0 74 55.5 126.5t133.5 52.5q77 0 133 -52.5t56 -126.5
q0 -73 -56 -125.5t-133 -52.5z" />
    <glyph glyph-name="uni01FE" unicode="&#x1fe;" horiz-adv-x="2163" 
d="M442 -89l-166 114l151 221q-126 136 -197 333t-71 445q0 328 120 563.5t328.5 362t474.5 126.5q280 0 497 -141l135 198l167 -114l-147 -215q127 -136 198.5 -333.5t71.5 -446.5q0 -327 -120 -563t-328.5 -362.5t-473.5 -126.5q-283 0 -501 143zM1698 1024
q0 165 -36.5 296.5t-102.5 226.5l-813 -1191q144 -102 336 -102q176 0 315.5 88.5t220 260.5t80.5 421zM603 504l812 1190q-144 100 -333 100q-176 0 -315.5 -88.5t-220 -260t-80.5 -421.5q0 -164 36 -294.5t101 -225.5zM958 2253l234 461h315l-310 -461h-239z" />
    <glyph glyph-name="uni039F" unicode="&#x39f;" horiz-adv-x="2163" 
d="M2004 1024q0 -327 -120 -563t-328.5 -362.5t-473.5 -126.5q-266 0 -474.5 126.5t-328.5 362.5t-120 563q0 328 120 563.5t328.5 362t474.5 126.5q265 0 473.5 -126.5t328.5 -362t120 -563.5zM1698 1024q0 250 -80.5 421.5t-220 260t-315.5 88.5t-315.5 -88.5t-220 -260
t-80.5 -421.5q0 -249 80.5 -421t220 -260.5t315.5 -88.5t315.5 88.5t220 260.5t80.5 421z" />
    <glyph glyph-name="uni038C" unicode="&#x38c;" horiz-adv-x="2222" 
d="M2086 1024q0 -327 -120 -563t-328.5 -362.5t-473.5 -126.5q-266 0 -474.5 126.5t-328.5 362.5t-120 563q0 328 120 563.5t328.5 362t474.5 126.5q265 0 473.5 -126.5t328.5 -362t120 -563.5zM1780 1024q0 250 -80.5 421.5t-220 260t-315.5 88.5t-315.5 -88.5t-220 -260
t-80.5 -421.5q0 -249 80.5 -421t220 -260.5t315.5 -88.5t315.5 88.5t220 260.5t80.5 421zM-21 1712l81 470h297l-185 -470h-193z" />
    <glyph glyph-name="uni1F48" unicode="&#x1f48;" horiz-adv-x="2298" 
d="M2162 1024q0 -327 -120 -563t-328.5 -362.5t-473.5 -126.5q-266 0 -474.5 126.5t-328.5 362.5t-120 563q0 328 120 563.5t328.5 362t474.5 126.5q265 0 473.5 -126.5t328.5 -362t120 -563.5zM1856 1024q0 250 -80.5 421.5t-220 260t-315.5 88.5t-315.5 -88.5t-220 -260
t-80.5 -421.5q0 -249 80.5 -421t220 -260.5t315.5 -88.5t315.5 88.5t220 260.5t80.5 421zM337 2048v-118q0 -123 -64.5 -220.5t-180.5 -157.5l-112 98q112 106 112 288v110h245z" />
    <glyph glyph-name="uni1F49" unicode="&#x1f49;" horiz-adv-x="2394" 
d="M2258 1024q0 -327 -120 -563t-328.5 -362.5t-473.5 -126.5q-266 0 -474.5 126.5t-328.5 362.5t-120 563q0 328 120 563.5t328.5 362t474.5 126.5q265 0 473.5 -126.5t328.5 -362t120 -563.5zM1952 1024q0 250 -80.5 421.5t-220 260t-315.5 88.5t-315.5 -88.5t-220 -260
t-80.5 -421.5q0 -249 80.5 -421t220 -260.5t315.5 -88.5t315.5 88.5t220 260.5t80.5 421zM105 1930v118h246v-110q1 -90 26.5 -160.5t84.5 -127.5l-112 -98q-112 60 -178.5 157.5t-66.5 220.5z" />
    <glyph glyph-name="uni1F4A" unicode="&#x1f4a;" horiz-adv-x="2834" 
d="M2698 1024q0 -327 -120 -563t-328.5 -362.5t-473.5 -126.5q-266 0 -474.5 126.5t-328.5 362.5t-120 563q0 328 120 563.5t328.5 362t474.5 126.5q265 0 473.5 -126.5t328.5 -362t120 -563.5zM2392 1024q0 250 -80.5 421.5t-220 260t-315.5 88.5t-315.5 -88.5t-220 -260
t-80.5 -421.5q0 -249 80.5 -421t220 -260.5t315.5 -88.5t315.5 88.5t220 260.5t80.5 421zM346 2048v-112q1 -120 -66 -219t-189 -165l-109 84q55 63 84 136.5t29 171.5v104h251zM859 1604v-20h-129l-320 436v28h292z" />
    <glyph glyph-name="uni1F4B" unicode="&#x1f4b;" horiz-adv-x="2705" 
d="M2569 1024q0 -327 -120 -563t-328.5 -362.5t-473.5 -126.5q-266 0 -474.5 126.5t-328.5 362.5t-120 563q0 328 120 563.5t328.5 362t474.5 126.5q265 0 473.5 -126.5t328.5 -362t120 -563.5zM2263 1024q0 250 -80.5 421.5t-220 260t-315.5 88.5t-315.5 -88.5t-220 -260
t-80.5 -421.5q0 -249 80.5 -421t220 -260.5t315.5 -88.5t315.5 88.5t220 260.5t80.5 421zM-52 1930v118h247v-110q0 -90 25.5 -160.5t86.5 -127.5l-112 -98q-115 60 -181 157.5t-66 220.5zM743 1607v-24h-130l-319 437v28h295z" />
    <glyph glyph-name="uni1F4C" unicode="&#x1f4c;" horiz-adv-x="2604" 
d="M2468 1024q0 -327 -120 -563t-328.5 -362.5t-473.5 -126.5q-266 0 -474.5 126.5t-328.5 362.5t-120 563q0 328 120 563.5t328.5 362t474.5 126.5q265 0 473.5 -126.5t328.5 -362t120 -563.5zM2162 1024q0 250 -80.5 421.5t-220 260t-315.5 88.5t-315.5 -88.5t-220 -260
t-80.5 -421.5q0 -249 80.5 -421t220 -260.5t315.5 -88.5t315.5 88.5t220 260.5t80.5 421zM343 2048v-118q0 -123 -66.5 -220.5t-180.5 -157.5l-111 98q110 108 111 288v110h247zM370 1583v24l158 441h291v-28l-319 -437h-130z" />
    <glyph glyph-name="uni1F4D" unicode="&#x1f4d;" horiz-adv-x="2636" 
d="M2500 1024q0 -327 -120 -563t-328.5 -362.5t-473.5 -126.5q-266 0 -474.5 126.5t-328.5 362.5t-120 563q0 328 120 563.5t328.5 362t474.5 126.5q265 0 473.5 -126.5t328.5 -362t120 -563.5zM2194 1024q0 250 -80.5 421.5t-220 260t-315.5 88.5t-315.5 -88.5t-220 -260
t-80.5 -421.5q0 -249 80.5 -421t220 -260.5t315.5 -88.5t315.5 88.5t220 260.5t80.5 421zM-16 1930v118h246v-110q0 -178 110 -288l-111 -98q-112 59 -178.5 156.5t-66.5 221.5zM401 1583v24l153 441h295v-28l-320 -437h-128z" />
    <glyph glyph-name="uni1FF8" unicode="&#x1ff8;" horiz-adv-x="2406" 
d="M2270 1024q0 -327 -120 -563t-328.5 -362.5t-473.5 -126.5q-266 0 -474.5 126.5t-328.5 362.5t-120 563q0 328 120 563.5t328.5 362t474.5 126.5q265 0 473.5 -126.5t328.5 -362t120 -563.5zM1964 1024q0 250 -80.5 421.5t-220 260t-315.5 88.5t-315.5 -88.5t-220 -260
t-80.5 -421.5q0 -249 80.5 -421t220 -260.5t315.5 -88.5t315.5 88.5t220 260.5t80.5 421zM429 1580h-128l-319 440v28h291l156 -439v-29z" />
    <glyph glyph-name="uni03F4" unicode="&#x3f4;" horiz-adv-x="2163" 
d="M2004 1024q0 -327 -120 -563t-328.5 -362.5t-473.5 -126.5q-266 0 -474.5 126.5t-328.5 362.5t-120 563q0 328 120 563.5t328.5 362t474.5 126.5q265 0 473.5 -126.5t328.5 -362t120 -563.5zM1082 254q238 0 406.5 161.5t202.5 469.5q-130 -51 -237 -56t-201 16t-186 49
q-130 40 -271 63.5t-326 -36.5q25 -325 195.5 -496t416.5 -171zM1694 1131q-27 323 -197.5 493t-414.5 170q-238 0 -406 -160.5t-202 -466.5q128 49 234.5 53.5t200 -16.5t184.5 -48q88 -27 179 -48t194 -19.5t228 42.5z" />
    <glyph glyph-name="uni1FF9" unicode="&#x1ff9;" horiz-adv-x="2213" 
d="M2077 1024q0 -327 -120 -563t-328.5 -362.5t-473.5 -126.5q-266 0 -474.5 126.5t-328.5 362.5t-120 563q0 328 120 563.5t328.5 362t474.5 126.5q265 0 473.5 -126.5t328.5 -362t120 -563.5zM1771 1024q0 250 -80.5 421.5t-220 260t-315.5 88.5t-315.5 -88.5t-220 -260
t-80.5 -421.5q0 -249 80.5 -421t220 -260.5t315.5 -88.5t315.5 88.5t220 260.5t80.5 421zM108 1728v29l154 439h321v-28l-319 -440h-156z" />
    <glyph glyph-name="uni041E" unicode="&#x41e;" horiz-adv-x="2163" 
d="M2004 1024q0 -327 -120 -563t-328.5 -362.5t-473.5 -126.5q-266 0 -474.5 126.5t-328.5 362.5t-120 563q0 328 120 563.5t328.5 362t474.5 126.5q265 0 473.5 -126.5t328.5 -362t120 -563.5zM1698 1024q0 250 -80.5 421.5t-220 260t-315.5 88.5t-315.5 -88.5t-220 -260
t-80.5 -421.5q0 -249 80.5 -421t220 -260.5t315.5 -88.5t315.5 88.5t220 260.5t80.5 421z" />
    <glyph glyph-name="uni04E6" unicode="&#x4e6;" horiz-adv-x="2163" 
d="M2004 1024q0 -327 -120 -563t-328.5 -362.5t-473.5 -126.5q-266 0 -474.5 126.5t-328.5 362.5t-120 563q0 328 120 563.5t328.5 362t474.5 126.5q265 0 473.5 -126.5t328.5 -362t120 -563.5zM1698 1024q0 250 -80.5 421.5t-220 260t-315.5 88.5t-315.5 -88.5t-220 -260
t-80.5 -421.5q0 -249 80.5 -421t220 -260.5t315.5 -88.5t315.5 88.5t220 260.5t80.5 421zM788 2289q-70 0 -123.5 52t-53.5 122q0 74 53.5 124.5t123.5 50.5q75 0 125.5 -50.5t50.5 -124.5q0 -70 -50.5 -122t-125.5 -52zM1376 2289q-70 0 -123.5 52t-53.5 122
q0 74 53.5 124.5t123.5 50.5q75 0 125.5 -50.5t50.5 -124.5q0 -70 -50.5 -122t-125.5 -52z" />
    <glyph glyph-name="uni019F" unicode="&#x19f;" horiz-adv-x="2163" 
d="M2004 1024q0 -327 -120 -563t-328.5 -362.5t-473.5 -126.5q-266 0 -474.5 126.5t-328.5 362.5t-120 563q0 328 120 563.5t328.5 362t474.5 126.5q265 0 473.5 -126.5t328.5 -362t120 -563.5zM1082 254q238 0 406.5 161.5t202.5 469.5q-130 -51 -237 -56t-201 16t-186 49
q-130 40 -271 63.5t-326 -36.5q25 -325 195.5 -496t416.5 -171zM1694 1131q-27 323 -197.5 493t-414.5 170q-238 0 -406 -160.5t-202 -466.5q128 49 234.5 53.5t200 -16.5t184.5 -48q88 -27 179 -48t194 -19.5t228 42.5z" />
    <glyph glyph-name="uni04E8" unicode="&#x4e8;" horiz-adv-x="2163" 
d="M2004 1024q0 -327 -120 -563t-328.5 -362.5t-473.5 -126.5q-266 0 -474.5 126.5t-328.5 362.5t-120 563q0 328 120 563.5t328.5 362t474.5 126.5q265 0 473.5 -126.5t328.5 -362t120 -563.5zM1082 254q238 0 406.5 161.5t202.5 469.5q-130 -51 -237 -56t-201 16t-186 49
q-130 40 -271 63.5t-326 -36.5q25 -325 195.5 -496t416.5 -171zM1694 1131q-27 323 -197.5 493t-414.5 170q-238 0 -406 -160.5t-202 -466.5q128 49 234.5 53.5t200 -16.5t184.5 -48q88 -27 179 -48t194 -19.5t228 42.5z" />
    <glyph glyph-name="uni04EA" unicode="&#x4ea;" horiz-adv-x="2163" 
d="M2004 1024q0 -327 -120 -563t-328.5 -362.5t-473.5 -126.5q-266 0 -474.5 126.5t-328.5 362.5t-120 563q0 328 120 563.5t328.5 362t474.5 126.5q265 0 473.5 -126.5t328.5 -362t120 -563.5zM1082 254q238 0 406.5 161.5t202.5 469.5q-130 -51 -237 -56t-201 16t-186 49
q-130 40 -271 63.5t-326 -36.5q25 -325 195.5 -496t416.5 -171zM1694 1131q-27 323 -197.5 493t-414.5 170q-238 0 -406 -160.5t-202 -466.5q128 49 234.5 53.5t200 -16.5t184.5 -48q88 -27 179 -48t194 -19.5t228 42.5zM788 2289q-70 0 -123.5 52t-53.5 122
q0 74 53.5 124.5t123.5 50.5q75 0 125.5 -50.5t50.5 -124.5q0 -70 -50.5 -122t-125.5 -52zM1376 2289q-70 0 -123.5 52t-53.5 122q0 74 53.5 124.5t123.5 50.5q75 0 125.5 -50.5t50.5 -124.5q0 -70 -50.5 -122t-125.5 -52z" />
    <glyph glyph-name="uni0152" unicode="&#x152;" horiz-adv-x="2745" 
d="M1072 0q-269 0 -475 124.5t-322 354.5t-116 544q0 317 116 546.5t322 354t475 124.5h1484v-266h-975v-624h908v-265h-908v-627h987v-266h-1496zM1272 266v1516h-200q-180 0 -317 -90.5t-214 -260t-77 -408.5q0 -237 77 -406.5t214 -260t317 -90.5h200z" />
    <glyph glyph-name="uni0050" unicode="P" horiz-adv-x="1800" 
d="M225 0v2048h730q238 0 395.5 -87t235.5 -237t78 -339t-78.5 -339.5t-236 -238t-395.5 -87.5h-420v-720h-309zM534 982h392q227 0 327 114.5t100 288.5t-100.5 286t-330.5 112h-388v-801z" />
    <glyph glyph-name="uni1E54" unicode="&#x1e54;" horiz-adv-x="1800" 
d="M225 0v2048h730q238 0 395.5 -87t235.5 -237t78 -339t-78.5 -339.5t-236 -238t-395.5 -87.5h-420v-720h-309zM534 982h392q227 0 327 114.5t100 288.5t-100.5 286t-330.5 112h-388v-801zM771 2253l234 461h315l-310 -461h-239z" />
    <glyph glyph-name="uni1E56" unicode="&#x1e56;" horiz-adv-x="1800" 
d="M225 0v2048h730q238 0 395.5 -87t235.5 -237t78 -339t-78.5 -339.5t-236 -238t-395.5 -87.5h-420v-720h-309zM534 982h392q227 0 327 114.5t100 288.5t-100.5 286t-330.5 112h-388v-801zM895 2285q-78 0 -133.5 52.5t-55.5 125.5q0 74 55.5 126.5t133.5 52.5
q77 0 133 -52.5t56 -126.5q0 -73 -56 -125.5t-133 -52.5z" />
    <glyph glyph-name="uni048E" unicode="&#x48e;" horiz-adv-x="1813" 
d="M228 0v2048h730q238 0 395.5 -87t235.5 -237t78 -339q0 -169 -62.5 -308t-187.5 -228l135 -208l-183 -119l-151 232q-118 -34 -261 -34h-420v-720h-309zM1106 1326l150 -230q51 54 75.5 128t24.5 161q0 174 -100.5 286t-330.5 112h-388v-801h392q72 0 133 13l-140 215z
" />
    <glyph glyph-name="uni01A4" unicode="&#x1a4;" horiz-adv-x="2278" 
d="M407 1442h-283v158q0 193 122 320.5t345 127.5h842q238 0 395.5 -87t235.5 -237t78 -339t-78.5 -339.5t-236 -238t-395.5 -87.5h-420v-720h-309v1783h-109q-81 0 -121 -36t-53 -93.5t-13 -120.5v-91zM1012 982h392q227 0 327 114.5t100 288.5t-100.5 286t-330.5 112h-388
v-801z" />
    <glyph glyph-name="uni03A1" unicode="&#x3a1;" horiz-adv-x="1800" 
d="M225 0v2048h730q238 0 395.5 -87t235.5 -237t78 -339t-78.5 -339.5t-236 -238t-395.5 -87.5h-420v-720h-309zM534 982h392q227 0 327 114.5t100 288.5t-100.5 286t-330.5 112h-388v-801z" />
    <glyph glyph-name="uni1FEC" unicode="&#x1fec;" horiz-adv-x="2177" 
d="M594 0v2048h730q238 0 395.5 -87t235.5 -237t78 -339t-78.5 -339.5t-236 -238t-395.5 -87.5h-420v-720h-309zM903 982h392q227 0 327 114.5t100 288.5t-100.5 286t-330.5 112h-388v-801zM136 1930v118h246v-110q1 -90 26.5 -160.5t84.5 -127.5l-112 -98
q-112 60 -178.5 157.5t-66.5 220.5z" />
    <glyph glyph-name="uni0051" unicode="Q" horiz-adv-x="2164" 
d="M2004 1024q0 -283 -91.5 -498.5t-250.5 -349.5l276 -360h-316l-175 227q-168 -71 -365 -71q-266 0 -474.5 126.5t-328.5 362.5t-120 563q0 328 120 563.5t328.5 362t474.5 126.5q265 0 473.5 -126.5t328.5 -362t120 -563.5zM978 664h304l197 -257q102 96 160.5 251.5
t58.5 365.5q0 250 -80.5 421.5t-220 260t-315.5 88.5t-315.5 -88.5t-220 -260t-80.5 -421.5q0 -249 80.5 -421t220 -260.5t315.5 -88.5q99 0 187 28z" />
    <glyph glyph-name="uni0052" unicode="R" horiz-adv-x="1816" 
d="M225 0v2048h730q238 0 395 -82t235.5 -226.5t78.5 -333.5q0 -206 -93.5 -356.5t-282.5 -220.5l454 -829h-352l-416 775h-20h-420v-775h-309zM534 1041h392q226 0 326.5 96t100.5 269q0 174 -101 275.5t-330 101.5h-388v-742z" />
    <glyph glyph-name="uni0154" unicode="&#x154;" horiz-adv-x="1816" 
d="M225 0v2048h730q238 0 395 -82t235.5 -226.5t78.5 -333.5q0 -206 -93.5 -356.5t-282.5 -220.5l454 -829h-352l-416 775h-20h-420v-775h-309zM534 1041h392q226 0 326.5 96t100.5 269q0 174 -101 275.5t-330 101.5h-388v-742zM773 2253l234 461h315l-310 -461h-239z" />
    <glyph glyph-name="uni0156" unicode="&#x156;" horiz-adv-x="1816" 
d="M225 0v2048h730q238 0 395 -82t235.5 -226.5t78.5 -333.5q0 -206 -93.5 -356.5t-282.5 -220.5l454 -829h-352l-416 775h-20h-420v-775h-309zM534 1041h392q226 0 326.5 96t100.5 269q0 174 -101 275.5t-330 101.5h-388v-742zM669 -672l116 510h293l-187 -510h-222z" />
    <glyph glyph-name="uni0158" unicode="&#x158;" horiz-adv-x="1816" 
d="M225 0v2048h730q238 0 395 -82t235.5 -226.5t78.5 -333.5q0 -206 -93.5 -356.5t-282.5 -220.5l454 -829h-352l-416 775h-20h-420v-775h-309zM534 1041h392q226 0 326.5 96t100.5 269q0 174 -101 275.5t-330 101.5h-388v-742zM690 2671l206 -268l205 268h271v-15
l-352 -424h-249l-351 424v15h270z" />
    <glyph glyph-name="uni0210" unicode="&#x210;" horiz-adv-x="1816" 
d="M225 0v2048h730q238 0 395 -82t235.5 -226.5t78.5 -333.5q0 -206 -93.5 -356.5t-282.5 -220.5l454 -829h-352l-416 775h-20h-420v-775h-309zM534 1041h392q226 0 326.5 96t100.5 269q0 174 -101 275.5t-330 101.5h-388v-742zM1080 2253l-266 371l201 90l209 -372z
M634 2253l-337 371l175 90l290 -372z" />
    <glyph glyph-name="uni0212" unicode="&#x212;" horiz-adv-x="1816" 
d="M225 0v2048h730q238 0 395 -82t235.5 -226.5t78.5 -333.5q0 -206 -93.5 -356.5t-282.5 -220.5l454 -829h-352l-416 775h-20h-420v-775h-309zM534 1041h392q226 0 326.5 96t100.5 269q0 174 -101 275.5t-330 101.5h-388v-742zM456 2288q0 168 119 277t324 109
q203 0 321 -109t119 -277h-246q0 77 -45 134.5t-149 57.5q-109 0 -153 -58.5t-44 -133.5h-246z" />
    <glyph glyph-name="uni1E58" unicode="&#x1e58;" horiz-adv-x="1816" 
d="M225 0v2048h730q238 0 395 -82t235.5 -226.5t78.5 -333.5q0 -206 -93.5 -356.5t-282.5 -220.5l454 -829h-352l-416 775h-20h-420v-775h-309zM534 1041h392q226 0 326.5 96t100.5 269q0 174 -101 275.5t-330 101.5h-388v-742zM896 2285q-78 0 -133.5 52.5t-55.5 125.5
q0 74 55.5 126.5t133.5 52.5q77 0 133 -52.5t56 -126.5q0 -73 -56 -125.5t-133 -52.5z" />
    <glyph glyph-name="uni1E5A" unicode="&#x1e5a;" horiz-adv-x="1816" 
d="M225 0v2048h730q238 0 395 -82t235.5 -226.5t78.5 -333.5q0 -206 -93.5 -356.5t-282.5 -220.5l454 -829h-352l-416 775h-20h-420v-775h-309zM534 1041h392q226 0 326.5 96t100.5 269q0 174 -101 275.5t-330 101.5h-388v-742zM931 -530q-78 0 -133.5 52.5t-55.5 125.5
q0 74 55.5 126.5t133.5 52.5q77 0 133 -52.5t56 -126.5q0 -73 -56 -125.5t-133 -52.5z" />
    <glyph glyph-name="uni1E5C" unicode="&#x1e5c;" horiz-adv-x="1816" 
d="M225 0v2048h730q238 0 395 -82t235.5 -226.5t78.5 -333.5q0 -206 -93.5 -356.5t-282.5 -220.5l454 -829h-352l-416 775h-20h-420v-775h-309zM534 1041h392q226 0 326.5 96t100.5 269q0 174 -101 275.5t-330 101.5h-388v-742zM931 -530q-78 0 -133.5 52.5t-55.5 125.5
q0 74 55.5 126.5t133.5 52.5q77 0 133 -52.5t56 -126.5q0 -73 -56 -125.5t-133 -52.5zM1371 2560v-210h-949v210h949z" />
    <glyph glyph-name="uni1E5E" unicode="&#x1e5e;" horiz-adv-x="1816" 
d="M225 0v2048h730q238 0 395 -82t235.5 -226.5t78.5 -333.5q0 -206 -93.5 -356.5t-282.5 -220.5l454 -829h-352l-416 775h-20h-420v-775h-309zM534 1041h392q226 0 326.5 96t100.5 269q0 174 -101 275.5t-330 101.5h-388v-742zM1406 -253v-210h-949v210h949z" />
    <glyph glyph-name="uni211F" unicode="&#x211f;" horiz-adv-x="1822" 
d="M1345 2322l-83 -319q203 -68 303.5 -225.5t100.5 -371.5q0 -206 -93.5 -356.5t-282.5 -220.5l454 -829h-352l-416 775h-20h-14l-330 -1265l-158 28l325 1237h-243v-775h-309v2048h730q81 0 153 -10l49 185l-437 120l52 148zM536 1041h313l192 734q-54 8 -117 8h-388v-742
zM1012 1045q181 18 262 111.5t81 249.5q0 110 -39.5 192.5t-125.5 128.5z" />
    <glyph glyph-name="uni211E" unicode="&#x211e;" horiz-adv-x="2002" 
d="M225 2048h719q246 0 402.5 -83.5t231 -226t74.5 -321.5q0 -216 -100.5 -359.5t-278.5 -216.5l132 -181l182 249h285l-322 -446l339 -463h-317l-179 247l-178 -247h-293l327 447l-245 337h-470v-784h-309v2048zM534 1054h389q233 0 328 99.5t95 260.5q0 94 -35 178
t-122.5 137t-244.5 53h-410v-728z" />
    <glyph glyph-name="uni024C" unicode="&#x24c;" horiz-adv-x="1850" 
d="M256 0v785h-227v257h227v1006h730q238 0 395 -82t235.5 -226.5t78.5 -333.5q0 -206 -93.5 -356.5t-282.5 -220.5l454 -829h-352l-416 775h-20h-420v-775h-309zM565 1041h392q226 0 326.5 96t100.5 269q0 174 -101 275.5t-330 101.5h-388v-742z" />
    <glyph glyph-name="uni0053" unicode="S" horiz-adv-x="1812" 
d="M1342 1510q-16 142 -132 220.5t-292 78.5q-189 0 -300 -86t-111 -217q0 -98 59.5 -159.5t146 -96.5t166.5 -56l200 -52q98 -24 201 -65.5t191 -108t142.5 -165.5t54.5 -237q0 -173 -89.5 -309t-258.5 -213.5t-410 -77.5q-344 0 -547.5 161t-218.5 439h310
q14 -167 145 -248t309 -81q197 0 325.5 91t128.5 241q0 91 -51.5 149.5t-139 96t-197.5 66.5l-242 66q-247 67 -390 197t-143 344q0 177 96 309t260.5 205.5t369.5 73.5q208 0 367.5 -73t251.5 -201t96 -292h-298z" />
    <glyph glyph-name="uni015A" unicode="&#x15a;" horiz-adv-x="1812" 
d="M1342 1510q-16 142 -132 220.5t-292 78.5q-189 0 -300 -86t-111 -217q0 -98 59.5 -159.5t146 -96.5t166.5 -56l200 -52q98 -24 201 -65.5t191 -108t142.5 -165.5t54.5 -237q0 -173 -89.5 -309t-258.5 -213.5t-410 -77.5q-344 0 -547.5 161t-218.5 439h310
q14 -167 145 -248t309 -81q197 0 325.5 91t128.5 241q0 91 -51.5 149.5t-139 96t-197.5 66.5l-242 66q-247 67 -390 197t-143 344q0 177 96 309t260.5 205.5t369.5 73.5q208 0 367.5 -73t251.5 -201t96 -292h-298zM781 2253l234 461h315l-310 -461h-239z" />
    <glyph glyph-name="uni015C" unicode="&#x15c;" horiz-adv-x="1812" 
d="M1342 1510q-16 142 -132 220.5t-292 78.5q-189 0 -300 -86t-111 -217q0 -98 59.5 -159.5t146 -96.5t166.5 -56l200 -52q98 -24 201 -65.5t191 -108t142.5 -165.5t54.5 -237q0 -173 -89.5 -309t-258.5 -213.5t-410 -77.5q-344 0 -547.5 161t-218.5 439h310
q14 -167 145 -248t309 -81q197 0 325.5 91t128.5 241q0 91 -51.5 149.5t-139 96t-197.5 66.5l-242 66q-247 67 -390 197t-143 344q0 177 96 309t260.5 205.5t369.5 73.5q208 0 367.5 -73t251.5 -201t96 -292h-298zM699 2232l206 268l205 -268h271v15l-352 424h-249
l-351 -424v-15h270z" />
    <glyph glyph-name="uni015E" unicode="&#x15e;" horiz-adv-x="1812" 
d="M1342 1510q-16 142 -132 220.5t-292 78.5q-189 0 -300 -86t-111 -217q0 -98 59.5 -159.5t146 -96.5t166.5 -56l200 -52q98 -24 201 -65.5t191 -108t142.5 -165.5t54.5 -237q0 -173 -89.5 -309t-258.5 -213.5t-410 -77.5q-344 0 -547.5 161t-218.5 439h310
q14 -167 145 -248t309 -81q197 0 325.5 91t128.5 241q0 91 -51.5 149.5t-139 96t-197.5 66.5l-242 66q-247 67 -390 197t-143 344q0 177 96 309t260.5 205.5t369.5 73.5q208 0 367.5 -73t251.5 -201t96 -292h-298zM806 8h196l-16 -82q86 -13 151.5 -69.5t65.5 -169.5
q1 -136 -116.5 -219.5t-339.5 -83.5l-6 167q104 0 168.5 30t65.5 97t-49.5 94.5t-160.5 37.5z" />
    <glyph glyph-name="uni0160" unicode="&#x160;" horiz-adv-x="1812" 
d="M1342 1510q-16 142 -132 220.5t-292 78.5q-189 0 -300 -86t-111 -217q0 -98 59.5 -159.5t146 -96.5t166.5 -56l200 -52q98 -24 201 -65.5t191 -108t142.5 -165.5t54.5 -237q0 -173 -89.5 -309t-258.5 -213.5t-410 -77.5q-344 0 -547.5 161t-218.5 439h310
q14 -167 145 -248t309 -81q197 0 325.5 91t128.5 241q0 91 -51.5 149.5t-139 96t-197.5 66.5l-242 66q-247 67 -390 197t-143 344q0 177 96 309t260.5 205.5t369.5 73.5q208 0 367.5 -73t251.5 -201t96 -292h-298zM699 2671l206 -268l205 268h271v-15l-352 -424h-249
l-351 424v15h270z" />
    <glyph glyph-name="uni0218" unicode="&#x218;" horiz-adv-x="1812" 
d="M1342 1510q-16 142 -132 220.5t-292 78.5q-189 0 -300 -86t-111 -217q0 -98 59.5 -159.5t146 -96.5t166.5 -56l200 -52q98 -24 201 -65.5t191 -108t142.5 -165.5t54.5 -237q0 -173 -89.5 -309t-258.5 -213.5t-410 -77.5q-344 0 -547.5 161t-218.5 439h310
q14 -167 145 -248t309 -81q197 0 325.5 91t128.5 241q0 91 -51.5 149.5t-139 96t-197.5 66.5l-242 66q-247 67 -390 197t-143 344q0 177 96 309t260.5 205.5t369.5 73.5q208 0 367.5 -73t251.5 -201t96 -292h-298zM648 -701l116 510h293l-187 -510h-222z" />
    <glyph glyph-name="uni1E60" unicode="&#x1e60;" horiz-adv-x="1812" 
d="M1342 1510q-16 142 -132 220.5t-292 78.5q-189 0 -300 -86t-111 -217q0 -98 59.5 -159.5t146 -96.5t166.5 -56l200 -52q98 -24 201 -65.5t191 -108t142.5 -165.5t54.5 -237q0 -173 -89.5 -309t-258.5 -213.5t-410 -77.5q-344 0 -547.5 161t-218.5 439h310
q14 -167 145 -248t309 -81q197 0 325.5 91t128.5 241q0 91 -51.5 149.5t-139 96t-197.5 66.5l-242 66q-247 67 -390 197t-143 344q0 177 96 309t260.5 205.5t369.5 73.5q208 0 367.5 -73t251.5 -201t96 -292h-298zM905 2285q-78 0 -133.5 52.5t-55.5 125.5q0 74 55.5 126.5
t133.5 52.5q77 0 133 -52.5t56 -126.5q0 -73 -56 -125.5t-133 -52.5z" />
    <glyph glyph-name="uni1E62" unicode="&#x1e62;" horiz-adv-x="1812" 
d="M1342 1510q-16 142 -132 220.5t-292 78.5q-189 0 -300 -86t-111 -217q0 -98 59.5 -159.5t146 -96.5t166.5 -56l200 -52q98 -24 201 -65.5t191 -108t142.5 -165.5t54.5 -237q0 -173 -89.5 -309t-258.5 -213.5t-410 -77.5q-344 0 -547.5 161t-218.5 439h310
q14 -167 145 -248t309 -81q197 0 325.5 91t128.5 241q0 91 -51.5 149.5t-139 96t-197.5 66.5l-242 66q-247 67 -390 197t-143 344q0 177 96 309t260.5 205.5t369.5 73.5q208 0 367.5 -73t251.5 -201t96 -292h-298zM909 -559q-78 0 -133.5 52.5t-55.5 125.5q0 74 55.5 126.5
t133.5 52.5q77 0 133 -52.5t56 -126.5q0 -73 -56 -125.5t-133 -52.5z" />
    <glyph glyph-name="uni1E64" unicode="&#x1e64;" horiz-adv-x="1812" 
d="M1342 1510q-16 142 -132 220.5t-292 78.5q-189 0 -300 -86t-111 -217q0 -98 59.5 -159.5t146 -96.5t166.5 -56l200 -52q98 -24 201 -65.5t191 -108t142.5 -165.5t54.5 -237q0 -173 -89.5 -309t-258.5 -213.5t-410 -77.5q-344 0 -547.5 161t-218.5 439h310
q14 -167 145 -248t309 -81q197 0 325.5 91t128.5 241q0 91 -51.5 149.5t-139 96t-197.5 66.5l-242 66q-247 67 -390 197t-143 344q0 177 96 309t260.5 205.5t369.5 73.5q208 0 367.5 -73t251.5 -201t96 -292h-298zM822 2265l195 360h300l-282 -360h-213zM526 2661
q0 65 45 110.5t123 45.5q84 0 128 -47t43 -109q1 -64 -43 -110t-128 -46q-81 0 -124.5 47t-43.5 109z" />
    <glyph glyph-name="uni1E66" unicode="&#x1e66;" horiz-adv-x="1812" 
d="M1342 1510q-16 142 -132 220.5t-292 78.5q-189 0 -300 -86t-111 -217q0 -98 59.5 -159.5t146 -96.5t166.5 -56l200 -52q98 -24 201 -65.5t191 -108t142.5 -165.5t54.5 -237q0 -173 -89.5 -309t-258.5 -213.5t-410 -77.5q-344 0 -547.5 161t-218.5 439h310
q14 -167 145 -248t309 -81q197 0 325.5 91t128.5 241q0 91 -51.5 149.5t-139 96t-197.5 66.5l-242 66q-247 67 -390 197t-143 344q0 177 96 309t260.5 205.5t369.5 73.5q208 0 367.5 -73t251.5 -201t96 -292h-298zM711 2589l195 -167l195 167h277v-24l-371 -306h-205
l-366 304v26h275zM737 2801q0 67 44.5 111.5t123.5 44.5q83 0 127 -45.5t44 -110.5t-45 -108.5t-126 -43.5q-79 0 -123.5 43.5t-44.5 108.5z" />
    <glyph glyph-name="uni1E68" unicode="&#x1e68;" horiz-adv-x="1812" 
d="M1342 1510q-16 142 -132 220.5t-292 78.5q-189 0 -300 -86t-111 -217q0 -98 59.5 -159.5t146 -96.5t166.5 -56l200 -52q98 -24 201 -65.5t191 -108t142.5 -165.5t54.5 -237q0 -173 -89.5 -309t-258.5 -213.5t-410 -77.5q-344 0 -547.5 161t-218.5 439h310
q14 -167 145 -248t309 -81q197 0 325.5 91t128.5 241q0 91 -51.5 149.5t-139 96t-197.5 66.5l-242 66q-247 67 -390 197t-143 344q0 177 96 309t260.5 205.5t369.5 73.5q208 0 367.5 -73t251.5 -201t96 -292h-298zM909 -559q-78 0 -133.5 52.5t-55.5 125.5q0 74 55.5 126.5
t133.5 52.5q77 0 133 -52.5t56 -126.5q0 -73 -56 -125.5t-133 -52.5zM905 2285q-78 0 -133.5 52.5t-55.5 125.5q0 74 55.5 126.5t133.5 52.5q77 0 133 -52.5t56 -126.5q0 -73 -56 -125.5t-133 -52.5z" />
    <glyph glyph-name="uni0405" unicode="&#x405;" horiz-adv-x="1812" 
d="M1342 1510q-16 142 -132 220.5t-292 78.5q-189 0 -300 -86t-111 -217q0 -98 59.5 -159.5t146 -96.5t166.5 -56l200 -52q98 -24 201 -65.5t191 -108t142.5 -165.5t54.5 -237q0 -173 -89.5 -309t-258.5 -213.5t-410 -77.5q-344 0 -547.5 161t-218.5 439h310
q14 -167 145 -248t309 -81q197 0 325.5 91t128.5 241q0 91 -51.5 149.5t-139 96t-197.5 66.5l-242 66q-247 67 -390 197t-143 344q0 177 96 309t260.5 205.5t369.5 73.5q208 0 367.5 -73t251.5 -201t96 -292h-298z" />
    <glyph glyph-name="uni01A7" unicode="&#x1a7;" horiz-adv-x="1812" 
d="M470 1510q16 142 132 220.5t292 78.5q189 0 300 -86t111 -217q0 -98 -59.5 -159.5t-146 -96.5t-166.5 -56l-200 -52q-98 -24 -201 -65.5t-191 -108t-142.5 -165.5t-54.5 -237q0 -173 89.5 -309t258.5 -213.5t410 -77.5q344 0 547.5 161t218.5 439h-310
q-14 -167 -145 -248t-309 -81q-197 0 -325.5 91t-128.5 241q0 91 51.5 149.5t139 96t197.5 66.5l242 66q247 67 390 197t143 344q0 177 -96 309t-260.5 205.5t-369.5 73.5q-208 0 -367.5 -73t-251.5 -201t-96 -292h298z" />
    <glyph glyph-name="uni1E9E" unicode="&#x1e9e;" horiz-adv-x="1953" 
d="M225 0v1356q0 350 170.5 535t489.5 185q224 0 416.5 -94.5t348.5 -228.5l-456 -579q290 -23 452.5 -180.5t162.5 -411.5q0 -194 -90.5 -330.5t-248.5 -208t-363 -71.5q-99 0 -203.5 18t-202.5 55l93 254q60 -25 137 -46t169 -21q183 0 283.5 94.5t100.5 258.5
q0 126 -49 199t-121 107.5t-142 44t-112 9.5h-196v230l397 513q-67 47 -156 87t-211 40q-139 0 -217.5 -64t-110.5 -168.5t-32 -226.5v-1356h-309z" />
    <glyph glyph-name="uni0054" unicode="T" horiz-adv-x="1833" 
d="M124 1782v266h1585v-266h-639v-1782h-308v1782h-638z" />
    <glyph glyph-name="uni0162" unicode="&#x162;" horiz-adv-x="1833" 
d="M124 1782v266h1585v-266h-639v-1782h-308v1782h-638zM837 8h196l-16 -82q86 -13 151.5 -69.5t65.5 -169.5q1 -136 -116.5 -219.5t-339.5 -83.5l-6 167q104 0 168.5 30t65.5 97t-49.5 94.5t-160.5 37.5z" />
    <glyph glyph-name="uni0164" unicode="&#x164;" horiz-adv-x="1833" 
d="M124 1782v266h1585v-266h-639v-1782h-308v1782h-638zM711 2671l206 -268l205 268h271v-15l-352 -424h-249l-351 424v15h270z" />
    <glyph glyph-name="uni021A" unicode="&#x21a;" horiz-adv-x="1833" 
d="M124 1782v266h1585v-266h-639v-1782h-308v1782h-638zM654 -672l116 510h293l-187 -510h-222z" />
    <glyph glyph-name="uni1E6A" unicode="&#x1e6a;" horiz-adv-x="1833" 
d="M124 1782v266h1585v-266h-639v-1782h-308v1782h-638zM917 2285q-78 0 -133.5 52.5t-55.5 125.5q0 74 55.5 126.5t133.5 52.5q77 0 133 -52.5t56 -126.5q0 -73 -56 -125.5t-133 -52.5z" />
    <glyph glyph-name="uni1E6C" unicode="&#x1e6c;" horiz-adv-x="1833" 
d="M124 1782v266h1585v-266h-639v-1782h-308v1782h-638zM916 -530q-78 0 -133.5 52.5t-55.5 125.5q0 74 55.5 126.5t133.5 52.5q77 0 133 -52.5t56 -126.5q0 -73 -56 -125.5t-133 -52.5z" />
    <glyph glyph-name="uni1E6E" unicode="&#x1e6e;" horiz-adv-x="1833" 
d="M124 1782v266h1585v-266h-639v-1782h-308v1782h-638zM1390 -253v-210h-949v210h949z" />
    <glyph glyph-name="uni1E70" unicode="&#x1e70;" horiz-adv-x="1833" 
d="M124 1782v266h1585v-266h-639v-1782h-308v1782h-638zM711 -567l206 268l205 -268h271v15l-352 424h-249l-351 -424v-15h270z" />
    <glyph glyph-name="uni01AC" unicode="&#x1ac;" horiz-adv-x="1940" 
d="M1816 2048v-266h-638v-1782h-308v1782h-287q-111 0 -150.5 -73t-39.5 -162v-90h-269v145q0 202 121 324t338 122h1233z" />
    <glyph glyph-name="uni01AE" unicode="&#x1ae;" horiz-adv-x="1833" 
d="M124 1782v266h1585v-266h-639v-1923q0 -109 71 -143t162 -34h79v-258h-156q-119 0 -225 44t-172.5 139.5t-66.5 249.5v1925h-638z" />
    <glyph glyph-name="uni023E" unicode="&#x23e;" horiz-adv-x="1833" 
d="M383 -260l379 1100v942h-638v266h1054l90 260h239l-90 -260h292v-266h-383l-256 -742v-1040h-308v146l-140 -406h-239zM1070 1733l17 49h-17v-49z" />
    <glyph glyph-name="uni03A4" unicode="&#x3a4;" horiz-adv-x="1833" 
d="M124 1782v266h1585v-266h-639v-1782h-308v1782h-638z" />
    <glyph glyph-name="uni0055" unicode="U" horiz-adv-x="2077" 
d="M1543 2048h309v-1355q0 -231 -109 -393.5t-293.5 -248t-411.5 -85.5q-226 0 -410.5 85.5t-293.5 248t-109 393.5v1355h309v-1350q0 -143 69 -243.5t183.5 -152.5t251.5 -52q138 0 253 52t183.5 152.5t68.5 243.5v1350z" />
    <glyph glyph-name="uni01AF" unicode="&#x1af;" horiz-adv-x="2441" 
d="M2070 2155h247q0 -266 -105 -422t-360 -187v-853q0 -231 -109 -393.5t-293.5 -248t-411.5 -85.5q-226 0 -410.5 85.5t-293.5 248t-109 393.5v1355h309v-1350q0 -143 69 -243.5t183.5 -152.5t251.5 -52q138 0 253 52t183.5 152.5t68.5 243.5v1350h309v-290
q133 31 175.5 132t42.5 265z" />
    <glyph glyph-name="uni00D9" unicode="&#xd9;" horiz-adv-x="2077" 
d="M1543 2048h309v-1355q0 -231 -109 -393.5t-293.5 -248t-411.5 -85.5q-226 0 -410.5 85.5t-293.5 248t-109 393.5v1355h309v-1350q0 -143 69 -243.5t183.5 -152.5t251.5 -52q138 0 253 52t183.5 152.5t68.5 243.5v1350zM922 2253l-309 461h315l233 -461h-239z" />
    <glyph glyph-name="uni00DA" unicode="&#xda;" horiz-adv-x="2077" 
d="M1543 2048h309v-1355q0 -231 -109 -393.5t-293.5 -248t-411.5 -85.5q-226 0 -410.5 85.5t-293.5 248t-109 393.5v1355h309v-1350q0 -143 69 -243.5t183.5 -152.5t251.5 -52q138 0 253 52t183.5 152.5t68.5 243.5v1350zM915 2253l234 461h315l-310 -461h-239z" />
    <glyph glyph-name="uni00DB" unicode="&#xdb;" horiz-adv-x="2077" 
d="M1543 2048h309v-1355q0 -231 -109 -393.5t-293.5 -248t-411.5 -85.5q-226 0 -410.5 85.5t-293.5 248t-109 393.5v1355h309v-1350q0 -143 69 -243.5t183.5 -152.5t251.5 -52q138 0 253 52t183.5 152.5t68.5 243.5v1350zM833 2232l206 268l205 -268h271v15l-352 424h-249
l-351 -424v-15h270z" />
    <glyph glyph-name="uni00DC" unicode="&#xdc;" horiz-adv-x="2077" 
d="M1543 2048h309v-1355q0 -231 -109 -393.5t-293.5 -248t-411.5 -85.5q-226 0 -410.5 85.5t-293.5 248t-109 393.5v1355h309v-1350q0 -143 69 -243.5t183.5 -152.5t251.5 -52q138 0 253 52t183.5 152.5t68.5 243.5v1350zM745 2289q-70 0 -123.5 52t-53.5 122
q0 74 53.5 124.5t123.5 50.5q75 0 125.5 -50.5t50.5 -124.5q0 -70 -50.5 -122t-125.5 -52zM1333 2289q-70 0 -123.5 52t-53.5 122q0 74 53.5 124.5t123.5 50.5q75 0 125.5 -50.5t50.5 -124.5q0 -70 -50.5 -122t-125.5 -52z" />
    <glyph glyph-name="uni0168" unicode="&#x168;" horiz-adv-x="2077" 
d="M1543 2048h309v-1355q0 -231 -109 -393.5t-293.5 -248t-411.5 -85.5q-226 0 -410.5 85.5t-293.5 248t-109 393.5v1355h309v-1350q0 -143 69 -243.5t183.5 -152.5t251.5 -52q138 0 253 52t183.5 152.5t68.5 243.5v1350zM737 2234l-201 6q0 166 89.5 265t221.5 99
q82 0 138.5 -33.5t108 -67.5t118.5 -34q58 0 94 44t37 109l197 -13q0 -167 -90 -262.5t-221 -96.5q-71 0 -117.5 20.5t-82.5 47.5t-74 47.5t-91 20.5q-55 0 -91 -43.5t-36 -108.5z" />
    <glyph glyph-name="uni016A" unicode="&#x16a;" horiz-adv-x="2077" 
d="M1543 2048h309v-1355q0 -231 -109 -393.5t-293.5 -248t-411.5 -85.5q-226 0 -410.5 85.5t-293.5 248t-109 393.5v1355h309v-1350q0 -143 69 -243.5t183.5 -152.5t251.5 -52q138 0 253 52t183.5 152.5t68.5 243.5v1350zM1513 2560v-210h-949v210h949z" />
    <glyph glyph-name="uni016C" unicode="&#x16c;" horiz-adv-x="2077" 
d="M1543 2048h309v-1355q0 -231 -109 -393.5t-293.5 -248t-411.5 -85.5q-226 0 -410.5 85.5t-293.5 248t-109 393.5v1355h309v-1350q0 -143 69 -243.5t183.5 -152.5t251.5 -52q138 0 253 52t183.5 152.5t68.5 243.5v1350zM1235 2568h246q0 -169 -119.5 -274.5t-322.5 -105.5
q-202 0 -321 105.5t-119 274.5h245q0 -75 44.5 -132.5t150.5 -57.5q105 0 150.5 57t45.5 133z" />
    <glyph glyph-name="uni016E" unicode="&#x16e;" horiz-adv-x="2077" 
d="M1543 2048h309v-1355q0 -231 -109 -393.5t-293.5 -248t-411.5 -85.5q-226 0 -410.5 85.5t-293.5 248t-109 393.5v1355h309v-1350q0 -143 69 -243.5t183.5 -152.5t251.5 -52q138 0 253 52t183.5 152.5t68.5 243.5v1350zM1039 2175q-91 0 -166 42t-119.5 113t-44.5 156
q0 86 44.5 157t119.5 113t166 42t165.5 -42t119 -113t44.5 -157q0 -85 -44.5 -156t-119 -113t-165.5 -42zM1039 2334q65 1 110.5 45t45.5 107q0 64 -45.5 108.5t-110.5 43.5q-65 0 -111 -44t-46 -108q0 -63 46 -107.5t111 -44.5z" />
    <glyph glyph-name="uni0170" unicode="&#x170;" horiz-adv-x="2077" 
d="M1543 2048h309v-1355q0 -231 -109 -393.5t-293.5 -248t-411.5 -85.5q-226 0 -410.5 85.5t-293.5 248t-109 393.5v1355h309v-1350q0 -143 69 -243.5t183.5 -152.5t251.5 -52q138 0 253 52t183.5 152.5t68.5 243.5v1350zM1103 2219l311 421h296l-368 -421h-239zM658 2219
l238 421h293l-307 -421h-224z" />
    <glyph glyph-name="uni0172" unicode="&#x172;" horiz-adv-x="2077" 
d="M1543 2048h309v-1355q0 -231 -109 -393.5t-293.5 -248t-411.5 -85.5q-226 0 -410.5 85.5t-293.5 248t-109 393.5v1355h309v-1350q0 -143 69 -243.5t183.5 -152.5t251.5 -52q138 0 253 52t183.5 152.5t68.5 243.5v1350zM1065 -588q-126 0 -209.5 68t-91.5 196
q-7 115 65.5 228.5t248.5 192.5l178 -94q-91 -58 -158.5 -124.5t-67.5 -150.5q0 -46 23 -72t79 -26q41 0 73 11t52 21l26 -190q-34 -21 -89 -40.5t-129 -19.5z" />
    <glyph glyph-name="uni01D3" unicode="&#x1d3;" horiz-adv-x="2077" 
d="M1543 2048h309v-1355q0 -231 -109 -393.5t-293.5 -248t-411.5 -85.5q-226 0 -410.5 85.5t-293.5 248t-109 393.5v1355h309v-1350q0 -143 69 -243.5t183.5 -152.5t251.5 -52q138 0 253 52t183.5 152.5t68.5 243.5v1350zM833 2671l206 -268l205 268h271v-15l-352 -424h-249
l-351 424v15h270z" />
    <glyph glyph-name="uni01D5" unicode="&#x1d5;" horiz-adv-x="2077" 
d="M1543 2048h309v-1355q0 -231 -109 -393.5t-293.5 -248t-411.5 -85.5q-226 0 -410.5 85.5t-293.5 248t-109 393.5v1355h309v-1350q0 -143 69 -243.5t183.5 -152.5t251.5 -52q138 0 253 52t183.5 152.5t68.5 243.5v1350zM745 2289q-70 0 -123.5 52t-53.5 122
q0 74 53.5 124.5t123.5 50.5q75 0 125.5 -50.5t50.5 -124.5q0 -70 -50.5 -122t-125.5 -52zM1333 2289q-70 0 -123.5 52t-53.5 122q0 74 53.5 124.5t123.5 50.5q75 0 125.5 -50.5t50.5 -124.5q0 -70 -50.5 -122t-125.5 -52zM1513 3072v-210h-949v210h949z" />
    <glyph glyph-name="uni01D7" unicode="&#x1d7;" horiz-adv-x="2077" 
d="M1543 2048h309v-1355q0 -231 -109 -393.5t-293.5 -248t-411.5 -85.5q-226 0 -410.5 85.5t-293.5 248t-109 393.5v1355h309v-1350q0 -143 69 -243.5t183.5 -152.5t251.5 -52q138 0 253 52t183.5 152.5t68.5 243.5v1350zM1328 2200q-70 0 -122.5 51t-52.5 120
q0 72 52.5 121.5t122.5 49.5q74 0 123.5 -49.5t49.5 -121.5q0 -69 -49.5 -120t-123.5 -51zM747 2200q-69 0 -121.5 51t-52.5 120q0 72 52.5 121.5t121.5 49.5q74 0 124 -49.5t50 -121.5q0 -69 -50 -120t-124 -51zM914 2680l287 320h311l-357 -320h-241z" />
    <glyph glyph-name="uni01D9" unicode="&#x1d9;" horiz-adv-x="2077" 
d="M1543 2048h309v-1355q0 -231 -109 -393.5t-293.5 -248t-411.5 -85.5q-226 0 -410.5 85.5t-293.5 248t-109 393.5v1355h309v-1350q0 -143 69 -243.5t183.5 -152.5t251.5 -52q138 0 253 52t183.5 152.5t68.5 243.5v1350zM841 2896l195 -166l195 166h277v-23l-367 -306h-209
l-366 304v25h275zM1185 2420q0 65 45 110.5t127 45.5q78 0 123 -45t45 -110q0 -63 -44 -109.5t-124 -46.5q-82 0 -127 45.5t-45 109.5zM553 2422q0 66 44 111.5t123 45.5q82 0 126.5 -45.5t44.5 -112.5q0 -65 -45 -109t-125 -44q-81 0 -124.5 45t-43.5 109z" />
    <glyph glyph-name="uni01DB" unicode="&#x1db;" horiz-adv-x="2077" 
d="M1543 2048h309v-1355q0 -231 -109 -393.5t-293.5 -248t-411.5 -85.5q-226 0 -410.5 85.5t-293.5 248t-109 393.5v1355h309v-1350q0 -143 69 -243.5t183.5 -152.5t251.5 -52q138 0 253 52t183.5 152.5t68.5 243.5v1350zM552 2422q0 66 44.5 111.5t122.5 45.5
q82 0 127 -45.5t45 -112.5q0 -65 -45 -109t-125 -44q-82 0 -125.5 45t-43.5 109zM1185 2420q-1 65 44.5 110.5t126.5 45.5q79 0 123.5 -45.5t44.5 -109.5q0 -62 -43.5 -109t-124.5 -47t-126.5 45.5t-44.5 109.5zM973 2818l177 -296h-192l-252 296h267z" />
    <glyph glyph-name="uni0214" unicode="&#x214;" horiz-adv-x="2077" 
d="M1543 2048h309v-1355q0 -231 -109 -393.5t-293.5 -248t-411.5 -85.5q-226 0 -410.5 85.5t-293.5 248t-109 393.5v1355h309v-1350q0 -143 69 -243.5t183.5 -152.5t251.5 -52q138 0 253 52t183.5 152.5t68.5 243.5v1350zM1222 2253l-266 371l201 90l209 -372zM776 2253
l-337 371l175 90l290 -372z" />
    <glyph glyph-name="uni0216" unicode="&#x216;" horiz-adv-x="2077" 
d="M1543 2048h309v-1355q0 -231 -109 -393.5t-293.5 -248t-411.5 -85.5q-226 0 -410.5 85.5t-293.5 248t-109 393.5v1355h309v-1350q0 -143 69 -243.5t183.5 -152.5t251.5 -52q138 0 253 52t183.5 152.5t68.5 243.5v1350zM598 2288q0 168 119 277t324 109q203 0 321 -109
t119 -277h-246q0 77 -45 134.5t-149 57.5q-109 0 -153 -58.5t-44 -133.5h-246z" />
    <glyph glyph-name="uni1E72" unicode="&#x1e72;" horiz-adv-x="2077" 
d="M1543 2048h309v-1355q0 -231 -109 -393.5t-293.5 -248t-411.5 -85.5q-226 0 -410.5 85.5t-293.5 248t-109 393.5v1355h309v-1350q0 -143 69 -243.5t183.5 -152.5t251.5 -52q138 0 253 52t183.5 152.5t68.5 243.5v1350zM749 -550q-78 0 -133.5 52.5t-55.5 125.5
q0 74 55.5 126.5t133.5 52.5q77 0 133 -52.5t56 -126.5q0 -73 -56 -125.5t-133 -52.5zM1383 -550q-78 0 -133.5 52.5t-55.5 125.5q0 74 55.5 126.5t133.5 52.5q77 0 133 -52.5t56 -126.5q0 -73 -56 -125.5t-133 -52.5z" />
    <glyph glyph-name="uni1E74" unicode="&#x1e74;" horiz-adv-x="2077" 
d="M1543 2048h309v-1355q0 -231 -109 -393.5t-293.5 -248t-411.5 -85.5q-226 0 -410.5 85.5t-293.5 248t-109 393.5v1355h309v-1350q0 -143 69 -243.5t183.5 -152.5t251.5 -52q138 0 253 52t183.5 152.5t68.5 243.5v1350zM809 -541l-201 6q0 166 89.5 265t221.5 99
q82 0 138.5 -33.5t108 -67.5t118.5 -34q58 0 94 44t37 109l197 -13q0 -167 -90 -262.5t-221 -96.5q-71 0 -117.5 20.5t-82.5 47.5t-74 47.5t-91 20.5q-55 0 -91 -43.5t-36 -108.5z" />
    <glyph glyph-name="uni1E76" unicode="&#x1e76;" horiz-adv-x="2077" 
d="M1543 2048h309v-1355q0 -231 -109 -393.5t-293.5 -248t-411.5 -85.5q-226 0 -410.5 85.5t-293.5 248t-109 393.5v1355h309v-1350q0 -143 69 -243.5t183.5 -152.5t251.5 -52q138 0 253 52t183.5 152.5t68.5 243.5v1350zM833 -587l206 268l205 -268h271v15l-352 424h-249
l-351 -424v-15h270z" />
    <glyph glyph-name="uni1E78" unicode="&#x1e78;" horiz-adv-x="2077" 
d="M1543 2048h309v-1355q0 -231 -109 -393.5t-293.5 -248t-411.5 -85.5q-226 0 -410.5 85.5t-293.5 248t-109 393.5v1355h309v-1350q0 -143 69 -243.5t183.5 -152.5t251.5 -52q138 0 253 52t183.5 152.5t68.5 243.5v1350zM742 2229l-199 6q0 162 88.5 259t218.5 97
q81 0 136.5 -33t106.5 -66t118 -33q57 0 92.5 43t36.5 106l194 -12q0 -164 -88.5 -257.5t-218.5 -93.5q-70 0 -116 20t-81.5 46t-72.5 46.5t-90 20.5q-55 0 -90 -42.5t-35 -106.5zM889 2680l287 320h311l-357 -320h-241z" />
    <glyph glyph-name="uni1E7A" unicode="&#x1e7a;" horiz-adv-x="2077" 
d="M1543 2048h309v-1355q0 -231 -109 -393.5t-293.5 -248t-411.5 -85.5q-226 0 -410.5 85.5t-293.5 248t-109 393.5v1355h309v-1350q0 -143 69 -243.5t183.5 -152.5t251.5 -52q138 0 253 52t183.5 152.5t68.5 243.5v1350zM1513 2500v-216h-950v216h950zM1185 2783
q-1 67 44.5 111.5t126.5 44.5t124.5 -45.5t43.5 -110.5t-45 -108.5t-123 -43.5q-81 0 -126.5 43.5t-44.5 108.5zM552 2786q0 62 43.5 109t125.5 47q80 0 125 -45.5t45 -110.5t-45 -109t-127 -44q-79 0 -123 44t-44 109z" />
    <glyph glyph-name="uni1EE4" unicode="&#x1ee4;" horiz-adv-x="2077" 
d="M1543 2048h309v-1355q0 -231 -109 -393.5t-293.5 -248t-411.5 -85.5q-226 0 -410.5 85.5t-293.5 248t-109 393.5v1355h309v-1350q0 -143 69 -243.5t183.5 -152.5t251.5 -52q138 0 253 52t183.5 152.5t68.5 243.5v1350zM1038 -550q-78 0 -133.5 52.5t-55.5 125.5
q0 74 55.5 126.5t133.5 52.5q77 0 133 -52.5t56 -126.5q0 -73 -56 -125.5t-133 -52.5z" />
    <glyph glyph-name="uni1EE6" unicode="&#x1ee6;" horiz-adv-x="2077" 
d="M1543 2048h309v-1355q0 -231 -109 -393.5t-293.5 -248t-411.5 -85.5q-226 0 -410.5 85.5t-293.5 248t-109 393.5v1355h309v-1350q0 -143 69 -243.5t183.5 -152.5t251.5 -52q138 0 253 52t183.5 152.5t68.5 243.5v1350zM1160 2260h-236l-8 204q106 5 150 28.5t43 68.5
q1 54 -60 77t-150 23l9 165q227 0 344.5 -72t116.5 -194q1 -98 -64.5 -145t-144.5 -59v-96z" />
    <glyph glyph-name="uni1EE8" unicode="&#x1ee8;" horiz-adv-x="2441" 
d="M2070 2155h247q0 -266 -105 -422t-360 -187v-853q0 -231 -109 -393.5t-293.5 -248t-411.5 -85.5q-226 0 -410.5 85.5t-293.5 248t-109 393.5v1355h309v-1350q0 -143 69 -243.5t183.5 -152.5t251.5 -52q138 0 253 52t183.5 152.5t68.5 243.5v1350h309v-290
q133 31 175.5 132t42.5 265zM915 2253l234 461h315l-310 -461h-239z" />
    <glyph glyph-name="uni1EEA" unicode="&#x1eea;" horiz-adv-x="2441" 
d="M2070 2155h247q0 -266 -105 -422t-360 -187v-853q0 -231 -109 -393.5t-293.5 -248t-411.5 -85.5q-226 0 -410.5 85.5t-293.5 248t-109 393.5v1355h309v-1350q0 -143 69 -243.5t183.5 -152.5t251.5 -52q138 0 253 52t183.5 152.5t68.5 243.5v1350h309v-290
q133 31 175.5 132t42.5 265zM922 2253l-309 461h315l233 -461h-239z" />
    <glyph glyph-name="uni1EEC" unicode="&#x1eec;" horiz-adv-x="2441" 
d="M2070 2155h247q0 -266 -105 -422t-360 -187v-853q0 -231 -109 -393.5t-293.5 -248t-411.5 -85.5q-226 0 -410.5 85.5t-293.5 248t-109 393.5v1355h309v-1350q0 -143 69 -243.5t183.5 -152.5t251.5 -52q138 0 253 52t183.5 152.5t68.5 243.5v1350h309v-290
q133 31 175.5 132t42.5 265zM1160 2260h-236l-8 204q106 5 150 28.5t43 68.5q1 54 -60 77t-150 23l9 165q227 0 344.5 -72t116.5 -194q1 -98 -64.5 -145t-144.5 -59v-96z" />
    <glyph glyph-name="uni1EEE" unicode="&#x1eee;" horiz-adv-x="2441" 
d="M2070 2155h247q0 -266 -105 -422t-360 -187v-853q0 -231 -109 -393.5t-293.5 -248t-411.5 -85.5q-226 0 -410.5 85.5t-293.5 248t-109 393.5v1355h309v-1350q0 -143 69 -243.5t183.5 -152.5t251.5 -52q138 0 253 52t183.5 152.5t68.5 243.5v1350h309v-290
q133 31 175.5 132t42.5 265zM737 2234l-201 6q0 166 89.5 265t221.5 99q82 0 138.5 -33.5t108 -67.5t118.5 -34q58 0 94 44t37 109l197 -13q0 -167 -90 -262.5t-221 -96.5q-71 0 -117.5 20.5t-82.5 47.5t-74 47.5t-91 20.5q-55 0 -91 -43.5t-36 -108.5z" />
    <glyph glyph-name="uni1EF0" unicode="&#x1ef0;" horiz-adv-x="2441" 
d="M2070 2155h247q0 -266 -105 -422t-360 -187v-853q0 -231 -109 -393.5t-293.5 -248t-411.5 -85.5q-226 0 -410.5 85.5t-293.5 248t-109 393.5v1355h309v-1350q0 -143 69 -243.5t183.5 -152.5t251.5 -52q138 0 253 52t183.5 152.5t68.5 243.5v1350h309v-290
q133 31 175.5 132t42.5 265zM1038 -550q-78 0 -133.5 52.5t-55.5 125.5q0 74 55.5 126.5t133.5 52.5q77 0 133 -52.5t56 -126.5q0 -73 -56 -125.5t-133 -52.5z" />
    <glyph glyph-name="uni0244" unicode="&#x244;" horiz-adv-x="2106" 
d="M2115 1180v-192h-246v-295q0 -231 -109 -393.5t-293.5 -248t-411.5 -85.5q-226 0 -410.5 85.5t-293.5 248t-109 393.5v295h-252v192h252v868h309v-868h1009v868h309v-868h246zM1560 988h-1009v-290q0 -143 69 -243.5t183.5 -152.5t251.5 -52q138 0 253 52t183.5 152.5
t68.5 243.5v290z" />
    <glyph glyph-name="uni0056" unicode="V" horiz-adv-x="1971" 
d="M404 2048l570 -1668h23l570 1668h334l-737 -2048h-357l-737 2048h334z" />
    <glyph glyph-name="uni1E7C" unicode="&#x1e7c;" horiz-adv-x="1971" 
d="M404 2048l570 -1668h23l570 1668h334l-737 -2048h-357l-737 2048h334zM685 2234l-201 6q0 166 89.5 265t221.5 99q82 0 138.5 -33.5t108 -67.5t118.5 -34q58 0 94 44t37 109l197 -13q0 -167 -90 -262.5t-221 -96.5q-71 0 -117.5 20.5t-82.5 47.5t-74 47.5t-91 20.5
q-55 0 -91 -43.5t-36 -108.5z" />
    <glyph glyph-name="uni1E7E" unicode="&#x1e7e;" horiz-adv-x="1971" 
d="M404 2048l570 -1668h23l570 1668h334l-737 -2048h-357l-737 2048h334zM985 -530q-78 0 -133.5 52.5t-55.5 125.5q0 74 55.5 126.5t133.5 52.5q77 0 133 -52.5t56 -126.5q0 -73 -56 -125.5t-133 -52.5z" />
    <glyph glyph-name="uni0057" unicode="W" horiz-adv-x="2754" 
d="M626 0l-568 2048h325l399 -1586h19l415 1586h322l415 -1587h19l398 1587h326l-569 -2048h-311l-431 1534h-16l-431 -1534h-312z" />
    <glyph glyph-name="uni0174" unicode="&#x174;" horiz-adv-x="2754" 
d="M626 0l-568 2048h325l399 -1586h19l415 1586h322l415 -1587h19l398 1587h326l-569 -2048h-311l-431 1534h-16l-431 -1534h-312zM1171 2232l206 268l205 -268h271v15l-352 424h-249l-351 -424v-15h270z" />
    <glyph glyph-name="uni1E80" unicode="&#x1e80;" horiz-adv-x="2754" 
d="M626 0l-568 2048h325l399 -1586h19l415 1586h322l415 -1587h19l398 1587h326l-569 -2048h-311l-431 1534h-16l-431 -1534h-312zM1261 2253l-309 461h315l233 -461h-239z" />
    <glyph glyph-name="uni1E82" unicode="&#x1e82;" horiz-adv-x="2754" 
d="M626 0l-568 2048h325l399 -1586h19l415 1586h322l415 -1587h19l398 1587h326l-569 -2048h-311l-431 1534h-16l-431 -1534h-312zM1253 2253l234 461h315l-310 -461h-239z" />
    <glyph glyph-name="uni1E84" unicode="&#x1e84;" horiz-adv-x="2754" 
d="M626 0l-568 2048h325l399 -1586h19l415 1586h322l415 -1587h19l398 1587h326l-569 -2048h-311l-431 1534h-16l-431 -1534h-312zM1083 2289q-70 0 -123.5 52t-53.5 122q0 74 53.5 124.5t123.5 50.5q75 0 125.5 -50.5t50.5 -124.5q0 -70 -50.5 -122t-125.5 -52zM1671 2289
q-70 0 -123.5 52t-53.5 122q0 74 53.5 124.5t123.5 50.5q75 0 125.5 -50.5t50.5 -124.5q0 -70 -50.5 -122t-125.5 -52z" />
    <glyph glyph-name="uni1E86" unicode="&#x1e86;" horiz-adv-x="2754" 
d="M626 0l-568 2048h325l399 -1586h19l415 1586h322l415 -1587h19l398 1587h326l-569 -2048h-311l-431 1534h-16l-431 -1534h-312zM1377 2285q-78 0 -133.5 52.5t-55.5 125.5q0 74 55.5 126.5t133.5 52.5q77 0 133 -52.5t56 -126.5q0 -73 -56 -125.5t-133 -52.5z" />
    <glyph glyph-name="uni1E88" unicode="&#x1e88;" horiz-adv-x="2754" 
d="M626 0l-568 2048h325l399 -1586h19l415 1586h322l415 -1587h19l398 1587h326l-569 -2048h-311l-431 1534h-16l-431 -1534h-312zM1377 -517q-78 0 -133.5 52.5t-55.5 125.5q0 74 55.5 126.5t133.5 52.5q77 0 133 -52.5t56 -126.5q0 -73 -56 -125.5t-133 -52.5z" />
    <glyph glyph-name="uni0058" unicode="X" horiz-adv-x="1876" 
d="M440 2048l490 -801h16l490 801h358l-638 -1024l642 -1024h-360l-492 790h-16l-492 -790h-360l653 1024l-649 1024h358z" />
    <glyph glyph-name="uni1E8A" unicode="&#x1e8a;" horiz-adv-x="1876" 
d="M440 2048l490 -801h16l490 801h358l-638 -1024l642 -1024h-360l-492 790h-16l-492 -790h-360l653 1024l-649 1024h358zM938 2285q-78 0 -133.5 52.5t-55.5 125.5q0 74 55.5 126.5t133.5 52.5q77 0 133 -52.5t56 -126.5q0 -73 -56 -125.5t-133 -52.5z" />
    <glyph glyph-name="uni1E8C" unicode="&#x1e8c;" horiz-adv-x="1876" 
d="M440 2048l490 -801h16l490 801h358l-638 -1024l642 -1024h-360l-492 790h-16l-492 -790h-360l653 1024l-649 1024h358zM644 2289q-70 0 -123.5 52t-53.5 122q0 74 53.5 124.5t123.5 50.5q75 0 125.5 -50.5t50.5 -124.5q0 -70 -50.5 -122t-125.5 -52zM1232 2289
q-70 0 -123.5 52t-53.5 122q0 74 53.5 124.5t123.5 50.5q75 0 125.5 -50.5t50.5 -124.5q0 -70 -50.5 -122t-125.5 -52z" />
    <glyph glyph-name="uni04B2" unicode="&#x4b2;" horiz-adv-x="1876" 
d="M440 2048l490 -801h16l490 801h358l-638 -1024l642 -1024h-360l-492 790h-16l-492 -790h-360l653 1024l-649 1024h358zM1892 245v-740h-296v740h296z" />
    <glyph glyph-name="uni04FC" unicode="&#x4fc;" horiz-adv-x="1876" 
d="M440 2048l490 -801h16l490 801h358l-638 -1024l642 -1024h-360l-492 790h-16l-492 -790h-360l653 1024l-649 1024h358zM1608 270h296v-365q0 -230 -121 -367.5t-346 -137.5q-46 0 -85.5 4t-83.5 16l20 260q22 -9 65.5 -14t68.5 -5q81 0 133.5 63.5t52.5 180.5v365z" />
    <glyph glyph-name="uni03A7" unicode="&#x3a7;" horiz-adv-x="1876" 
d="M440 2048l490 -801h16l490 801h358l-638 -1024l642 -1024h-360l-492 790h-16l-492 -790h-360l653 1024l-649 1024h358z" />
    <glyph glyph-name="uni0059" unicode="Y" horiz-adv-x="1928" 
d="M67 2048h351l535 -931h22l535 931h351l-743 -1244v-804h-308v804z" />
    <glyph glyph-name="uni01B3" unicode="&#x1b3;" horiz-adv-x="2066" 
d="M1635 1619l-493 -793v-826h-308v826l-759 1222h347l554 -931h24l371 621l51 86q110 185 271 230.5t322 -24.5l-73 -242q-82 31 -148 11.5t-120 -113.5z" />
    <glyph glyph-name="uni00DD" unicode="&#xdd;" horiz-adv-x="1928" 
d="M67 2048h351l535 -931h22l535 931h351l-743 -1244v-804h-308v804zM841 2253l234 461h315l-310 -461h-239z" />
    <glyph glyph-name="uni0176" unicode="&#x176;" horiz-adv-x="1928" 
d="M67 2048h351l535 -931h22l535 931h351l-743 -1244v-804h-308v804zM758 2232l206 268l205 -268h271v15l-352 424h-249l-351 -424v-15h270z" />
    <glyph glyph-name="uni0178" unicode="&#x178;" horiz-adv-x="1928" 
d="M67 2048h351l535 -931h22l535 931h351l-743 -1244v-804h-308v804zM670 2289q-70 0 -123.5 52t-53.5 122q0 74 53.5 124.5t123.5 50.5q75 0 125.5 -50.5t50.5 -124.5q0 -70 -50.5 -122t-125.5 -52zM1258 2289q-70 0 -123.5 52t-53.5 122q0 74 53.5 124.5t123.5 50.5
q75 0 125.5 -50.5t50.5 -124.5q0 -70 -50.5 -122t-125.5 -52z" />
    <glyph glyph-name="uni0232" unicode="&#x232;" horiz-adv-x="1928" 
d="M67 2048h351l535 -931h22l535 931h351l-743 -1244v-804h-308v804zM1439 2560v-210h-949v210h949z" />
    <glyph glyph-name="uni1E8E" unicode="&#x1e8e;" horiz-adv-x="1928" 
d="M67 2048h351l535 -931h22l535 931h351l-743 -1244v-804h-308v804zM964 2285q-78 0 -133.5 52.5t-55.5 125.5q0 74 55.5 126.5t133.5 52.5q77 0 133 -52.5t56 -126.5q0 -73 -56 -125.5t-133 -52.5z" />
    <glyph glyph-name="uni1EF2" unicode="&#x1ef2;" horiz-adv-x="1928" 
d="M67 2048h351l535 -931h22l535 931h351l-743 -1244v-804h-308v804zM848 2253l-309 461h315l233 -461h-239z" />
    <glyph glyph-name="uni1EF4" unicode="&#x1ef4;" horiz-adv-x="1928" 
d="M67 2048h351l535 -931h22l535 931h351l-743 -1244v-804h-308v804zM964 -530q-78 0 -133.5 52.5t-55.5 125.5q0 74 55.5 126.5t133.5 52.5q77 0 133 -52.5t56 -126.5q0 -73 -56 -125.5t-133 -52.5z" />
    <glyph glyph-name="uni1EF6" unicode="&#x1ef6;" horiz-adv-x="1928" 
d="M67 2048h351l535 -931h22l535 931h351l-743 -1244v-804h-308v804zM1086 2260h-236l-8 204q106 5 150 28.5t43 68.5q1 54 -60 77t-150 23l9 165q227 0 344.5 -72t116.5 -194q1 -98 -64.5 -145t-144.5 -59v-96z" />
    <glyph glyph-name="uni1EF8" unicode="&#x1ef8;" horiz-adv-x="1928" 
d="M67 2048h351l535 -931h22l535 931h351l-743 -1244v-804h-308v804zM663 2234l-201 6q0 166 89.5 265t221.5 99q82 0 138.5 -33.5t108 -67.5t118.5 -34q58 0 94 44t37 109l197 -13q0 -167 -90 -262.5t-221 -96.5q-71 0 -117.5 20.5t-82.5 47.5t-74 47.5t-91 20.5
q-55 0 -91 -43.5t-36 -108.5z" />
    <glyph glyph-name="uni024E" unicode="&#x24e;" horiz-adv-x="1934" 
d="M1921 1626v-184h-422l-381 -638v-804h-308v804l-381 638h-415v184h305l-252 422h351l243 -422h606l243 422h351l-252 -422h312zM766 1442l187 -325h22l187 325h-396z" />
    <glyph glyph-name="uni03A5" unicode="&#x3a5;" horiz-adv-x="1928" 
d="M67 2048h351l535 -931h22l535 931h351l-743 -1244v-804h-308v804z" />
    <glyph glyph-name="uni038E" unicode="&#x38e;" horiz-adv-x="2442" 
d="M535 2048h351l535 -931h22l535 931h351l-743 -1244v-804h-308v804zM59 1712l81 470h297l-185 -470h-193z" />
    <glyph glyph-name="uni03AB" unicode="&#x3ab;" horiz-adv-x="1928" 
d="M67 2048h351l535 -931h22l535 931h351l-743 -1244v-804h-308v804zM670 2289q-70 0 -123.5 52t-53.5 122q0 74 53.5 124.5t123.5 50.5q75 0 125.5 -50.5t50.5 -124.5q0 -70 -50.5 -122t-125.5 -52zM1258 2289q-70 0 -123.5 52t-53.5 122q0 74 53.5 124.5t123.5 50.5
q75 0 125.5 -50.5t50.5 -124.5q0 -70 -50.5 -122t-125.5 -52z" />
    <glyph glyph-name="uni1F59" unicode="&#x1f59;" horiz-adv-x="2388" 
d="M481 2048h351l535 -931h22l535 931h351l-743 -1244v-804h-308v804zM86 1930v118h246v-110q1 -90 26.5 -160.5t84.5 -127.5l-112 -98q-112 60 -178.5 157.5t-66.5 220.5z" />
    <glyph glyph-name="uni1F5B" unicode="&#x1f5b;" horiz-adv-x="2820" 
d="M913 2048h351l535 -931h22l535 931h351l-743 -1244v-804h-308v804zM79 1930v118h247v-110q0 -90 25.5 -160.5t86.5 -127.5l-112 -98q-115 60 -181 157.5t-66 220.5zM874 1607v-24h-130l-319 437v28h295z" />
    <glyph glyph-name="uni1F5D" unicode="&#x1f5d;" horiz-adv-x="2973" 
d="M1066 2048h351l535 -931h22l535 931h351l-743 -1244v-804h-308v804zM58 1930v118h246v-110q0 -178 110 -288l-111 -98q-112 59 -178.5 156.5t-66.5 221.5zM475 1583v24l153 441h295v-28l-320 -437h-128z" />
    <glyph glyph-name="uni1F5F" unicode="&#x1f5f;" horiz-adv-x="2778" 
d="M871 2048h351l535 -931h22l535 931h351l-743 -1244v-804h-308v804zM702 2378l138 -42q0 -99 -65 -173.5t-167 -74.5q-74 0 -121 24.5t-89 49t-103 24.5q-43 0 -73 -35t-30 -85l-138 37q0 99 63.5 177t165.5 78q62 0 110.5 -25t96.5 -50t106 -25q44 0 75 34.5t31 85.5z
M357 1918v101h213v-101q0 -65 18.5 -123t66.5 -108l-121 -79q-84 53 -130.5 138t-46.5 172z" />
    <glyph glyph-name="uni1FE8" unicode="&#x1fe8;" horiz-adv-x="1928" 
d="M67 2048h351l535 -931h22l535 931h351l-743 -1244v-804h-308v804zM1160 2568h246q0 -169 -119.5 -274.5t-322.5 -105.5q-202 0 -321 105.5t-119 274.5h245q0 -75 44.5 -132.5t150.5 -57.5q105 0 150.5 57t45.5 133z" />
    <glyph glyph-name="uni1FE9" unicode="&#x1fe9;" horiz-adv-x="1928" 
d="M67 2048h351l535 -931h22l535 931h351l-743 -1244v-804h-308v804zM1439 2560v-210h-949v210h949z" />
    <glyph glyph-name="uni1FEA" unicode="&#x1fea;" horiz-adv-x="2449" 
d="M542 2048h351l535 -931h22l535 931h351l-743 -1244v-804h-308v804zM530 1580h-128l-319 440v28h291l156 -439v-29z" />
    <glyph glyph-name="uni1FEB" unicode="&#x1feb;" horiz-adv-x="2422" 
d="M516 2048h351l535 -931h22l535 931h351l-743 -1244v-804h-308v804zM45 1728v29l154 439h321v-28l-319 -440h-156z" />
    <glyph glyph-name="uni005A" unicode="Z" horiz-adv-x="1799" 
d="M172 0v206l1077 1576h-1086v266h1464v-206l-1077 -1576h1086v-266h-1464z" />
    <glyph glyph-name="uni0179" unicode="&#x179;" horiz-adv-x="1799" 
d="M172 0v206l1077 1576h-1086v266h1464v-206l-1077 -1576h1086v-266h-1464zM777 2253l234 461h315l-310 -461h-239z" />
    <glyph glyph-name="uni017B" unicode="&#x17b;" horiz-adv-x="1799" 
d="M172 0v206l1077 1576h-1086v266h1464v-206l-1077 -1576h1086v-266h-1464zM901 2285q-78 0 -133.5 52.5t-55.5 125.5q0 74 55.5 126.5t133.5 52.5q77 0 133 -52.5t56 -126.5q0 -73 -56 -125.5t-133 -52.5z" />
    <glyph glyph-name="uni017D" unicode="&#x17d;" horiz-adv-x="1799" 
d="M172 0v206l1077 1576h-1086v266h1464v-206l-1077 -1576h1086v-266h-1464zM695 2671l206 -268l205 268h271v-15l-352 -424h-249l-351 424v15h270z" />
    <glyph glyph-name="uni1E90" unicode="&#x1e90;" horiz-adv-x="1799" 
d="M172 0v206l1077 1576h-1086v266h1464v-206l-1077 -1576h1086v-266h-1464zM695 2232l206 268l205 -268h271v15l-352 424h-249l-351 -424v-15h270z" />
    <glyph glyph-name="uni1E92" unicode="&#x1e92;" horiz-adv-x="1799" 
d="M172 0v206l1077 1576h-1086v266h1464v-206l-1077 -1576h1086v-266h-1464zM893 -530q-78 0 -133.5 52.5t-55.5 125.5q0 74 55.5 126.5t133.5 52.5q77 0 133 -52.5t56 -126.5q0 -73 -56 -125.5t-133 -52.5z" />
    <glyph glyph-name="uni1E94" unicode="&#x1e94;" horiz-adv-x="1799" 
d="M172 0v206l1077 1576h-1086v266h1464v-206l-1077 -1576h1086v-266h-1464zM1368 -253v-210h-949v210h949z" />
    <glyph glyph-name="uni0224" unicode="&#x224;" horiz-adv-x="1799" 
d="M1198 0h-1026v206l1080 1576h-1089v266h1464v-206l-1080 -1576h651q216 0 337.5 -121.5t121.5 -323.5v-141h-268v86q0 90 -39.5 162t-151.5 72z" />
    <glyph glyph-name="uni01B5" unicode="&#x1b5;" horiz-adv-x="1799" 
d="M172 0v206l1077 1576h-1086v266h1464v-206l-1077 -1576h1086v-266h-1464zM464 960v207h919v-207h-919z" />
    <glyph glyph-name="uni0396" unicode="&#x396;" horiz-adv-x="1799" 
d="M172 0v206l1077 1576h-1086v266h1464v-206l-1077 -1576h1086v-266h-1464z" />
    <glyph glyph-name="uni2C7F" unicode="&#x2c7f;" horiz-adv-x="1799" 
d="M1424 -600q-134 0 -240 60.5t-201 150t-194.5 179t-220 150t-279.5 60.5h-118v200l1073 1573h-1082v263h1460v-199l-1086 -1597q144 -32 254.5 -98.5t198 -146.5t164 -154t152 -121.5t161.5 -47.5q57 0 103 7.5t87 18.5v-260q-37 -16 -99.5 -27t-132.5 -11z" />
    <glyph glyph-name="uni0061" unicode="a" horiz-adv-x="1603" 
d="M648 -34q-146 0 -263.5 54t-186.5 158.5t-69 255.5q0 131 50.5 215t135 133t189.5 73.5t214 37.5q138 16 223.5 26.5t125 34.5t39.5 78v7q0 131 -73.5 203t-218.5 72q-151 0 -237.5 -66t-119.5 -148l-281 64q75 210 250.5 301t383.5 91q92 0 195 -21.5t194.5 -79
t149 -162.5t57.5 -273v-1020h-292v210h-12q-43 -86 -153 -165t-301 -79zM713 206q125 0 213 49t134.5 128.5t46.5 170.5v198q-21 -21 -92 -37t-150 -27t-128 -18q-130 -17 -222.5 -68.5t-92.5 -171.5q0 -111 82 -167.5t209 -56.5z" />
    <glyph glyph-name="uni00E1" unicode="&#xe1;" horiz-adv-x="1603" 
d="M648 -34q-146 0 -263.5 54t-186.5 158.5t-69 255.5q0 131 50.5 215t135 133t189.5 73.5t214 37.5q138 16 223.5 26.5t125 34.5t39.5 78v7q0 131 -73.5 203t-218.5 72q-151 0 -237.5 -66t-119.5 -148l-281 64q75 210 250.5 301t383.5 91q92 0 195 -21.5t194.5 -79
t149 -162.5t57.5 -273v-1020h-292v210h-12q-43 -86 -153 -165t-301 -79zM713 206q125 0 213 49t134.5 128.5t46.5 170.5v198q-21 -21 -92 -37t-150 -27t-128 -18q-130 -17 -222.5 -68.5t-92.5 -171.5q0 -111 82 -167.5t209 -56.5zM702 1741l234 461h315l-310 -461h-239z" />
    <glyph glyph-name="uni0103" unicode="&#x103;" horiz-adv-x="1603" 
d="M648 -34q-146 0 -263.5 54t-186.5 158.5t-69 255.5q0 131 50.5 215t135 133t189.5 73.5t214 37.5q138 16 223.5 26.5t125 34.5t39.5 78v7q0 131 -73.5 203t-218.5 72q-151 0 -237.5 -66t-119.5 -148l-281 64q75 210 250.5 301t383.5 91q92 0 195 -21.5t194.5 -79
t149 -162.5t57.5 -273v-1020h-292v210h-12q-43 -86 -153 -165t-301 -79zM713 206q125 0 213 49t134.5 128.5t46.5 170.5v198q-21 -21 -92 -37t-150 -27t-128 -18q-130 -17 -222.5 -68.5t-92.5 -171.5q0 -111 82 -167.5t209 -56.5zM1022 2056h246q0 -169 -119.5 -274.5
t-322.5 -105.5q-202 0 -321 105.5t-119 274.5h245q0 -75 44.5 -132.5t150.5 -57.5q105 0 150.5 57t45.5 133z" />
    <glyph glyph-name="uni1EAF" unicode="&#x1eaf;" horiz-adv-x="1603" 
d="M648 -34q-146 0 -263.5 54t-186.5 158.5t-69 255.5q0 131 50.5 215t135 133t189.5 73.5t214 37.5q138 16 223.5 26.5t125 34.5t39.5 78v7q0 131 -73.5 203t-218.5 72q-151 0 -237.5 -66t-119.5 -148l-281 64q75 210 250.5 301t383.5 91q92 0 195 -21.5t194.5 -79
t149 -162.5t57.5 -273v-1020h-292v210h-12q-43 -86 -153 -165t-301 -79zM713 206q125 0 213 49t134.5 128.5t46.5 170.5v198q-21 -21 -92 -37t-150 -27t-128 -18q-130 -17 -222.5 -68.5t-92.5 -171.5q0 -111 82 -167.5t209 -56.5zM1023 2010h241q0 -133 -120 -217.5
t-326 -84.5t-325.5 84.5t-119.5 217.5h240q0 -61 46.5 -108.5t158.5 -47.5q110 0 157.5 47.5t47.5 108.5zM726 2031l158 266h247l-232 -266h-173z" />
    <glyph glyph-name="uni1EB7" unicode="&#x1eb7;" horiz-adv-x="1603" 
d="M648 -34q-146 0 -263.5 54t-186.5 158.5t-69 255.5q0 131 50.5 215t135 133t189.5 73.5t214 37.5q138 16 223.5 26.5t125 34.5t39.5 78v7q0 131 -73.5 203t-218.5 72q-151 0 -237.5 -66t-119.5 -148l-281 64q75 210 250.5 301t383.5 91q92 0 195 -21.5t194.5 -79
t149 -162.5t57.5 -273v-1020h-292v210h-12q-43 -86 -153 -165t-301 -79zM713 206q125 0 213 49t134.5 128.5t46.5 170.5v198q-21 -21 -92 -37t-150 -27t-128 -18q-130 -17 -222.5 -68.5t-92.5 -171.5q0 -111 82 -167.5t209 -56.5zM1022 2056h246q0 -169 -119.5 -274.5
t-322.5 -105.5q-202 0 -321 105.5t-119 274.5h245q0 -75 44.5 -132.5t150.5 -57.5q105 0 150.5 57t45.5 133zM812 -530q-78 0 -133.5 52.5t-55.5 125.5q0 74 55.5 126.5t133.5 52.5q77 0 133 -52.5t56 -126.5q0 -73 -56 -125.5t-133 -52.5z" />
    <glyph glyph-name="uni1EB1" unicode="&#x1eb1;" horiz-adv-x="1603" 
d="M648 -34q-146 0 -263.5 54t-186.5 158.5t-69 255.5q0 131 50.5 215t135 133t189.5 73.5t214 37.5q138 16 223.5 26.5t125 34.5t39.5 78v7q0 131 -73.5 203t-218.5 72q-151 0 -237.5 -66t-119.5 -148l-281 64q75 210 250.5 301t383.5 91q92 0 195 -21.5t194.5 -79
t149 -162.5t57.5 -273v-1020h-292v210h-12q-43 -86 -153 -165t-301 -79zM713 206q125 0 213 49t134.5 128.5t46.5 170.5v198q-21 -21 -92 -37t-150 -27t-128 -18q-130 -17 -222.5 -68.5t-92.5 -171.5q0 -111 82 -167.5t209 -56.5zM1023 2011h241q0 -131 -119.5 -216
t-326.5 -85q-206 0 -325.5 85t-119.5 216h240q0 -62 46.5 -109t158.5 -47q110 0 157.5 47t47.5 109zM756 2031l-232 266h247l157 -266h-172z" />
    <glyph glyph-name="uni1EB3" unicode="&#x1eb3;" horiz-adv-x="1603" 
d="M648 -34q-146 0 -263.5 54t-186.5 158.5t-69 255.5q0 131 50.5 215t135 133t189.5 73.5t214 37.5q138 16 223.5 26.5t125 34.5t39.5 78v7q0 131 -73.5 203t-218.5 72q-151 0 -237.5 -66t-119.5 -148l-281 64q75 210 250.5 301t383.5 91q92 0 195 -21.5t194.5 -79
t149 -162.5t57.5 -273v-1020h-292v210h-12q-43 -86 -153 -165t-301 -79zM713 206q125 0 213 49t134.5 128.5t46.5 170.5v198q-21 -21 -92 -37t-150 -27t-128 -18q-130 -17 -222.5 -68.5t-92.5 -171.5q0 -111 82 -167.5t209 -56.5zM1011 2024h236q1 -133 -116 -216.5
t-320 -83.5q-200 0 -317.5 83.5t-117.5 216.5h235q1 -62 47 -107.5t153 -45.5q109 0 155 46t45 107zM925 2058h-212l-11 164q100 3 145 18.5t44 51.5q1 44 -58.5 59.5t-148.5 15.5l12 127q215 0 323.5 -54.5t108.5 -145.5q0 -76 -63 -111t-140 -44v-81z" />
    <glyph glyph-name="uni1EB5" unicode="&#x1eb5;" horiz-adv-x="1603" 
d="M648 -34q-146 0 -263.5 54t-186.5 158.5t-69 255.5q0 131 50.5 215t135 133t189.5 73.5t214 37.5q138 16 223.5 26.5t125 34.5t39.5 78v7q0 131 -73.5 203t-218.5 72q-151 0 -237.5 -66t-119.5 -148l-281 64q75 210 250.5 301t383.5 91q92 0 195 -21.5t194.5 -79
t149 -162.5t57.5 -273v-1020h-292v210h-12q-43 -86 -153 -165t-301 -79zM713 206q125 0 213 49t134.5 128.5t46.5 170.5v198q-21 -21 -92 -37t-150 -27t-128 -18q-130 -17 -222.5 -68.5t-92.5 -171.5q0 -111 82 -167.5t209 -56.5zM1016 2034h238q0 -135 -118 -221t-322 -86
q-201 0 -320 86t-119 221h237q0 -61 46 -108t156 -47q109 0 155 46.5t47 108.5zM1080 2446l139 -42q0 -100 -65.5 -174t-166.5 -74q-74 0 -121.5 24.5t-90 48.5t-102.5 24q-43 0 -73.5 -34t-30.5 -85l-140 34q0 99 65 177t167 78q60 0 109 -24t97.5 -48.5t107.5 -24.5
q42 0 73.5 34.5t31.5 85.5z" />
    <glyph glyph-name="uni01CE" unicode="&#x1ce;" horiz-adv-x="1603" 
d="M648 -34q-146 0 -263.5 54t-186.5 158.5t-69 255.5q0 131 50.5 215t135 133t189.5 73.5t214 37.5q138 16 223.5 26.5t125 34.5t39.5 78v7q0 131 -73.5 203t-218.5 72q-151 0 -237.5 -66t-119.5 -148l-281 64q75 210 250.5 301t383.5 91q92 0 195 -21.5t194.5 -79
t149 -162.5t57.5 -273v-1020h-292v210h-12q-43 -86 -153 -165t-301 -79zM713 206q125 0 213 49t134.5 128.5t46.5 170.5v198q-21 -21 -92 -37t-150 -27t-128 -18q-130 -17 -222.5 -68.5t-92.5 -171.5q0 -111 82 -167.5t209 -56.5zM620 2159l206 -268l205 268h271v-15
l-352 -424h-249l-351 424v15h270z" />
    <glyph glyph-name="uni00E2" unicode="&#xe2;" horiz-adv-x="1603" 
d="M648 -34q-146 0 -263.5 54t-186.5 158.5t-69 255.5q0 131 50.5 215t135 133t189.5 73.5t214 37.5q138 16 223.5 26.5t125 34.5t39.5 78v7q0 131 -73.5 203t-218.5 72q-151 0 -237.5 -66t-119.5 -148l-281 64q75 210 250.5 301t383.5 91q92 0 195 -21.5t194.5 -79
t149 -162.5t57.5 -273v-1020h-292v210h-12q-43 -86 -153 -165t-301 -79zM713 206q125 0 213 49t134.5 128.5t46.5 170.5v198q-21 -21 -92 -37t-150 -27t-128 -18q-130 -17 -222.5 -68.5t-92.5 -171.5q0 -111 82 -167.5t209 -56.5zM620 1720l206 268l205 -268h271v15
l-352 424h-249l-351 -424v-15h270z" />
    <glyph glyph-name="uni1EA5" unicode="&#x1ea5;" horiz-adv-x="1603" 
d="M648 -34q-146 0 -263.5 54t-186.5 158.5t-69 255.5q0 131 50.5 215t135 133t189.5 73.5t214 37.5q138 16 223.5 26.5t125 34.5t39.5 78v7q0 131 -73.5 203t-218.5 72q-151 0 -237.5 -66t-119.5 -148l-281 64q75 210 250.5 301t383.5 91q92 0 195 -21.5t194.5 -79
t149 -162.5t57.5 -273v-1020h-292v210h-12q-43 -86 -153 -165t-301 -79zM713 206q125 0 213 49t134.5 128.5t46.5 170.5v198q-21 -21 -92 -37t-150 -27t-128 -18q-130 -17 -222.5 -68.5t-92.5 -171.5q0 -111 82 -167.5t209 -56.5zM308 1720l406 347h223l407 -347h-294
l-222 198l-224 -198h-296zM1237 1942l209 365h305l-295 -365h-219z" />
    <glyph glyph-name="uni1EAD" unicode="&#x1ead;" horiz-adv-x="1603" 
d="M648 -34q-146 0 -263.5 54t-186.5 158.5t-69 255.5q0 131 50.5 215t135 133t189.5 73.5t214 37.5q138 16 223.5 26.5t125 34.5t39.5 78v7q0 131 -73.5 203t-218.5 72q-151 0 -237.5 -66t-119.5 -148l-281 64q75 210 250.5 301t383.5 91q92 0 195 -21.5t194.5 -79
t149 -162.5t57.5 -273v-1020h-292v210h-12q-43 -86 -153 -165t-301 -79zM713 206q125 0 213 49t134.5 128.5t46.5 170.5v198q-21 -21 -92 -37t-150 -27t-128 -18q-130 -17 -222.5 -68.5t-92.5 -171.5q0 -111 82 -167.5t209 -56.5zM620 1720l206 268l205 -268h271v15
l-352 424h-249l-351 -424v-15h270zM812 -530q-78 0 -133.5 52.5t-55.5 125.5q0 74 55.5 126.5t133.5 52.5q77 0 133 -52.5t56 -126.5q0 -73 -56 -125.5t-133 -52.5z" />
    <glyph glyph-name="uni1EA7" unicode="&#x1ea7;" horiz-adv-x="1603" 
d="M648 -34q-146 0 -263.5 54t-186.5 158.5t-69 255.5q0 131 50.5 215t135 133t189.5 73.5t214 37.5q138 16 223.5 26.5t125 34.5t39.5 78v7q0 131 -73.5 203t-218.5 72q-151 0 -237.5 -66t-119.5 -148l-281 64q75 210 250.5 301t383.5 91q92 0 195 -21.5t194.5 -79
t149 -162.5t57.5 -273v-1020h-292v210h-12q-43 -86 -153 -165t-301 -79zM713 206q125 0 213 49t134.5 128.5t46.5 170.5v198q-21 -21 -92 -37t-150 -27t-128 -18q-130 -17 -222.5 -68.5t-92.5 -171.5q0 -111 82 -167.5t209 -56.5zM935 2062l408 -347h-295l-222 198
l-223 -198h-294l403 347h223zM207 2304l206 -367h-215l-298 367h307z" />
    <glyph glyph-name="uni1EA9" unicode="&#x1ea9;" horiz-adv-x="1603" 
d="M648 -34q-146 0 -263.5 54t-186.5 158.5t-69 255.5q0 131 50.5 215t135 133t189.5 73.5t214 37.5q138 16 223.5 26.5t125 34.5t39.5 78v7q0 131 -73.5 203t-218.5 72q-151 0 -237.5 -66t-119.5 -148l-281 64q75 210 250.5 301t383.5 91q92 0 195 -21.5t194.5 -79
t149 -162.5t57.5 -273v-1020h-292v210h-12q-43 -86 -153 -165t-301 -79zM713 206q125 0 213 49t134.5 128.5t46.5 170.5v198q-21 -21 -92 -37t-150 -27t-128 -18q-130 -17 -222.5 -68.5t-92.5 -171.5q0 -111 82 -167.5t209 -56.5zM956 2044l385 -347h-263l-256 227
l-253 -227h-263l384 347h266zM1398 1884h-186l-6 172q84 6 124 23t40 58q0 47 -52 66t-131 19l9 142q188 0 285 -60.5t97 -164.5q0 -85 -56 -125.5t-124 -49.5v-80z" />
    <glyph glyph-name="uni1EAB" unicode="&#x1eab;" horiz-adv-x="1603" 
d="M648 -34q-146 0 -263.5 54t-186.5 158.5t-69 255.5q0 131 50.5 215t135 133t189.5 73.5t214 37.5q138 16 223.5 26.5t125 34.5t39.5 78v7q0 131 -73.5 203t-218.5 72q-151 0 -237.5 -66t-119.5 -148l-281 64q75 210 250.5 301t383.5 91q92 0 195 -21.5t194.5 -79
t149 -162.5t57.5 -273v-1020h-292v210h-12q-43 -86 -153 -165t-301 -79zM713 206q125 0 213 49t134.5 128.5t46.5 170.5v198q-21 -21 -92 -37t-150 -27t-128 -18q-130 -17 -222.5 -68.5t-92.5 -171.5q0 -111 82 -167.5t209 -56.5zM925 2004l415 -327h-264l-253 198
l-252 -198h-265l415 327h204zM1061 2352l124 -39q0 -81 -61 -148.5t-154 -67.5q-66 0 -110 23.5t-82.5 47t-91.5 23.5q-39 0 -70.5 -31t-31.5 -68l-120 32q0 80 59.5 149t152.5 69q55 0 100 -22.5t89.5 -45t94.5 -22.5q38 0 69.5 31.5t31.5 68.5z" />
    <glyph glyph-name="uni0201" unicode="&#x201;" horiz-adv-x="1603" 
d="M648 -34q-146 0 -263.5 54t-186.5 158.5t-69 255.5q0 131 50.5 215t135 133t189.5 73.5t214 37.5q138 16 223.5 26.5t125 34.5t39.5 78v7q0 131 -73.5 203t-218.5 72q-151 0 -237.5 -66t-119.5 -148l-281 64q75 210 250.5 301t383.5 91q92 0 195 -21.5t194.5 -79
t149 -162.5t57.5 -273v-1020h-292v210h-12q-43 -86 -153 -165t-301 -79zM713 206q125 0 213 49t134.5 128.5t46.5 170.5v198q-21 -21 -92 -37t-150 -27t-128 -18q-130 -17 -222.5 -68.5t-92.5 -171.5q0 -111 82 -167.5t209 -56.5zM1010 1741l-266 371l201 90l209 -372z
M564 1741l-337 371l175 90l290 -372z" />
    <glyph glyph-name="uni00E4" unicode="&#xe4;" horiz-adv-x="1603" 
d="M648 -34q-146 0 -263.5 54t-186.5 158.5t-69 255.5q0 131 50.5 215t135 133t189.5 73.5t214 37.5q138 16 223.5 26.5t125 34.5t39.5 78v7q0 131 -73.5 203t-218.5 72q-151 0 -237.5 -66t-119.5 -148l-281 64q75 210 250.5 301t383.5 91q92 0 195 -21.5t194.5 -79
t149 -162.5t57.5 -273v-1020h-292v210h-12q-43 -86 -153 -165t-301 -79zM713 206q125 0 213 49t134.5 128.5t46.5 170.5v198q-21 -21 -92 -37t-150 -27t-128 -18q-130 -17 -222.5 -68.5t-92.5 -171.5q0 -111 82 -167.5t209 -56.5zM532 1777q-70 0 -123.5 52t-53.5 122
q0 74 53.5 124.5t123.5 50.5q75 0 125.5 -50.5t50.5 -124.5q0 -70 -50.5 -122t-125.5 -52zM1120 1777q-70 0 -123.5 52t-53.5 122q0 74 53.5 124.5t123.5 50.5q75 0 125.5 -50.5t50.5 -124.5q0 -70 -50.5 -122t-125.5 -52z" />
    <glyph glyph-name="uni01DF" unicode="&#x1df;" horiz-adv-x="1603" 
d="M648 -34q-146 0 -263.5 54t-186.5 158.5t-69 255.5q0 131 50.5 215t135 133t189.5 73.5t214 37.5q138 16 223.5 26.5t125 34.5t39.5 78v7q0 131 -73.5 203t-218.5 72q-151 0 -237.5 -66t-119.5 -148l-281 64q75 210 250.5 301t383.5 91q92 0 195 -21.5t194.5 -79
t149 -162.5t57.5 -273v-1020h-292v210h-12q-43 -86 -153 -165t-301 -79zM713 206q125 0 213 49t134.5 128.5t46.5 170.5v198q-21 -21 -92 -37t-150 -27t-128 -18q-130 -17 -222.5 -68.5t-92.5 -171.5q0 -111 82 -167.5t209 -56.5zM532 1777q-70 0 -123.5 52t-53.5 122
q0 74 53.5 124.5t123.5 50.5q75 0 125.5 -50.5t50.5 -124.5q0 -70 -50.5 -122t-125.5 -52zM1120 1777q-70 0 -123.5 52t-53.5 122q0 74 53.5 124.5t123.5 50.5q75 0 125.5 -50.5t50.5 -124.5q0 -70 -50.5 -122t-125.5 -52zM1300 2560v-210h-949v210h949z" />
    <glyph glyph-name="uni0227" unicode="&#x227;" horiz-adv-x="1603" 
d="M648 -34q-146 0 -263.5 54t-186.5 158.5t-69 255.5q0 131 50.5 215t135 133t189.5 73.5t214 37.5q138 16 223.5 26.5t125 34.5t39.5 78v7q0 131 -73.5 203t-218.5 72q-151 0 -237.5 -66t-119.5 -148l-281 64q75 210 250.5 301t383.5 91q92 0 195 -21.5t194.5 -79
t149 -162.5t57.5 -273v-1020h-292v210h-12q-43 -86 -153 -165t-301 -79zM713 206q125 0 213 49t134.5 128.5t46.5 170.5v198q-21 -21 -92 -37t-150 -27t-128 -18q-130 -17 -222.5 -68.5t-92.5 -171.5q0 -111 82 -167.5t209 -56.5zM826 1773q-78 0 -133.5 52.5t-55.5 125.5
q0 74 55.5 126.5t133.5 52.5q77 0 133 -52.5t56 -126.5q0 -73 -56 -125.5t-133 -52.5z" />
    <glyph glyph-name="uni1EA1" unicode="&#x1ea1;" horiz-adv-x="1603" 
d="M648 -34q-146 0 -263.5 54t-186.5 158.5t-69 255.5q0 131 50.5 215t135 133t189.5 73.5t214 37.5q138 16 223.5 26.5t125 34.5t39.5 78v7q0 131 -73.5 203t-218.5 72q-151 0 -237.5 -66t-119.5 -148l-281 64q75 210 250.5 301t383.5 91q92 0 195 -21.5t194.5 -79
t149 -162.5t57.5 -273v-1020h-292v210h-12q-43 -86 -153 -165t-301 -79zM713 206q125 0 213 49t134.5 128.5t46.5 170.5v198q-21 -21 -92 -37t-150 -27t-128 -18q-130 -17 -222.5 -68.5t-92.5 -171.5q0 -111 82 -167.5t209 -56.5zM812 -530q-78 0 -133.5 52.5t-55.5 125.5
q0 74 55.5 126.5t133.5 52.5q77 0 133 -52.5t56 -126.5q0 -73 -56 -125.5t-133 -52.5z" />
    <glyph glyph-name="uni01E1" unicode="&#x1e1;" horiz-adv-x="1603" 
d="M648 -34q-146 0 -263.5 54t-186.5 158.5t-69 255.5q0 131 50.5 215t135 133t189.5 73.5t214 37.5q138 16 223.5 26.5t125 34.5t39.5 78v7q0 131 -73.5 203t-218.5 72q-151 0 -237.5 -66t-119.5 -148l-281 64q75 210 250.5 301t383.5 91q92 0 195 -21.5t194.5 -79
t149 -162.5t57.5 -273v-1020h-292v210h-12q-43 -86 -153 -165t-301 -79zM713 206q125 0 213 49t134.5 128.5t46.5 170.5v198q-21 -21 -92 -37t-150 -27t-128 -18q-130 -17 -222.5 -68.5t-92.5 -171.5q0 -111 82 -167.5t209 -56.5zM829 1673.72q-78 0 -133.5 50.334
q-55.5 50.333 -55.5 120.321q0 70.9473 55.5 121.281t133.5 50.334q77 0 133 -50.334t56 -121.281q0 -69.9883 -56 -120.321q-56 -50.334 -133 -50.334zM1302 2376.21v-199.926h-949v199.926h949z" />
    <glyph glyph-name="uni00E0" unicode="&#xe0;" horiz-adv-x="1603" 
d="M648 -34q-146 0 -263.5 54t-186.5 158.5t-69 255.5q0 131 50.5 215t135 133t189.5 73.5t214 37.5q138 16 223.5 26.5t125 34.5t39.5 78v7q0 131 -73.5 203t-218.5 72q-151 0 -237.5 -66t-119.5 -148l-281 64q75 210 250.5 301t383.5 91q92 0 195 -21.5t194.5 -79
t149 -162.5t57.5 -273v-1020h-292v210h-12q-43 -86 -153 -165t-301 -79zM713 206q125 0 213 49t134.5 128.5t46.5 170.5v198q-21 -21 -92 -37t-150 -27t-128 -18q-130 -17 -222.5 -68.5t-92.5 -171.5q0 -111 82 -167.5t209 -56.5zM709 1741l-309 461h315l233 -461h-239z" />
    <glyph glyph-name="uni1EA3" unicode="&#x1ea3;" horiz-adv-x="1603" 
d="M648 -34q-146 0 -263.5 54t-186.5 158.5t-69 255.5q0 131 50.5 215t135 133t189.5 73.5t214 37.5q138 16 223.5 26.5t125 34.5t39.5 78v7q0 131 -73.5 203t-218.5 72q-151 0 -237.5 -66t-119.5 -148l-281 64q75 210 250.5 301t383.5 91q92 0 195 -21.5t194.5 -79
t149 -162.5t57.5 -273v-1020h-292v210h-12q-43 -86 -153 -165t-301 -79zM713 206q125 0 213 49t134.5 128.5t46.5 170.5v198q-21 -21 -92 -37t-150 -27t-128 -18q-130 -17 -222.5 -68.5t-92.5 -171.5q0 -111 82 -167.5t209 -56.5zM948 1748h-236l-8 204q106 5 150 28.5
t43 68.5q1 54 -60 77t-150 23l9 165q227 0 344.5 -72t116.5 -194q1 -98 -64.5 -145t-144.5 -59v-96z" />
    <glyph glyph-name="uni0203" unicode="&#x203;" horiz-adv-x="1603" 
d="M648 -34q-146 0 -263.5 54t-186.5 158.5t-69 255.5q0 131 50.5 215t135 133t189.5 73.5t214 37.5q138 16 223.5 26.5t125 34.5t39.5 78v7q0 131 -73.5 203t-218.5 72q-151 0 -237.5 -66t-119.5 -148l-281 64q75 210 250.5 301t383.5 91q92 0 195 -21.5t194.5 -79
t149 -162.5t57.5 -273v-1020h-292v210h-12q-43 -86 -153 -165t-301 -79zM713 206q125 0 213 49t134.5 128.5t46.5 170.5v198q-21 -21 -92 -37t-150 -27t-128 -18q-130 -17 -222.5 -68.5t-92.5 -171.5q0 -111 82 -167.5t209 -56.5zM385 1776q0 168 119 277t324 109
q203 0 321 -109t119 -277h-246q0 77 -45 134.5t-149 57.5q-109 0 -153 -58.5t-44 -133.5h-246z" />
    <glyph glyph-name="uni0101" unicode="&#x101;" horiz-adv-x="1603" 
d="M648 -34q-146 0 -263.5 54t-186.5 158.5t-69 255.5q0 131 50.5 215t135 133t189.5 73.5t214 37.5q138 16 223.5 26.5t125 34.5t39.5 78v7q0 131 -73.5 203t-218.5 72q-151 0 -237.5 -66t-119.5 -148l-281 64q75 210 250.5 301t383.5 91q92 0 195 -21.5t194.5 -79
t149 -162.5t57.5 -273v-1020h-292v210h-12q-43 -86 -153 -165t-301 -79zM713 206q125 0 213 49t134.5 128.5t46.5 170.5v198q-21 -21 -92 -37t-150 -27t-128 -18q-130 -17 -222.5 -68.5t-92.5 -171.5q0 -111 82 -167.5t209 -56.5zM1300 2048v-210h-949v210h949z" />
    <glyph glyph-name="uni0105" unicode="&#x105;" horiz-adv-x="1603" 
d="M648 -34q-146 0 -263.5 54t-186.5 158.5t-69 255.5q0 131 50.5 215t135 133t189.5 73.5t214 37.5q138 16 223.5 26.5t125 34.5t39.5 78v7q0 131 -73.5 203t-218.5 72q-151 0 -237.5 -66t-119.5 -148l-281 64q75 210 250.5 301t383.5 91q92 0 195 -21.5t194.5 -79
t149 -162.5t57.5 -273v-1020h-292v210h-12q-43 -86 -153 -165t-301 -79zM713 206q125 0 213 49t134.5 128.5t46.5 170.5v198q-21 -21 -92 -37t-150 -27t-128 -18q-130 -17 -222.5 -68.5t-92.5 -171.5q0 -111 82 -167.5t209 -56.5zM1215 -591q-126 0 -209.5 68t-91.5 196
q-7 115 65.5 228.5t248.5 192.5l178 -94q-91 -58 -158.5 -124.5t-67.5 -150.5q0 -46 23 -72t79 -26q41 0 73 11t52 21l26 -190q-34 -21 -89 -40.5t-129 -19.5z" />
    <glyph glyph-name="uni1E9A" unicode="&#x1e9a;" horiz-adv-x="1603" 
d="M648 -34q-146 0 -263.5 54t-186.5 158.5t-69 255.5q0 131 50.5 215t135 133t189.5 73.5t214 37.5q138 16 223.5 26.5t125 34.5t39.5 78v7q0 131 -73.5 203t-218.5 72q-151 0 -237.5 -66t-119.5 -148l-281 64q75 210 250.5 301t383.5 91q92 0 195 -21.5t194.5 -79
t149 -162.5t57.5 -273v-1020h-292v210h-12q-43 -86 -153 -165t-301 -79zM713 206q125 0 213 49t134.5 128.5t46.5 170.5v198q-21 -21 -92 -37t-150 -27t-128 -18q-130 -17 -222.5 -68.5t-92.5 -171.5q0 -111 82 -167.5t209 -56.5zM699 1738v137q54 0 92.5 38t38.5 93
q0 61 -38.5 100t-92.5 39v141q117 0 200.5 -78.5t83.5 -201.5q0 -120 -83.5 -194t-200.5 -74z" />
    <glyph glyph-name="uni00E5" unicode="&#xe5;" horiz-adv-x="1603" 
d="M648 -34q-146 0 -263.5 54t-186.5 158.5t-69 255.5q0 131 50.5 215t135 133t189.5 73.5t214 37.5q138 16 223.5 26.5t125 34.5t39.5 78v7q0 131 -73.5 203t-218.5 72q-151 0 -237.5 -66t-119.5 -148l-281 64q75 210 250.5 301t383.5 91q92 0 195 -21.5t194.5 -79
t149 -162.5t57.5 -273v-1020h-292v210h-12q-43 -86 -153 -165t-301 -79zM713 206q125 0 213 49t134.5 128.5t46.5 170.5v198q-21 -21 -92 -37t-150 -27t-128 -18q-130 -17 -222.5 -68.5t-92.5 -171.5q0 -111 82 -167.5t209 -56.5zM826 1706q-100 0 -181 44.5t-128.5 121
t-47.5 170.5t47.5 172.5t128.5 125.5t181 47t179.5 -47t126.5 -125.5t47 -172.5q0 -142 -102 -239t-251 -97zM826 1866q78 1 129 54.5t51 121.5q0 70 -51 125.5t-129 55.5q-79 0 -129.5 -55.5t-50.5 -125.5q0 -68 50.5 -122t129.5 -54z" />
    <glyph glyph-name="uni01FB" unicode="&#x1fb;" horiz-adv-x="1603" 
d="M648 -34q-146 0 -263.5 54t-186.5 158.5t-69 255.5q0 131 50.5 215t135 133t189.5 73.5t214 37.5q138 16 223.5 26.5t125 34.5t39.5 78v7q0 131 -73.5 203t-218.5 72q-151 0 -237.5 -66t-119.5 -148l-281 64q75 210 250.5 301t383.5 91q92 0 195 -21.5t194.5 -79
t149 -162.5t57.5 -273v-1020h-292v210h-12q-43 -86 -153 -165t-301 -79zM713 206q125 0 213 49t134.5 128.5t46.5 170.5v198q-21 -21 -92 -37t-150 -27t-128 -18q-130 -17 -222.5 -68.5t-92.5 -171.5q0 -111 82 -167.5t209 -56.5zM826 1646q-98 0 -170 69t-72 166t72 166
t170 69q101 0 171 -69t70 -166t-70 -166t-171 -69zM711 2190l224 262h306l-331 -262h-199zM826 1785q42 0 69.5 28.5t27.5 67.5q0 36 -27.5 64t-69.5 28q-40 0 -68.5 -28t-28.5 -64q0 -39 28.5 -67.5t68.5 -28.5z" />
    <glyph glyph-name="uni1E01" unicode="&#x1e01;" horiz-adv-x="1603" 
d="M648 -34q-146 0 -263.5 54t-186.5 158.5t-69 255.5q0 131 50.5 215t135 133t189.5 73.5t214 37.5q138 16 223.5 26.5t125 34.5t39.5 78v7q0 131 -73.5 203t-218.5 72q-151 0 -237.5 -66t-119.5 -148l-281 64q75 210 250.5 301t383.5 91q92 0 195 -21.5t194.5 -79
t149 -162.5t57.5 -273v-1020h-292v210h-12q-43 -86 -153 -165t-301 -79zM713 206q125 0 213 49t134.5 128.5t46.5 170.5v198q-21 -21 -92 -37t-150 -27t-128 -18q-130 -17 -222.5 -68.5t-92.5 -171.5q0 -111 82 -167.5t209 -56.5zM539 -328q0 101 73 167t179 66
q100 0 175 -66t75 -167q0 -105 -75 -169.5t-175 -64.5q-106 0 -179 65t-73 169zM675 -328q0 -49 33 -81.5t83 -32.5q44 0 78.5 32.5t34.5 81.5q0 48 -34.5 80.5t-78.5 32.5q-50 0 -83 -32.5t-33 -80.5z" />
    <glyph glyph-name="uni00E3" unicode="&#xe3;" horiz-adv-x="1603" 
d="M648 -34q-146 0 -263.5 54t-186.5 158.5t-69 255.5q0 131 50.5 215t135 133t189.5 73.5t214 37.5q138 16 223.5 26.5t125 34.5t39.5 78v7q0 131 -73.5 203t-218.5 72q-151 0 -237.5 -66t-119.5 -148l-281 64q75 210 250.5 301t383.5 91q92 0 195 -21.5t194.5 -79
t149 -162.5t57.5 -273v-1020h-292v210h-12q-43 -86 -153 -165t-301 -79zM713 206q125 0 213 49t134.5 128.5t46.5 170.5v198q-21 -21 -92 -37t-150 -27t-128 -18q-130 -17 -222.5 -68.5t-92.5 -171.5q0 -111 82 -167.5t209 -56.5zM525 1722l-201 6q0 166 89.5 265t221.5 99
q82 0 138.5 -33.5t108 -67.5t118.5 -34q58 0 94 44t37 109l197 -13q0 -167 -90 -262.5t-221 -96.5q-71 0 -117.5 20.5t-82.5 47.5t-74 47.5t-91 20.5q-55 0 -91 -43.5t-36 -108.5z" />
    <glyph glyph-name="uni0250" unicode="&#x250;" horiz-adv-x="1603" 
d="M955 1570q146 0 263.5 -54t186.5 -158.5t69 -255.5q0 -131 -50.5 -215t-135 -133t-189.5 -73.5t-214 -37.5q-138 -16 -223.5 -26.5t-125 -34.5t-39.5 -78v-7q0 -131 73.5 -203t218.5 -72q151 0 237.5 66t119.5 148l281 -64q-75 -210 -250.5 -301t-383.5 -91
q-92 0 -195 21.5t-194.5 79t-149 162.5t-57.5 273v1020h292v-210h12q43 86 153 165t301 79zM890 1330q-125 0 -213 -49t-134.5 -128.5t-46.5 -170.5v-198q21 21 92 37t150 27t128 18q130 17 222.5 68.5t92.5 171.5q0 111 -82 167.5t-209 56.5z" />
    <glyph glyph-name="uni0430" unicode="&#x430;" horiz-adv-x="1603" 
d="M648 -34q-146 0 -263.5 54t-186.5 158.5t-69 255.5q0 131 50.5 215t135 133t189.5 73.5t214 37.5q138 16 223.5 26.5t125 34.5t39.5 78v7q0 131 -73.5 203t-218.5 72q-151 0 -237.5 -66t-119.5 -148l-281 64q75 210 250.5 301t383.5 91q92 0 195 -21.5t194.5 -79
t149 -162.5t57.5 -273v-1020h-292v210h-12q-43 -86 -153 -165t-301 -79zM713 206q125 0 213 49t134.5 128.5t46.5 170.5v198q-21 -21 -92 -37t-150 -27t-128 -18q-130 -17 -222.5 -68.5t-92.5 -171.5q0 -111 82 -167.5t209 -56.5z" />
    <glyph glyph-name="uni04D1" unicode="&#x4d1;" horiz-adv-x="1603" 
d="M648 -34q-146 0 -263.5 54t-186.5 158.5t-69 255.5q0 131 50.5 215t135 133t189.5 73.5t214 37.5q138 16 223.5 26.5t125 34.5t39.5 78v7q0 131 -73.5 203t-218.5 72q-151 0 -237.5 -66t-119.5 -148l-281 64q75 210 250.5 301t383.5 91q92 0 195 -21.5t194.5 -79
t149 -162.5t57.5 -273v-1020h-292v210h-12q-43 -86 -153 -165t-301 -79zM713 206q125 0 213 49t134.5 128.5t46.5 170.5v198q-21 -21 -92 -37t-150 -27t-128 -18q-130 -17 -222.5 -68.5t-92.5 -171.5q0 -111 82 -167.5t209 -56.5zM1022 2056h246q0 -169 -119.5 -274.5
t-322.5 -105.5q-202 0 -321 105.5t-119 274.5h245q0 -75 44.5 -132.5t150.5 -57.5q105 0 150.5 57t45.5 133z" />
    <glyph glyph-name="uni04D3" unicode="&#x4d3;" horiz-adv-x="1603" 
d="M648 -34q-146 0 -263.5 54t-186.5 158.5t-69 255.5q0 131 50.5 215t135 133t189.5 73.5t214 37.5q138 16 223.5 26.5t125 34.5t39.5 78v7q0 131 -73.5 203t-218.5 72q-151 0 -237.5 -66t-119.5 -148l-281 64q75 210 250.5 301t383.5 91q92 0 195 -21.5t194.5 -79
t149 -162.5t57.5 -273v-1020h-292v210h-12q-43 -86 -153 -165t-301 -79zM713 206q125 0 213 49t134.5 128.5t46.5 170.5v198q-21 -21 -92 -37t-150 -27t-128 -18q-130 -17 -222.5 -68.5t-92.5 -171.5q0 -111 82 -167.5t209 -56.5zM532 1777q-70 0 -123.5 52t-53.5 122
q0 74 53.5 124.5t123.5 50.5q75 0 125.5 -50.5t50.5 -124.5q0 -70 -50.5 -122t-125.5 -52zM1120 1777q-70 0 -123.5 52t-53.5 122q0 74 53.5 124.5t123.5 50.5q75 0 125.5 -50.5t50.5 -124.5q0 -70 -50.5 -122t-125.5 -52z" />
    <glyph glyph-name="uni00E6" unicode="&#xe6;" horiz-adv-x="2594" 
d="M1811 -31q-201 0 -351 80.5t-223 220.5h-11q-33 -86 -117.5 -155t-202 -109t-250.5 -40q-151 0 -270 54.5t-188 159t-69 254.5q0 131 50.5 214.5t135.5 132.5t189.5 74t213.5 38q207 25 297.5 42t90.5 97v7q0 130 -73.5 202.5t-218.5 72.5q-150 0 -237 -66t-120 -148
l-281 64q75 210 250 301t386 91q77 0 168 -17.5t174.5 -67t137.5 -146.5q175 231 489 231q175 0 330.5 -77.5t253 -247t97.5 -447.5v-106h-1093q6 -221 125.5 -341.5t310.5 -120.5q128 0 221 55t133 164l283 -51q-51 -187 -219.5 -301t-411.5 -114zM713 206q125 0 213 49
t134.5 128.5t46.5 170.5v198q-21 -21 -92 -37t-150 -27t-128 -18q-130 -17 -222.5 -68.5t-92.5 -171.5q0 -111 82 -167.5t209 -56.5zM1370 902h798q-1 176 -106 291.5t-279 115.5q-121 0 -211.5 -56.5t-142.5 -149.5t-59 -201z" />
    <glyph glyph-name="uni01E3" unicode="&#x1e3;" horiz-adv-x="2594" 
d="M1811 -31q-201 0 -351 80.5t-223 220.5h-11q-33 -86 -117.5 -155t-202 -109t-250.5 -40q-151 0 -270 54.5t-188 159t-69 254.5q0 131 50.5 214.5t135.5 132.5t189.5 74t213.5 38q207 25 297.5 42t90.5 97v7q0 130 -73.5 202.5t-218.5 72.5q-150 0 -237 -66t-120 -148
l-281 64q75 210 250 301t386 91q77 0 168 -17.5t174.5 -67t137.5 -146.5q175 231 489 231q175 0 330.5 -77.5t253 -247t97.5 -447.5v-106h-1093q6 -221 125.5 -341.5t310.5 -120.5q128 0 221 55t133 164l283 -51q-51 -187 -219.5 -301t-411.5 -114zM713 206q125 0 213 49
t134.5 128.5t46.5 170.5v198q-21 -21 -92 -37t-150 -27t-128 -18q-130 -17 -222.5 -68.5t-92.5 -171.5q0 -111 82 -167.5t209 -56.5zM1370 902h798q-1 176 -106 291.5t-279 115.5q-121 0 -211.5 -56.5t-142.5 -149.5t-59 -201zM1750 2048v-210h-949v210h949z" />
    <glyph glyph-name="uni01FD" unicode="&#x1fd;" horiz-adv-x="2594" 
d="M1811 -31q-201 0 -351 80.5t-223 220.5h-11q-33 -86 -117.5 -155t-202 -109t-250.5 -40q-151 0 -270 54.5t-188 159t-69 254.5q0 131 50.5 214.5t135.5 132.5t189.5 74t213.5 38q207 25 297.5 42t90.5 97v7q0 130 -73.5 202.5t-218.5 72.5q-150 0 -237 -66t-120 -148
l-281 64q75 210 250 301t386 91q77 0 168 -17.5t174.5 -67t137.5 -146.5q175 231 489 231q175 0 330.5 -77.5t253 -247t97.5 -447.5v-106h-1093q6 -221 125.5 -341.5t310.5 -120.5q128 0 221 55t133 164l283 -51q-51 -187 -219.5 -301t-411.5 -114zM713 206q125 0 213 49
t134.5 128.5t46.5 170.5v198q-21 -21 -92 -37t-150 -27t-128 -18q-130 -17 -222.5 -68.5t-92.5 -171.5q0 -111 82 -167.5t209 -56.5zM1370 902h798q-1 176 -106 291.5t-279 115.5q-121 0 -211.5 -56.5t-142.5 -149.5t-59 -201zM1152 1741l234 461h315l-310 -461h-239z" />
    <glyph glyph-name="uni04D5" unicode="&#x4d5;" horiz-adv-x="2594" 
d="M1811 -31q-201 0 -351 80.5t-223 220.5h-11q-33 -86 -117.5 -155t-202 -109t-250.5 -40q-151 0 -270 54.5t-188 159t-69 254.5q0 131 50.5 214.5t135.5 132.5t189.5 74t213.5 38q207 25 297.5 42t90.5 97v7q0 130 -73.5 202.5t-218.5 72.5q-150 0 -237 -66t-120 -148
l-281 64q75 210 250 301t386 91q77 0 168 -17.5t174.5 -67t137.5 -146.5q175 231 489 231q175 0 330.5 -77.5t253 -247t97.5 -447.5v-106h-1093q6 -221 125.5 -341.5t310.5 -120.5q128 0 221 55t133 164l283 -51q-51 -187 -219.5 -301t-411.5 -114zM713 206q125 0 213 49
t134.5 128.5t46.5 170.5v198q-21 -21 -92 -37t-150 -27t-128 -18q-130 -17 -222.5 -68.5t-92.5 -171.5q0 -111 82 -167.5t209 -56.5zM1370 902h798q-1 176 -106 291.5t-279 115.5q-121 0 -211.5 -56.5t-142.5 -149.5t-59 -201z" />
    <glyph glyph-name="uniE02C" unicode="&#xe02c;" horiz-adv-x="1762" 
d="M776 -30q-186 0 -331 95t-228 273.5t-83 426.5q0 249 83.5 426t229.5 271t331 94q143 0 230.5 -47.5t136 -110.5t75.5 -111h18v249h299v-1536h-292v239h-25q-27 -49 -77.5 -112t-138.5 -110t-228 -47zM842 225q194 0 297.5 150.5t103.5 392.5q0 241 -102.5 387.5
t-298.5 146.5q-135 0 -225 -70t-135.5 -190.5t-45.5 -273.5q0 -154 46 -277t136.5 -194.5t223.5 -71.5z" />
    <glyph glyph-name="uniE02D" unicode="&#xe02d;" horiz-adv-x="1762" 
d="M776 -30q-186 0 -331 95t-228 273.5t-83 426.5q0 249 83.5 426t229.5 271t331 94q143 0 230.5 -47.5t136 -110.5t75.5 -111h18v249h299v-1536h-292v239h-25q-27 -49 -77.5 -112t-138.5 -110t-228 -47zM842 225q194 0 297.5 150.5t103.5 392.5q0 241 -102.5 387.5
t-298.5 146.5q-135 0 -225 -70t-135.5 -190.5t-45.5 -273.5q0 -154 46 -277t136.5 -194.5t223.5 -71.5zM750 1741l234 461h315l-310 -461h-239z" />
    <glyph glyph-name="uniE02E" unicode="&#xe02e;" horiz-adv-x="1762" 
d="M776 -30q-186 0 -331 95t-228 273.5t-83 426.5q0 249 83.5 426t229.5 271t331 94q143 0 230.5 -47.5t136 -110.5t75.5 -111h18v249h299v-1536h-292v239h-25q-27 -49 -77.5 -112t-138.5 -110t-228 -47zM842 225q194 0 297.5 150.5t103.5 392.5q0 241 -102.5 387.5
t-298.5 146.5q-135 0 -225 -70t-135.5 -190.5t-45.5 -273.5q0 -154 46 -277t136.5 -194.5t223.5 -71.5zM1070 2056h246q0 -169 -119.5 -274.5t-322.5 -105.5q-202 0 -321 105.5t-119 274.5h245q0 -75 44.5 -132.5t150.5 -57.5q105 0 150.5 57t45.5 133z" />
    <glyph glyph-name="uniE02F" unicode="&#xe02f;" horiz-adv-x="1762" 
d="M776 -30q-186 0 -331 95t-228 273.5t-83 426.5q0 249 83.5 426t229.5 271t331 94q143 0 230.5 -47.5t136 -110.5t75.5 -111h18v249h299v-1536h-292v239h-25q-27 -49 -77.5 -112t-138.5 -110t-228 -47zM842 225q194 0 297.5 150.5t103.5 392.5q0 241 -102.5 387.5
t-298.5 146.5q-135 0 -225 -70t-135.5 -190.5t-45.5 -273.5q0 -154 46 -277t136.5 -194.5t223.5 -71.5zM1071 2010h241q0 -133 -120 -217.5t-326 -84.5t-325.5 84.5t-119.5 217.5h240q0 -61 46.5 -108.5t158.5 -47.5q110 0 157.5 47.5t47.5 108.5zM774 2031l158 266h247
l-232 -266h-173z" />
    <glyph glyph-name="uniE030" unicode="&#xe030;" horiz-adv-x="1762" 
d="M776 -30q-186 0 -331 95t-228 273.5t-83 426.5q0 249 83.5 426t229.5 271t331 94q143 0 230.5 -47.5t136 -110.5t75.5 -111h18v249h299v-1536h-292v239h-25q-27 -49 -77.5 -112t-138.5 -110t-228 -47zM842 225q194 0 297.5 150.5t103.5 392.5q0 241 -102.5 387.5
t-298.5 146.5q-135 0 -225 -70t-135.5 -190.5t-45.5 -273.5q0 -154 46 -277t136.5 -194.5t223.5 -71.5zM1070 2056h246q0 -169 -119.5 -274.5t-322.5 -105.5q-202 0 -321 105.5t-119 274.5h245q0 -75 44.5 -132.5t150.5 -57.5q105 0 150.5 57t45.5 133zM860 -530
q-78 0 -133.5 52.5t-55.5 125.5q0 74 55.5 126.5t133.5 52.5q77 0 133 -52.5t56 -126.5q0 -73 -56 -125.5t-133 -52.5z" />
    <glyph glyph-name="uniE031" unicode="&#xe031;" horiz-adv-x="1762" 
d="M776 -30q-186 0 -331 95t-228 273.5t-83 426.5q0 249 83.5 426t229.5 271t331 94q143 0 230.5 -47.5t136 -110.5t75.5 -111h18v249h299v-1536h-292v239h-25q-27 -49 -77.5 -112t-138.5 -110t-228 -47zM842 225q194 0 297.5 150.5t103.5 392.5q0 241 -102.5 387.5
t-298.5 146.5q-135 0 -225 -70t-135.5 -190.5t-45.5 -273.5q0 -154 46 -277t136.5 -194.5t223.5 -71.5zM1071 2011h241q0 -131 -119.5 -216t-326.5 -85q-206 0 -325.5 85t-119.5 216h240q0 -62 46.5 -109t158.5 -47q110 0 157.5 47t47.5 109zM804 2031l-232 266h247
l157 -266h-172z" />
    <glyph glyph-name="uniE032" unicode="&#xe032;" horiz-adv-x="1762" 
d="M776 -30q-186 0 -331 95t-228 273.5t-83 426.5q0 249 83.5 426t229.5 271t331 94q143 0 230.5 -47.5t136 -110.5t75.5 -111h18v249h299v-1536h-292v239h-25q-27 -49 -77.5 -112t-138.5 -110t-228 -47zM842 225q194 0 297.5 150.5t103.5 392.5q0 241 -102.5 387.5
t-298.5 146.5q-135 0 -225 -70t-135.5 -190.5t-45.5 -273.5q0 -154 46 -277t136.5 -194.5t223.5 -71.5zM1059 2024h236q1 -133 -116 -216.5t-320 -83.5q-200 0 -317.5 83.5t-117.5 216.5h235q1 -62 47 -107.5t153 -45.5q109 0 155 46t45 107zM973 2058h-212l-11 164
q100 3 145 18.5t44 51.5q1 44 -58.5 59.5t-148.5 15.5l12 127q215 0 323.5 -54.5t108.5 -145.5q0 -76 -63 -111t-140 -44v-81z" />
    <glyph glyph-name="uniE033" unicode="&#xe033;" horiz-adv-x="1762" 
d="M776 -30q-186 0 -331 95t-228 273.5t-83 426.5q0 249 83.5 426t229.5 271t331 94q143 0 230.5 -47.5t136 -110.5t75.5 -111h18v249h299v-1536h-292v239h-25q-27 -49 -77.5 -112t-138.5 -110t-228 -47zM842 225q194 0 297.5 150.5t103.5 392.5q0 241 -102.5 387.5
t-298.5 146.5q-135 0 -225 -70t-135.5 -190.5t-45.5 -273.5q0 -154 46 -277t136.5 -194.5t223.5 -71.5zM1064 2034h238q0 -135 -118 -221t-322 -86q-201 0 -320 86t-119 221h237q0 -61 46 -108t156 -47q109 0 155 46.5t47 108.5zM1128 2446l139 -42q0 -100 -65.5 -174
t-166.5 -74q-74 0 -121.5 24.5t-90 48.5t-102.5 24q-43 0 -73.5 -34t-30.5 -85l-140 34q0 99 65 177t167 78q60 0 109 -24t97.5 -48.5t107.5 -24.5q42 0 73.5 34.5t31.5 85.5z" />
    <glyph glyph-name="uniE034" unicode="&#xe034;" horiz-adv-x="1762" 
d="M776 -30q-186 0 -331 95t-228 273.5t-83 426.5q0 249 83.5 426t229.5 271t331 94q143 0 230.5 -47.5t136 -110.5t75.5 -111h18v249h299v-1536h-292v239h-25q-27 -49 -77.5 -112t-138.5 -110t-228 -47zM842 225q194 0 297.5 150.5t103.5 392.5q0 241 -102.5 387.5
t-298.5 146.5q-135 0 -225 -70t-135.5 -190.5t-45.5 -273.5q0 -154 46 -277t136.5 -194.5t223.5 -71.5zM668 2159l206 -268l205 268h271v-15l-352 -424h-249l-351 424v15h270z" />
    <glyph glyph-name="uniE035" unicode="&#xe035;" horiz-adv-x="1762" 
d="M776 -30q-186 0 -331 95t-228 273.5t-83 426.5q0 249 83.5 426t229.5 271t331 94q143 0 230.5 -47.5t136 -110.5t75.5 -111h18v249h299v-1536h-292v239h-25q-27 -49 -77.5 -112t-138.5 -110t-228 -47zM842 225q194 0 297.5 150.5t103.5 392.5q0 241 -102.5 387.5
t-298.5 146.5q-135 0 -225 -70t-135.5 -190.5t-45.5 -273.5q0 -154 46 -277t136.5 -194.5t223.5 -71.5zM668 1720l206 268l205 -268h271v15l-352 424h-249l-351 -424v-15h270z" />
    <glyph glyph-name="uniE036" unicode="&#xe036;" horiz-adv-x="1762" 
d="M776 -30q-186 0 -331 95t-228 273.5t-83 426.5q0 249 83.5 426t229.5 271t331 94q143 0 230.5 -47.5t136 -110.5t75.5 -111h18v249h299v-1536h-292v239h-25q-27 -49 -77.5 -112t-138.5 -110t-228 -47zM842 225q194 0 297.5 150.5t103.5 392.5q0 241 -102.5 387.5
t-298.5 146.5q-135 0 -225 -70t-135.5 -190.5t-45.5 -273.5q0 -154 46 -277t136.5 -194.5t223.5 -71.5zM356 1720l406 347h223l407 -347h-294l-222 198l-224 -198h-296zM1285 1942l209 365h305l-295 -365h-219z" />
    <glyph glyph-name="uniE037" unicode="&#xe037;" horiz-adv-x="1762" 
d="M776 -30q-186 0 -331 95t-228 273.5t-83 426.5q0 249 83.5 426t229.5 271t331 94q143 0 230.5 -47.5t136 -110.5t75.5 -111h18v249h299v-1536h-292v239h-25q-27 -49 -77.5 -112t-138.5 -110t-228 -47zM842 225q194 0 297.5 150.5t103.5 392.5q0 241 -102.5 387.5
t-298.5 146.5q-135 0 -225 -70t-135.5 -190.5t-45.5 -273.5q0 -154 46 -277t136.5 -194.5t223.5 -71.5zM668 1720l206 268l205 -268h271v15l-352 424h-249l-351 -424v-15h270zM860 -530q-78 0 -133.5 52.5t-55.5 125.5q0 74 55.5 126.5t133.5 52.5q77 0 133 -52.5t56 -126.5
q0 -73 -56 -125.5t-133 -52.5z" />
    <glyph glyph-name="uniE038" unicode="&#xe038;" horiz-adv-x="1762" 
d="M776 -30q-186 0 -331 95t-228 273.5t-83 426.5q0 249 83.5 426t229.5 271t331 94q143 0 230.5 -47.5t136 -110.5t75.5 -111h18v249h299v-1536h-292v239h-25q-27 -49 -77.5 -112t-138.5 -110t-228 -47zM842 225q194 0 297.5 150.5t103.5 392.5q0 241 -102.5 387.5
t-298.5 146.5q-135 0 -225 -70t-135.5 -190.5t-45.5 -273.5q0 -154 46 -277t136.5 -194.5t223.5 -71.5zM983 2062l408 -347h-295l-222 198l-223 -198h-294l403 347h223zM255 2304l206 -367h-215l-298 367h307z" />
    </font>
</defs>
</svg>
